osu file format v5

[General]
AudioFilename: Trogdor 1.mp3
AudioLeadIn: 2003
PreviewTime: -1
Countdown: 0
SampleSet: Normal
StackLeniency: 0.7
Mode: 0

[Metadata]
Title:Trogdor
Artist:Strong Bad
Creator:PeriMatt
Version:

[Difficulty]
HPDrainRate:4
CircleSize:3
OverallDifficulty:4
SliderMultiplier:1.4
SliderTickRate:2

[Events]
//Background and Video events
//Break Periods
2,51283,68614
//Storyboard Layer 0 (Background)
//Storyboard Layer 1 (Failing)
//Storyboard Layer 2 (Passing)
//Storyboard Layer 3 (Foreground)
//Storyboard Sound Samples
//Background Colour Transformations
3,100,163,162,255

[TimingPoints]
812,462.395565976969,4,1,0,100

[HitObjects]
56,64,812,2,0,B|278:24|409:60|416:48,3,350
120,128,4953,2,0,B|472:184,2,350
248,96,8094,5,0
352,112,8557,1,0
424,160,9019,1,0
432,240,9481,1,0
424,304,9713,2,0,C|336:328|232:312|160:264,1,280
416,176,13622,1,0
272,248,14396,1,0
248,264,14551,1,0
184,264,14860,1,0
264,184,17027,5,0
424,184,17801,1,0
224,296,18885,1,0
72,240,19659,1,0
136,232,19969,1,0
168,232,20123,5,0
232,264,23839,1,0
176,264,24148,1,0
168,216,25232,2,0,B|464:200,3,280
320,208,28637,5,0
152,200,29411,1,0
296,280,30185,1,0
328,184,30650,1,0
272,152,30959,1,0
184,248,31578,1,0
112,32,32662,5,0
168,64,32972,1,0
232,136,33436,1,0
320,176,33900,1,0
344,200,34055,1,0
432,240,34520,1,0
240,160,36377,5,0
176,160,36687,1,0
80,160,37151,1,0
152,224,37616,1,0
184,232,37770,1,0
264,128,38390,1,0
392,128,39009,5,0
72,200,40557,1,0
168,200,41021,1,0
232,200,41331,1,0
296,200,41640,1,0
360,200,41950,1,0
216,208,43653,5,0
344,176,44272,1,0
392,264,44736,2,0,B|168:80|152:256|208:240,2,280
88,200,48142,1,0
160,128,48606,1,0
264,200,49226,2,0,B|40:16|24:192|80:176,2,280
144,184,69814,5,0
240,184,70278,1,0
328,88,70897,1,0
360,144,71207,1,0
240,160,71826,5,0
88,280,72755,1,0
208,160,74767,1,0
304,160,75232,1,0
264,208,75541,1,0
160,328,76315,1,0
464,224,77863,1,0
264,224,78792,1,0
96,128,79721,5,0
224,128,80340,1,0
96,200,82043,5,0
192,192,82507,1,0
352,152,83281,1,0
296,232,83746,2,0,B|391:231|391:231,2,93.3333333333333
192,184,85758,6,0,B|464:184,3,233.333333333333
192,184,89318,2,0,B|424:184,5,186.666666666667
