osu file format v5

[General]
AudioFilename: Trogdor.mp3
AudioLeadIn: 2007
PreviewTime: 50562
Countdown: 1
SampleSet: Normal
StackLeniency: 0.7
Mode: 0
LetterboxInBreaks: 1
EditorBookmarks: 1606

[Metadata]
Title:Trogdor
Artist:Strong Bad
Creator:Agent Spin Here
Version:Knight
Source:homestarrunner.com
Tags:trogdor dragon strong bad homestar runner burninate beefy arm

[Difficulty]
HPDrainRate:7
CircleSize:5
OverallDifficulty:6
SliderMultiplier:1.5
SliderTickRate:3

[Events]
//Background and Video events
0,0,"trog.jpg"
//Break Periods
2,19072,21902
//Storyboard Layer 0 (Background)
//Storyboard Layer 1 (Failing)
//Storyboard Layer 2 (Passing)
//Storyboard Layer 3 (Foreground)
//Storyboard Sound Samples
//Background Colour Transformations
3,100,163,162,255

[TimingPoints]
1064,359.788281320782,4,1,0,100,1
14016,359.788281320783,4,2,0,100,1
18961,359.788281320783,4,1,0,100,1

[HitObjects]
192,160,224,1,0
272,160,584,2,0,B|560:160|320:224|256:256|240:288|240:288|288:336|384:304,2,475
160,240,4062,5,0
16,240,4481,2,0,B|64:160|144:128|288:176|352:240,2,375
352,192,7300,5,0
208,192,7720,1,0
80,192,8139,1,0
80,32,8619,1,0
144,32,8799,1,4
256,64,10598,5,0
320,64,10778,1,8
496,320,11737,1,0
416,320,11917,1,0
336,320,12097,1,0
224,192,12637,5,0
288,192,12817,1,0
400,192,13176,2,0,B|464:192|512:208|512:208|512:48,1,250
416,272,15155,5,0
48,160,16294,5,0
96,128,16474,1,0
176,128,16654,1,0
224,160,16834,1,0
288,160,17014,1,0
384,160,17493,1,0
480,160,17973,1,4
480,256,18273,2,4,B|288:256,1,175
144,144,22199,5,0
208,144,22378,1,0
272,144,22558,1,0
336,144,22738,1,0
448,224,23158,5,2
240,240,23578,2,2,B|64:240|64:240|64:320|64:320|464:320,2,650
368,128,27236,5,2
160,128,27835,2,2,B|160:48|160:48|208:48|208:48|208:144|208:144|144:144|144:144|144:48|144:48|224:48|224:48|224:160|224:160|112:160,1,675
176,288,30654,6,0,B|240:320|320:272,1,150
240,240,31253,1,0
240,96,31673,1,0
400,96,32093,1,0
400,192,32333,2,0,B|400:352,1,150
304,336,32872,1,4
208,320,34132,6,0,B|160:272|208:176,1,150
240,256,34731,2,0,B|272:176|224:64,2,175,0|0|0
320,256,35811,1,4
416,256,36290,1,4
400,144,37789,6,0,B|320:96|224:144,1,175
240,224,38449,2,0,B|320:192|416:224,1,175
400,272,39049,1,0
400,352,39289,1,0
320,352,39528,1,0
240,352,39768,1,4
176,240,41028,5,0
176,192,41147,5,0
240,144,41387,5,0
400,144,41867,1,0
384,288,42287,1,2
304,288,42527,1,2
224,288,42766,2,2,B|256:224|256:224|432:224,4,225
160,256,46125,5,2
160,128,46424,1,2
240,128,46664,1,2
304,128,46844,1,2
368,128,47024,2,2,B|432:128|432:128|432:176|432:176|400:176|400:176|400:144|400:144|432:144|432:144|512:144,5,275
