osu file format v12

[General]
AudioFilename: Strike Witches - Bookmark A Head.mp3
AudioLeadIn: 0
PreviewTime: 54130
Countdown: 0
SampleSet: Normal
StackLeniency: 0.7
Mode: 0
LetterboxInBreaks: 1
WidescreenStoryboard: 0

[Editor]
Bookmarks: 11774
DistanceSpacing: 1.8
BeatDivisor: 4
GridSize: 8
TimelineZoom: 1

[Metadata]
Title:Bookmark A Head (TV Size)
TitleUnicode:Bookmark A Head (TV Size)
Artist:Strike Witches
ArtistUnicode:Strike Witches
Creator:xxdeathx
Version:Insane
Source:Strike Witches
Tags:ending theme ed Misato Fukuen Saeko Chiba Kaori Nazuka Miyuki Sawashiro Rie Tanaka Mie Sonozaki Sakura Nogawa Chiwa Saito Ami Koshimizu Mai Kadowaki Erika Naka
BeatmapID:395599
BeatmapSetID:160553

[Difficulty]
HPDrainRate:6
CircleSize:4
OverallDifficulty:7
ApproachRate:8
SliderMultiplier:1.6
SliderTickRate:1

[Events]
//Background and Video events
Video,459,"swending.avi"
0,0,"8bb6Z[1].jpg",0,0
//Break Periods
//Storyboard Layer 0 (Background)
//Storyboard Layer 1 (Fail)
//Storyboard Layer 2 (Pass)
//Storyboard Layer 3 (Foreground)
//Storyboard Sound Samples
//Background Colour Transformations
3,100,163,162,255

[TimingPoints]
531,352.941176470588,4,1,0,80,1,0
11825,-100,4,2,1,60,0,0
18707,-80,4,1,0,80,0,0
19060,-100,4,2,1,60,0,0
30001,-80,4,1,0,80,0,0
30354,-100,4,2,1,60,0,0
34413,-100,4,3,0,60,0,0
37236,-125,4,1,0,60,0,0
40060,-100,4,3,0,60,0,0
45707,-100,4,1,0,80,0,0
51530,-100,4,1,0,60,0,0
54178,-100,4,1,0,80,0,1
79589,-100,4,1,0,80,0,0
86648,-80,4,1,0,80,0,0

[Colours]
Combo1 : 0,210,0
Combo2 : 170,170,255
Combo3 : 200,0,200
Combo4 : 0,255,255
Combo5 : 128,128,255

[HitObjects]
80,72,531,5,4,0:0:0:0:
216,176,1413,1,0,0:0:0:0:
304,224,1589,2,0,L|344:144,1,80,0|4,0:0|0:0,0:0:0:0:
208,312,3001,5,0,0:0:0:0:
208,312,3089,1,0,0:0:0:0:
208,312,3178,1,0,0:0:0:0:
320,256,3354,6,0,P|336:296|368:304,1,80,4|0,0:0|0:0,0:0:0:0:
236,168,3707,2,0,P|196:184|188:216,1,80
344,104,4060,2,0,P|328:64|296:56,1,80
408,208,4413,2,0,P|448:192|456:160,1,80
328,184,4766,1,0,0:0:0:0:
200,272,4942,1,0,0:0:0:0:
324,304,5119,1,0,0:0:0:0:
200,124,5295,1,4,0:0:0:0:
384,136,5648,5,0,0:0:0:0:
416,272,5825,1,0,0:0:0:0:
280,240,6001,1,0,0:0:0:0:
168,112,6178,2,0,L|152:32,1,80,4|0,0:0|0:0,0:0:0:0:
112,216,6530,2,0,L|32:232,1,80
216,272,6883,2,0,L|232:352,1,80
344,336,7236,1,0,0:0:0:0:
350,152,7413,1,0,0:0:0:0:
350,152,7766,5,0,0:0:0:0:
464,224,7942,1,0,0:0:0:0:
456,112,8119,1,0,0:0:0:0:
360,256,8295,1,0,0:0:0:0:
208,296,8472,1,0,0:0:0:0:
136,176,8648,1,0,0:0:0:0:
56,288,8825,1,0,0:0:0:0:
56,288,9001,6,0,B|88:264|152:240|208:232,1,160,4|0,0:0|0:0,0:0:0:0:
204,232,9530,1,0,0:0:0:0:
448,224,9707,2,0,B|408:192|344:176|296:176,1,160,4|0,0:0|0:0,0:0:0:0:
298,176,10236,1,0,0:0:0:0:
56,144,10413,2,0,B|96:112|160:96|208:96,1,160,4|0,0:0|0:0,0:0:0:0:
205,96,10942,1,0,0:0:0:0:
264,296,11295,5,0,0:0:0:0:
298,176,11472,1,0,0:0:0:0:
384,288,11648,1,0,0:0:0:0:
384,288,11736,1,0,0:0:0:0:
384,288,11825,6,0,L|352:208,1,80,4|0,0:0|0:0,0:0:0:0:
296,96,12178,1,0,0:0:0:0:
256,224,12354,1,0,0:0:0:0:
136,128,12530,2,0,P|112:160|112:200,1,80
184,320,12883,1,0,0:0:0:0:
280,168,13060,6,0,P|328:160|368:176,1,80,4|0,0:0|0:0,0:0:0:0:
456,176,13413,1,0,0:0:0:0:
416,288,13589,1,0,0:0:0:0:
456,176,13766,1,0,0:0:0:0:
320,80,13942,2,0,L|240:56,1,80
136,96,14295,1,0,0:0:0:0:
88,192,14472,1,0,0:0:0:0:
368,215,14648,6,0,L|312:272,1,80
168,264,15001,1,4,0:0:0:0:
240,328,15178,1,0,0:0:0:0:
264,160,15354,2,0,P|224:148|184:160,1,80
368,160,15707,1,0,0:0:0:0:
232,56,15883,6,0,L|320:56,1,80
152,120,16236,1,0,0:0:0:0:
280,240,16413,2,0,L|200:240,1,80
104,208,16766,5,0,0:0:0:0:
136,304,16942,1,0,0:0:0:0:
232,336,17119,1,0,0:0:0:0:
328,312,17295,1,0,0:0:0:0:
360,216,17472,6,0,L|432:176,1,80,4|0,0:0|0:0,0:0:0:0:
288,88,17825,2,0,L|216:128,1,80
368,56,18178,1,0,0:0:0:0:
368,56,18354,1,0,0:0:0:0:
288,192,18530,5,0,0:0:0:0:
72,144,18707,2,0,L|72:256,1,100,4|0,0:0|0:0,0:0:0:0:
448,192,19236,1,0,0:0:0:0:
112,72,19589,1,0,0:0:0:0:
256,56,19766,1,0,0:0:0:0:
200,192,19942,5,0,0:0:0:0:
184,224,20030,1,0,0:0:0:0:
168,256,20119,1,0,0:0:0:0:
152,288,20207,1,0,0:0:0:0:
136,320,20295,1,0,0:0:0:0:
288,272,20472,6,0,B|328:176,1,80,0|0,0:0|0:0,0:0:0:0:
336,80,20825,1,0,0:0:0:0:
248,144,21001,2,0,P|208:120|160:136,1,80,0|0,0:0|0:0,0:0:0:0:
336,80,21354,1,0,0:0:0:0:
416,216,21530,6,0,P|456:192|472:144,2,80
336,80,22060,1,0,0:0:0:0:
256,232,22236,2,0,P|216:232|176:192,1,80
104,136,22589,5,0,0:0:0:0:
128,104,22678,1,0,0:0:0:0:
152,72,22766,1,0,0:0:0:0:
249,116,22942,1,0,0:0:0:0:
280,136,23030,1,0,0:0:0:0:
312,152,23119,6,0,P|352:168|416:160,1,80
440,288,23472,1,0,0:0:0:0:
472,168,23648,1,0,0:0:0:0:
440,288,23825,1,0,0:0:0:0:
440,288,24001,2,0,L|352:288,1,80
128,288,24354,6,0,L|208:288,1,80,4|0,0:0|0:0,0:0:0:0:
256,176,24707,1,0,0:0:0:0:
256,176,24883,1,0,0:0:0:0:
200,104,25060,2,0,P|152:88|120:104,1,80
126,98,25413,1,0,0:0:0:0:
280,104,25589,5,0,0:0:0:0:
268,140,25678,1,0,0:0:0:0:
256,176,25766,1,0,0:0:0:0:
244,212,25854,1,0,0:0:0:0:
232,248,25942,1,4,0:0:0:0:
200,324,26119,5,0,0:0:0:0:
136,264,26295,2,0,P|104:240|88:192,1,80
88,203,26648,2,0,L|64:296,1,80
184,176,27001,1,0,0:0:0:0:
304,56,27178,6,0,P|336:88|376:96,1,80
256,160,27530,2,0,L|272:240,1,80
200,104,27883,1,0,0:0:0:0:
336,128,28060,1,0,0:0:0:0:
224,232,28236,1,0,0:0:0:0:
336,128,28413,2,0,L|384:168,3,40
366,153,28766,6,0,P|384:192|420:204,1,80
320,312,29119,2,0,P|280:296|248:312,1,80
104,216,29472,2,0,P|120:176|168:160,1,80
176,152,29736,1,0,0:0:0:0:
200,144,29825,1,0,0:0:0:0:
224,136,29913,1,0,0:0:0:0:
248,128,30001,6,0,L|344:88,1,100
296,232,30354,1,0,0:0:0:0:
384,200,30530,2,0,L|464:168,1,80
368,40,30883,2,0,L|432:88,1,80
320,168,31236,5,0,0:0:0:0:
360,280,31413,1,0,0:0:0:0:
328,304,31501,1,0,0:0:0:0:
288,304,31589,1,4,0:0:0:0:
176,264,31766,6,0,P|144:232|128:192,1,80
56,332,32119,1,0,0:0:0:0:
104,132,32295,2,0,L|192:132,1,80
72,264,32648,1,0,0:0:0:0:
120,56,32825,2,0,L|200:56,1,80
88,196,33178,1,0,0:0:0:0:
236,176,33354,2,0,L|212:264,1,80
320,280,33707,1,0,0:0:0:0:
366,183,33883,5,0,0:0:0:0:
382,166,33972,1,0,0:0:0:0:
390,144,34060,1,0,0:0:0:0:
386,120,34148,1,0,0:0:0:0:
373,100,34236,1,0,0:0:0:0:
352,88,34325,1,0,0:0:0:0:
336,80,34413,6,0,L|440:80,1,80,4|0,0:0|0:0,0:0:0:0:
192,80,34766,2,0,L|96:80,1,80
296,264,35119,2,0,L|408:264,1,80
152,264,35472,2,0,L|64:264,1,80
80,120,35825,5,0,0:0:0:0:
416,312,36178,1,0,0:0:0:0:
336,40,36530,1,0,0:0:0:0:
192,336,36883,1,0,0:0:0:0:
48,272,37236,5,0,0:0:0:0:
96,192,37413,1,0,0:0:0:0:
144,112,37589,2,2,L|176:48,1,64
320,112,37942,5,0,0:0:0:0:
368,192,38119,1,0,0:0:0:0:
416,272,38295,2,2,L|448:336,1,64
328,304,38648,5,0,0:0:0:0:
216,224,38825,1,2,0:0:0:0:
256,328,39001,1,0,0:0:0:0:
288,200,39178,2,0,B|280:160|216:128|176:160,1,128,2|2,0:0|0:0,0:0:0:0:
288,88,39707,2,0,L|368:72,1,64,4|0,0:0|0:0,0:0:0:0:
448,192,40060,6,0,L|360:192,1,80
336,328,40413,2,0,L|416:328,1,80
200,248,40766,2,0,L|96:248,1,80
296,168,41119,2,0,L|392:168,1,80
216,88,41472,5,0,0:0:0:0:
216,88,41648,2,0,L|176:176,1,80
393,160,42001,2,0,L|360:88,1,80
276,48,42354,1,0,0:0:0:0:
136,80,42530,2,0,P|152:136|176:156,1,80
176,296,42883,6,0,P|160:256|96:232,1,80,0|0,0:0|0:0,0:0:0:0:
56,192,43236,1,0,0:0:0:0:
216,168,43413,1,0,0:0:0:0:
344,256,43589,6,0,P|360:216|424:192,1,80,0|0,0:0|0:0,0:0:0:0:
464,156,43942,1,0,0:0:0:0:
304,136,44119,1,0,0:0:0:0:
176,48,44295,6,0,L|288:48,1,80
136,144,44648,2,0,L|48:144,1,80
176,240,45001,2,0,L|264:240,1,80
376,336,45354,1,2,0:0:0:0:
328,336,45442,1,2,0:0:0:0:
280,336,45530,1,2,0:0:0:0:
232,336,45619,1,2,0:0:0:0:
184,336,45707,6,0,P|144:328|120:288,1,80,4|0,0:0|0:0,0:0:0:0:
56,152,46060,2,0,P|96:188|104:232,1,80
224,184,46413,2,0,P|210:220|175:238,1,80
48,344,46766,2,0,P|56:296|112:280,1,80
240,264,47119,6,0,P|288:248|312:208,1,80
352,72,47472,1,0,0:0:0:0:
104,288,47825,1,0,0:0:0:0:
424,336,48178,1,0,0:0:0:0:
192,112,48530,2,0,P|152:160|160:160,1,160
150,159,49236,1,0,0:0:0:0:
96,312,49589,6,0,L|176:288,1,80
328,208,49942,2,0,L|384:136,1,80,2|0,0:0|0:0,0:0:0:0:
392,296,50295,1,0,0:0:0:0:
320,208,50472,2,0,L|352:120,1,80,2|0,0:0|0:0,0:0:0:0:
392,296,50825,1,2,0:0:0:0:
224,96,51001,2,0,B|168:96|112:120|112:184,1,160,2|0,0:0|0:0,0:0:0:0:
112,184,51530,5,2,0:0:0:0:
280,196,51707,1,2,0:0:0:0:
192,296,51883,1,2,0:0:0:0:
168,136,52060,1,2,0:0:0:0:
264,264,52236,1,2,0:0:0:0:
128,256,52413,1,2,0:0:0:0:
240,136,52589,1,2,0:0:0:0:
400,88,52766,6,0,L|464:40,1,80
400,192,53119,1,0,0:0:0:0:
288,56,53295,2,0,L|184:32,1,80
56,40,53648,1,0,0:0:0:0:
56,192,53825,1,0,0:0:0:0:
208,192,54001,1,0,0:0:0:0:
208,192,54089,1,0,0:0:0:0:
208,192,54178,6,0,P|224:224|208:264,1,80,4|0,0:0|0:0,0:0:0:0:
64,264,54530,2,0,P|48:224|64:192,1,80,0|0,0:0|0:0,0:0:0:0:
136,320,54883,1,0,0:0:0:0:
288,320,55060,2,0,P|336:304|360:272,1,80
408,136,55413,2,0,L|392:216,1,80
336,104,55766,1,0,0:0:0:0:
440,32,55942,1,0,0:0:0:0:
288,48,56119,1,0,0:0:0:0:
288,48,56207,1,0,0:0:0:0:
288,48,56295,6,0,L|200:48,1,80
80,160,56648,2,0,L|168:160,1,80
344,216,57001,6,0,P|384:208|424:216,1,80,4|0,0:0|0:0,0:0:0:0:
256,288,57354,2,0,P|208:304|152:288,1,80
144,272,57619,1,0,0:0:0:0:
120,248,57707,2,0,P|152:216|168:168,1,80
352,320,58060,1,0,0:0:0:0:
280,136,58236,2,0,L|248:56,1,80
392,40,58589,1,0,0:0:0:0:
352,184,58766,1,0,0:0:0:0:
208,160,58942,1,0,0:0:0:0:
208,160,59030,1,0,0:0:0:0:
208,160,59119,6,0,P|176:144|136:160,1,80
120,312,59472,2,0,P|160:320|200:312,1,80
344,272,59825,2,0,P|376:264|440:296,1,80
272,280,60178,1,0,0:0:0:0:
376,176,60354,1,0,0:0:0:0:
304,48,60530,1,0,0:0:0:0:
48,192,60883,5,0,0:0:0:0:
176,160,61060,1,0,0:0:0:0:
312,128,61236,5,0,0:0:0:0:
312,128,61413,1,0,0:0:0:0:
208,224,61589,1,0,0:0:0:0:
128,104,61766,2,0,P|184:80|224:96,1,80
208,224,62119,1,0,0:0:0:0:
384,192,62295,2,0,P|368:224|376:272,1,80
464,176,62648,6,0,P|472:136|456:96,1,80
392,56,63001,1,0,0:0:0:0:
272,96,63178,1,0,0:0:0:0:
128,144,63354,6,0,P|120:184|144:224,1,80
224,296,63707,1,0,0:0:0:0:
336,272,63883,1,0,0:0:0:0:
376,144,64060,6,0,L|392:200,1,40
464,232,64236,2,0,L|488:144,1,80
408,288,64589,1,0,0:0:0:0:
312,184,64766,1,0,0:0:0:0:
224,296,64942,1,0,0:0:0:0:
136,184,65119,1,0,0:0:0:0:
192,64,65295,1,0,0:0:0:0:
160,72,65383,1,0,0:0:0:0:
136,104,65472,6,0,L|136:184,1,80,4|0,0:0|0:0,0:0:0:0:
312,184,65825,2,0,L|312:96,1,80
432,240,66178,2,0,P|408:280|352:288,1,80
256,296,66530,1,0,0:0:0:0:
96,232,66707,2,0,P|184:208|232:128,1,160
224,48,67236,1,0,0:0:0:0:
88,104,67413,1,0,0:0:0:0:
272,104,67589,6,0,L|352:104,1,80
176,232,67942,2,0,L|80:232,1,80
272,192,68295,2,0,L|272:280,1,80,4|0,0:0|0:0,0:0:0:0:
160,144,68648,2,0,L|160:64,1,80
64,168,69001,1,0,0:0:0:0:
152,296,69178,2,0,P|192:328|240:328,1,80
288,312,69530,2,0,P|240:256|144:232,1,160
64,296,70060,1,0,0:0:0:0:
64,168,70236,1,0,0:0:0:0:
200,72,70413,6,0,P|248:96|248:144,1,80
160,248,70766,2,0,P|184:200|232:200,1,80,0|0,0:0|0:0,0:0:0:0:
360,240,71119,2,0,P|320:232|304:192,1,80,0|0,0:0|0:0,0:0:0:0:
360,320,71472,1,0,0:0:0:0:
88,192,71825,1,0,0:0:0:0:
360,64,72178,1,0,0:0:0:0:
232,120,72354,1,0,0:0:0:0:
232,120,72442,1,0,0:0:0:0:
232,120,72530,6,0,P|208:160|240:192,1,80
344,192,72883,1,0,0:0:0:0:
464,192,73060,2,0,P|488:232|464:264,1,80
368,328,73413,1,0,0:0:0:0:
192,272,73589,2,0,L|112:256,1,80
96,144,73942,2,0,P|128:72|232:56,1,160
336,48,74472,5,0,0:0:0:0:
360,64,74560,1,0,0:0:0:0:
384,80,74648,1,0,0:0:0:0:
264,136,74825,1,0,0:0:0:0:
368,216,75001,1,0,0:0:0:0:
232,280,75178,2,0,P|192:312|144:296,1,80
104,224,75530,1,0,0:0:0:0:
88,120,75707,6,0,P|120:72|152:72,1,80
272,208,76060,2,0,L|192:208,1,80
328,344,76413,2,0,L|408:344,1,80
352,216,76766,5,0,0:0:0:0:
448,128,76942,1,0,0:0:0:0:
328,48,77119,2,0,L|248:104,1,80
160,176,77472,5,0,0:0:0:0:
40,240,77648,1,0,0:0:0:0:
48,72,77825,2,0,L|128:120,1,80
256,192,78178,5,0,0:0:0:0:
384,280,78354,1,0,0:0:0:0:
368,128,78530,2,0,P|328:112|272:112,1,80
256,112,78795,1,0,0:0:0:0:
224,112,78883,2,0,B|168:104|160:64,1,80
80,192,79236,2,0,L|80:272,1,80
80,272,79589,5,4,0:0:0:0:
80,272,79766,1,0,0:0:0:0:
400,136,80119,1,0,0:0:0:0:
400,136,80295,1,0,0:0:0:0:
256,320,80648,1,4,0:0:0:0:
256,320,80825,1,0,0:0:0:0:
152,88,81178,1,0,0:0:0:0:
152,88,81354,2,0,L|208:88,5,40
192,88,81883,6,0,P|240:96|272:136,1,80
272,144,82148,1,0,0:0:0:0:
256,184,82236,1,0,0:0:0:0:
224,200,82325,1,0,0:0:0:0:
192,208,82413,6,0,L|112:208,1,80,4|0,0:0|0:0,0:0:0:0:
424,152,82942,2,0,L|424:72,1,80
120,64,83472,1,4,0:0:0:0:
208,64,83648,2,0,L|288:64,1,80
184,224,84001,1,0,0:0:0:0:
184,224,84178,6,0,L|128:224,5,40,0|0|0|0|0|0,0:0|0:0|0:0|0:0|0:0|0:0,0:0:0:0:
96,216,84707,1,0,0:0:0:0:
96,216,84795,1,0,0:0:0:0:
96,216,84883,2,0,P|112:176|144:152,1,80
272,144,85236,5,0,0:0:0:0:
272,144,85413,1,0,0:0:0:0:
80,64,85766,1,0,0:0:0:0:
80,64,85942,1,0,0:0:0:0:
48,312,86295,1,4,0:0:0:0:
48,312,86472,1,0,0:0:0:0:
344,144,86825,1,0,0:0:0:0:
232,64,87001,1,0,0:0:0:0:
193,75,87089,5,0,0:0:0:0:
158,94,87178,1,0,0:0:0:0:
127,119,87266,1,0,0:0:0:0:
100,149,87354,1,0,0:0:0:0:
80,184,87442,1,0,0:0:0:0:
72,224,87530,2,0,P|129:268|137:260,1,100
48,336,87883,1,0,0:0:0:0:
72,224,88060,5,4,0:0:0:0:
208,176,88236,1,0,0:0:0:0:
440,176,88589,5,4,0:0:0:0:
304,128,88766,1,0,0:0:0:0:
160,72,89119,6,4,B|112:168|160:280,1,200,4|0,0:0|0:0,0:0:0:0:
