osu file format v12

[General]
AudioFilename: Strike Witches - Bookmark A Head.mp3
AudioLeadIn: 0
PreviewTime: 54130
Countdown: 0
SampleSet: Normal
StackLeniency: 0.7
Mode: 0
LetterboxInBreaks: 1
WidescreenStoryboard: 0

[Editor]
Bookmarks: 11774
DistanceSpacing: 1.8
BeatDivisor: 4
GridSize: 8
TimelineZoom: 1

[Metadata]
Title:Bookmark A Head (TV Size)
TitleUnicode:Bookmark A Head (TV Size)
Artist:Strike Witches
ArtistUnicode:Strike Witches
Creator:xxdeathx
Version:Hard
Source:Strike Witches
Tags:ending theme ed Misato Fukuen Saeko Chiba Kaori Nazuka Miyuki Sawashiro Rie Tanaka Mie Sonozaki Sakura Nogawa Chiwa Saito Ami Koshimizu Mai Kadowaki Erika Naka
BeatmapID:392205
BeatmapSetID:160553

[Difficulty]
HPDrainRate:5
CircleSize:4
OverallDifficulty:6
ApproachRate:7
SliderMultiplier:1.48
SliderTickRate:1

[Events]
//Background and Video events
Video,459,"swending.avi"
0,0,"8bb6Z[1].jpg",0,0
//Break Periods
//Storyboard Layer 0 (Background)
//Storyboard Layer 1 (Fail)
//Storyboard Layer 2 (Pass)
//Storyboard Layer 3 (Foreground)
//Storyboard Sound Samples
//Background Colour Transformations
3,100,163,162,255

[TimingPoints]
531,352.941176470588,4,1,0,80,1,0
1413,-100,4,1,0,45,0,0
1589,-100,4,1,0,60,0,0
6354,-100,4,2,1,60,0,0
6530,-100,4,1,0,80,0,0
6707,-100,4,2,1,60,0,0
6883,-100,4,1,0,80,0,0
7060,-100,4,2,1,60,0,0
7236,-100,4,1,0,80,0,0
7413,-100,4,2,1,60,0,0
18707,-80,4,1,0,80,0,0
18883,-100,4,2,1,60,0,0
30001,-80,4,1,0,80,0,0
30354,-100,4,2,1,60,0,0
34413,-100,4,3,0,60,0,0
37236,-125,4,1,0,60,0,0
40060,-100,4,3,0,60,0,0
45707,-100,4,1,0,80,0,0
52766,-100,4,1,0,60,0,0
54178,-100,4,1,0,80,0,1
79589,-100,4,1,0,80,0,0

[Colours]
Combo1 : 0,210,0
Combo2 : 170,170,255
Combo3 : 200,0,200
Combo4 : 0,255,255
Combo5 : 128,128,255

[HitObjects]
168,136,531,5,0,0:0:0:0:
280,232,1413,1,0,0:0:0:0:
328,152,1589,2,0,L|368:64,1,74
184,112,3001,2,0,L|144:88,3,37
184,112,3354,6,0,P|208:152|184:192,1,74,4|0,0:0|0:0,0:0:0:0:
110,208,3707,2,0,P|82:186|88:152,1,74
184,112,4060,1,0,0:0:0:0:
184,112,4236,2,0,L|264:112,2,74
224,216,4766,2,0,P|224:256|248:280,1,74,0|0,0:0|0:0,0:0:0:0:
344,216,5118,2,0,L|432:216,1,74
256,128,5648,5,0,0:0:0:0:
184,208,5824,1,0,0:0:0:0:
224,296,6001,1,0,0:0:0:0:
344,216,6177,2,0,L|440:216,1,74,4|0,0:0|0:0,0:0:0:0:
344,128,6530,2,0,L|344:40,1,74
256,128,6883,2,0,L|152:128,1,74
256,216,7236,2,0,L|256:304,1,74
336,80,7766,5,0,0:0:0:0:
336,80,7942,1,0,0:0:0:0:
344,192,8119,1,0,0:0:0:0:
344,192,8295,1,0,0:0:0:0:
432,128,8471,1,0,0:0:0:0:
432,128,8648,2,0,P|416:80|384:56,1,74
272,56,9001,6,0,P|192:40|112:56,1,148,4|0,0:0|0:0,0:0:0:0:
128,176,9707,2,0,P|200:187|272:171,1,148,4|0,0:0|0:0,0:0:0:0:
416,112,10413,6,0,P|424:152|408:192,1,74,4|0,0:0|0:0,0:0:0:0:
414,182,10766,1,0,0:0:0:0:
320,248,10942,2,0,L|320:96,1,148
320,100,11383,1,0,0:0:0:0:
320,100,11471,1,0,0:0:0:0:
216,176,11648,1,0,0:0:0:0:
112,96,11824,6,0,L|200:96,1,74,8|0,0:0|0:0,0:0:0:0:
112,176,12177,2,0,L|24:176,1,74
112,256,12530,1,0,0:0:0:0:
216,288,12707,1,0,0:0:0:0:
304,104,13060,6,0,P|344:72|392:72,1,74,8|0,0:0|0:0,0:0:0:0:
384,160,13413,1,0,0:0:0:0:
464,208,13589,2,0,P|416:248|376:248,1,74
280,256,13942,2,0,L|200:296,1,74
213,289,14295,1,0,0:0:0:0:
184,48,14648,1,0,0:0:0:0:
304,72,14824,6,0,P|320:112|304:152,1,74
192,176,15177,1,0,0:0:0:0:
320,268,15354,2,0,P|327:232|312:200,1,74
192,304,15707,1,0,0:0:0:0:
88,224,15883,6,0,L|88:136,2,74
192,304,16413,2,0,B|256:288|240:328|296:304,1,74
263,311,16766,1,8,0:0:0:0:
360,312,16942,1,8,0:0:0:0:
263,311,17118,1,8,0:0:0:0:
168,104,17471,6,0,P|208:72|248:72,1,74,4|0,0:0|0:0,0:0:0:0:
344,64,17824,1,0,0:0:0:0:
328,176,18001,1,0,0:0:0:0:
440,152,18177,1,0,0:0:0:0:
328,176,18354,1,0,0:0:0:0:
72,144,18707,6,0,L|72:248,1,92.5
256,160,19236,1,0,0:0:0:0:
408,288,19589,1,0,0:0:0:0:
448,192,19766,1,0,0:0:0:0:
384,96,19942,2,0,L|432:72,4,37
256,160,20471,6,0,P|208:128|168:136,1,74,0|0,0:0|0:0,0:0:0:0:
192,240,20825,1,0,0:0:0:0:
256,160,21001,1,0,0:0:0:0:
280,288,21177,2,0,P|232:304|232:296,1,74
192,240,21530,5,0,0:0:0:0:
168,152,21707,1,0,0:0:0:0:
160,64,21883,2,0,P|208:64|240:88,1,74
272,160,22236,2,0,P|312:208|392:192,1,148
389,194,22677,1,0,0:0:0:0:
389,194,22766,1,0,0:0:0:0:
416,80,22942,1,0,0:0:0:0:
384,72,23030,1,0,0:0:0:0:
352,64,23118,6,0,P|312:48|264:56,1,74
184,96,23471,1,0,0:0:0:0:
272,160,23648,1,0,0:0:0:0:
184,224,23824,1,0,0:0:0:0:
184,224,24001,1,0,0:0:0:0:
304,224,24177,1,0,0:0:0:0:
304,224,24354,6,0,P|288:256|304:288,1,74
368,256,24707,1,0,0:0:0:0:
304,224,24883,1,0,0:0:0:0:
272,160,25060,1,0,0:0:0:0:
272,88,25236,2,0,P|224:104|208:128,1,74
208,224,25589,1,0,0:0:0:0:
272,88,25942,1,0,0:0:0:0:
352,136,26118,5,0,0:0:0:0:
352,136,26295,2,0,P|392:160|400:200,1,74
432,80,26648,2,0,P|448:120|480:136,1,74
272,160,27177,6,0,L|296:200|320:240,1,74
384,224,27530,1,0,0:0:0:0:
352,312,27707,1,0,0:0:0:0:
264,280,27883,1,0,0:0:0:0:
384,224,28060,2,0,P|416:248|424:296,1,74
272,160,28413,2,0,L|224:192,3,37
240,184,28766,6,0,P|214:231|184:248,1,74
112,224,29118,2,0,P|128:184|168:168,1,74
240,272,29471,1,0,0:0:0:0:
240,272,29648,2,0,P|288:264|312:224,1,74
336,224,29913,1,0,0:0:0:0:
368,256,30001,6,0,L|400:352,1,92.5
240,272,30354,1,0,0:0:0:0:
208,184,30530,2,0,P|192:152|136:144,1,74
112,224,30883,1,0,0:0:0:0:
120,320,31060,2,0,P|160:320|208:344,1,74
112,224,31413,1,0,0:0:0:0:
112,224,31501,1,0,0:0:0:0:
112,224,31589,1,0,0:0:0:0:
208,184,31766,6,0,P|240:152|280:152,1,74
368,160,32118,1,0,0:0:0:0:
456,216,32295,2,0,P|464:256|432:288,1,74
352,320,32648,1,0,0:0:0:0:
248,312,32824,2,0,P|208:272|224:240,1,74
208,184,33177,1,0,0:0:0:0:
368,160,33354,1,0,0:0:0:0:
368,160,33530,6,0,P|392:136|376:88,1,74
288,72,33883,2,0,P|248:56|208:72,1,74
176,152,34236,1,0,0:0:0:0:
96,224,34413,2,0,L|96:144,1,74,4|0,0:0|0:0,0:0:0:0:
176,152,34766,6,0,L|176:248,1,74
256,224,35118,2,0,L|256:144,1,74
336,152,35471,2,0,L|336:240,1,74
256,304,35824,5,4,0:0:0:0:
88,192,36177,1,4,0:0:0:0:
256,80,36530,1,4,0:0:0:0:
424,192,36883,1,4,0:0:0:0:
256,232,37236,5,0,0:0:0:0:
256,232,37413,1,0,0:0:0:0:
256,232,37589,2,2,L|184:232,1,59.2
264,152,37942,5,0,0:0:0:0:
264,152,38118,1,0,0:0:0:0:
264,152,38295,2,2,L|328:152,1,59.2
400,152,38648,5,0,0:0:0:0:
376,224,38824,1,2,0:0:0:0:
336,288,39001,1,0,0:0:0:0:
264,312,39177,2,2,B|216:312|184:288|176:240,1,118.4
152,176,39707,2,4,P|192:176|224:208,1,59.2
176,248,40060,6,0,L|96:248,1,74
104,104,40413,2,0,L|184:104,1,74
288,176,40766,2,0,L|192:176,1,74
216,312,41118,2,0,L|296:312,1,74
424,280,41471,6,0,P|424:232|392:200,1,74
296,56,42001,1,0,0:0:0:0:
160,192,42354,1,0,0:0:0:0:
160,192,42530,2,0,P|168:224|224:216,1,74
344,192,42883,6,0,P|400:176|416:80,1,148,0|0,0:0|0:0,0:0:0:0:
160,192,43589,2,0,P|104:208|88:304,1,148,0|0,0:0|0:0,0:0:0:0:
344,264,44295,5,0,0:0:0:0:
200,280,44648,1,0,0:0:0:0:
320,136,45001,1,0,0:0:0:0:
192,72,45354,2,0,L|160:91,3,37
160,91,45707,6,0,P|112:128|112:160,1,74,4|0,0:0|0:0,0:0:0:0:
240,176,46060,2,0,P|280:208|280:248,1,74
144,216,46413,2,0,P|104:256|104:288,1,74
240,280,46766,2,0,P|280:312|280:352,1,74
176,336,47118,5,4,0:0:0:0:
240,176,47471,1,0,0:0:0:0:
376,280,47824,1,0,0:0:0:0:
240,176,48177,1,0,0:0:0:0:
400,96,48530,2,0,P|328:64|240:72,1,148
96,176,49236,1,0,0:0:0:0:
320,176,49589,6,0,L|424:176,1,74
472,176,49942,1,0,0:0:0:0:
96,176,50295,1,0,0:0:0:0:
248,208,50471,2,0,L|248:112,1,74
184,80,50824,1,0,0:0:0:0:
96,176,51001,1,0,0:0:0:0:
256,192,51177,12,0,52413,0:0:0:0:
128,80,52766,5,2,0:0:0:0:
192,168,52942,1,2,0:0:0:0:
296,136,53118,1,2,0:0:0:0:
296,136,53295,5,2,0:0:0:0:
360,224,53471,1,2,0:0:0:0:
272,288,53648,1,2,0:0:0:0:
360,224,53824,1,2,0:0:0:0:
296,136,54001,1,0,0:0:0:0:
296,136,54089,1,0,0:0:0:0:
296,136,54177,6,0,B|336:152|368:128|392:136,1,74,4|0,0:0|0:0,0:0:0:0:
192,168,54530,2,0,P|152:160|112:144,1,74,0|0,0:0|0:0,0:0:0:0:
200,280,54883,1,0,0:0:0:0:
296,136,55060,2,0,P|320:104|328:64,1,74
192,168,55413,2,0,B|120:160|96:184|80:248,1,148
82,239,55942,1,0,0:0:0:0:
192,168,56118,1,0,0:0:0:0:
272,280,56295,6,0,L|368:280,1,74
192,168,56648,2,0,L|192:88,1,74
224,232,57001,1,4,0:0:0:0:
80,240,57177,1,0,0:0:0:0:
80,240,57266,1,0,0:0:0:0:
80,240,57354,2,0,L|80:320,1,74
224,232,57707,2,0,L|256:200|296:160,1,74
276,179,58060,1,0,0:0:0:0:
392,144,58236,2,0,P|392:80|320:80,1,148
322,77,58766,1,0,0:0:0:0:
276,179,58942,1,0,0:0:0:0:
192,88,59118,6,0,P|160:112|160:160,1,74
96,256,59471,2,0,B|72:176,1,74
208,264,59825,2,0,P|240:256|336:320,1,148
432,64,60530,1,0,0:0:0:0:
192,184,60883,2,0,P|144:184|96:152,1,74
168,112,61236,6,0,P|216:112|248:128,1,74
239,122,61589,1,0,0:0:0:0:
96,104,61766,2,0,P|96:72|136:48,1,74
192,184,62118,1,0,0:0:0:0:
192,184,62295,2,0,P|248:200|280:176,1,74
136,112,62648,6,0,P|144:176|120:256,1,148
384,248,63354,2,0,P|405:178|381:109,1,148
256,120,63883,1,0,0:0:0:0:
256,264,64060,6,0,L|256:344,1,74
256,264,64413,1,0,0:0:0:0:
256,120,64589,2,0,L|256:40,1,74
144,120,64942,1,0,0:0:0:0:
256,120,65118,1,0,0:0:0:0:
256,120,65295,1,0,0:0:0:0:
256,120,65383,1,0,0:0:0:0:
256,120,65471,6,0,L|352:120,1,74,4|0,0:0|0:0,0:0:0:0:
256,264,65824,2,0,L|176:264,1,74
256,264,66177,2,0,P|280:224|328:216,1,74
303,214,66530,1,0,0:0:0:0:
256,120,66707,2,0,P|160:160|88:72,1,222
320,72,67589,6,0,P|336:112|320:160,1,74
256,120,67942,2,0,L|160:120,1,74
182,120,68295,1,4,0:0:0:0:
392,256,68648,2,0,P|376:208|336:192,1,74
256,120,69001,1,0,0:0:0:0:
392,120,69177,1,0,0:0:0:0:
328,192,69354,1,0,0:0:0:0:
256,256,69530,2,0,P|200:208|128:200,1,148
128,199,70060,1,0,0:0:0:0:
168,288,70236,1,0,0:0:0:0:
256,256,70413,6,0,P|296:224|336:216,1,74
336,344,70766,1,0,0:0:0:0:
128,200,71119,2,0,P|88:192|96:96,2,148
256,256,72177,2,0,P|216:240|192:200,1,74
200,88,72530,5,0,0:0:0:0:
200,88,72707,1,0,0:0:0:0:
256,168,72883,1,0,0:0:0:0:
336,112,73060,2,0,P|376:96|408:112,1,74
384,232,73413,1,0,0:0:0:0:
256,256,73589,2,0,P|208:248|200:208,1,74
136,112,73942,1,0,0:0:0:0:
256,192,74118,12,0,75354,0:0:0:0:
152,88,75707,6,0,L|216:136,1,74
240,272,76060,2,0,L|304:224,1,74
288,96,76413,1,0,0:0:0:0:
112,240,76766,6,0,L|40:304,2,74
208,184,77295,1,0,0:0:0:0:
312,248,77471,2,0,P|352:272|400:264,1,74
392,152,77824,1,0,0:0:0:0:
288,96,78001,1,0,0:0:0:0:
208,184,78177,2,0,P|184:208|224:232,1,74
312,248,78530,1,0,0:0:0:0:
288,96,78707,5,0,0:0:0:0:
288,96,78795,1,0,0:0:0:0:
288,96,78883,2,0,P|240:88|208:112,1,74,0|0,0:0|0:0,0:0:0:0:
208,184,79236,1,0,0:0:0:0:
312,248,79413,6,0,L|248:288,1,74,0|4,0:0|0:0,0:0:0:0:
249,287,79766,1,0,0:0:0:0:
360,152,80118,1,0,0:0:0:0:
360,152,80295,1,0,0:0:0:0:
152,88,80648,1,4,0:0:0:0:
152,88,80824,1,0,0:0:0:0:
312,224,81177,1,0,0:0:0:0:
312,224,81354,2,0,P|232:168|184:176,1,148
184,176,81883,1,0,0:0:0:0:
112,256,82060,1,0,0:0:0:0:
184,176,82236,1,0,0:0:0:0:
312,224,82413,6,0,L|352:224|392:224,1,74,4|0,0:0|0:0,0:0:0:0:
112,256,82942,2,0,L|112:352,1,74
264,128,83471,2,0,L|264:48,1,74,4|0,0:0|0:0,0:0:0:0:
352,304,84001,1,0,0:0:0:0:
256,264,84177,2,0,B|176:232|176:176|192:136,1,148
200,64,84707,5,0,0:0:0:0:
264,128,84883,1,0,0:0:0:0:
328,192,85060,1,0,0:0:0:0:
400,248,85236,5,4,0:0:0:0:
400,248,85413,1,0,0:0:0:0:
400,120,85766,1,0,0:0:0:0:
400,120,85942,1,0,0:0:0:0:
248,248,86295,1,4,0:0:0:0:
248,248,86471,1,0,0:0:0:0:
248,120,86824,1,0,0:0:0:0:
248,120,87001,1,0,0:0:0:0:
180,96,87442,2,0,P|232:48|320:112,1,185
256,292,88060,5,4,0:0:0:0:
256,292,88236,1,0,0:0:0:0:
256,192,88589,1,4,0:0:0:0:
256,192,88766,1,0,0:0:0:0:
256,92,89118,1,4,0:0:0:0:
