osu file format v14

[General]
AudioFilename: Adamantite.mp3
AudioLeadIn: 0
PreviewTime: 31462
Countdown: 0
SampleSet: Normal
StackLeniency: 0.7
Mode: 0
LetterboxInBreaks: 1
WidescreenStoryboard: 1

[Editor]
Bookmarks: 5,10976,21947,32919,43890,54862,65833,76805,84347,87776,98747,109719
DistanceSpacing: 1
BeatDivisor: 4
GridSize: 16
TimelineZoom: 1.1

[Metadata]
Title:Adamantite
TitleUnicode:Adamantite
Artist:Street vs Sin:cK
ArtistUnicode:Street vs Sin:cK
Creator:-Sepia-
Version:Celektus' Beginner
Source:
Tags:
BeatmapID:1192110
BeatmapSetID:563373

[Difficulty]
HPDrainRate:2
CircleSize:2
OverallDifficulty:2
ApproachRate:2
SliderMultiplier:1.10000000596046
SliderTickRate:1

[Events]
//Background and Video events
0,0,"Konachan.com - 222905 sample.jpg",0,0
//Break Periods
2,30033,31119
2,55061,64033
2,73918,75005
//Storyboard Layer 0 (Background)
//Storyboard Layer 1 (Fail)
//Storyboard Layer 2 (Pass)
//Storyboard Layer 3 (Foreground)
//Storyboard Sound Samples

[TimingPoints]
5,342.857142857143,4,1,0,60,1,0
5,-200,4,1,0,60,0,0
21262,-100,4,1,0,60,0,0
21947,-133.333333333333,4,1,0,60,0,0
32576,-200,4,1,0,60,0,0
32919,-100,4,1,0,60,0,1
52119,-66.6666666666667,4,1,0,60,0,0
54347,-100,4,1,0,60,0,0
54519,-200,4,1,0,60,0,0
65833,-100,4,1,0,60,0,0
74062,-133.333333333333,4,1,0,60,0,0
76805,-100,4,1,0,60,0,0
87776,-133.333333333333,4,1,0,60,0,0
89662,-114.942528735632,4,1,0,60,0,0
90176,-100,4,1,0,60,0,0
90519,-133.333333333333,4,1,0,60,0,0
91376,-100,4,1,0,60,0,0
98747,-133.333333333333,4,1,0,60,0,0

[HitObjects]
48,80,5,6,2,B|96:112|144:80|144:80|200:173|200:173|128:176|128:176|80:208,1,330.000001788138,6|10,2:0|2:0,2:0:0:0:
32,288,2747,2,0,P|79:292|144:281,1,110.000000596046,4|8,3:0|3:0,3:0:0:0:
304,336,4462,2,0,L|368:320,1,55.0000002980232,4|8,3:0|3:0,3:0:0:0:
399,220,5490,6,2,B|287:229|287:229|225:260|225:260|172:235|193:179|193:179|229:165|239:140,1,330.000001788139,6|10,2:0|3:0,3:0:0:0:
96,63,8233,2,0,P|68:102|44:163,1,110.000000596046,4|8,3:0|3:0,3:0:0:0:
51,269,9605,2,2,P|46:280|100:250,1,220.000001192093,6|14,3:0|3:0,2:0:0:0:
96,112,11833,5,0,2:0:0:0:
96,112,12176,2,0,B|127:130|127:130|177:123|207:152,1,110.000000596046
320,208,13719,2,2,P|288:210|257:226,1,55.0000002980232,2|0,0:0|0:0,0:0:0:0:
128,240,14919,1,0,0:0:0:0:
128,240,15262,2,0,B|99:232|80:185|80:185|49:167,1,110.000000596046
24,89,16462,6,0,B|47:77|47:77|88:73,1,55.0000002980232,2|0,0:0|0:0,0:0:0:0:
148,114,17319,1,0,0:0:0:0:
148,114,17662,2,0,B|176:121|219:152|219:152|226:186,1,110.000000596046
134,283,19205,2,0,P|151:295|195:308,1,55.0000002980232,2|0,0:0|0:0,0:0:0:0:
400,288,20919,6,2,L|336:272,1,55.0000002980232,2|2,3:0|3:0,3:0:0:0:
240,240,21605,5,4,3:0:0:0:
160,208,21947,6,4,B|96:207|96:207|64:192,3,82.5000035941602,4|4|4|4,3:0|3:0|3:0|3:0,3:0:0:0:
240,80,23833,1,2,2:0:0:0:
416,192,24690,2,4,B|432:184|432:184|496:183,3,82.5000035941602,4|4|4|4,3:0|3:0|3:0|3:0,3:0:0:0:
240,304,26576,1,2,2:0:0:0:
48,240,27433,6,4,L|32:160,1,82.5000035941602,4|4,3:0|3:0,3:0:0:0:
112,192,28119,2,4,L|128:112,1,82.5000035941602,4|4,3:0|3:0,3:0:0:0:
177,177,28805,2,4,B|209:97|209:97|321:97|257:209,1,247.500010782481,4|12,3:0|3:0,3:0:0:0:
240,0,32919,6,0,B|218:5|218:5|182:63|233:91|233:91|274:75|329:82,1,220.000001192093,4|8,0:0|3:0,0:0:0:0:
496,224,34290,2,6,B|471:249|471:249|435:245|435:245|409:264,2,82.5000004470345,6|6|10,3:0|3:0|3:0,3:0:0:0:
226,167,35662,2,2,B|146:183|114:151|114:151|50:167|50:231,1,220.000001192092,6|10,3:0|0:0,0:0:0:0:
264,272,37033,2,2,B|278:308|307:319|307:319|351:305|351:305|417:322|428:245|428:245,1,220.000001192092,6|10,3:0|0:0,0:0:0:0:
360,93,38405,5,6,3:0:0:0:
360,93,38747,2,2,B|312:102|312:102|248:80,1,110.000000596046,2|10,3:0|3:0,3:0:0:0:
39,132,39776,2,6,B|23:145|23:145|34:189|8:220,2,82.5000004470345,6|6|6,3:0|3:0|3:0,3:0:0:0:
296,35,41147,2,0,B|335:54|335:54|377:42|377:42|410:95|410:95|397:138|336:138,1,220.000001192092,6|10,3:0|0:0,0:0:0:0:
141,92,42519,2,0,B|137:131|101:147|101:147|94:205,1,110.000000596046,6|2,3:0|1:0,0:0:0:0:
336,269,43890,6,2,B|388:289|388:289|434:255|428:207|428:207|362:184,1,220.000001192092,6|10,3:0|0:0,0:0:0:0:
146,149,45262,2,6,B|111:160|91:177|91:177|51:169,2,82.5000004470345,6|6|6,3:0|3:0|3:0,3:0:0:0:
405,57,46633,2,0,B|389:114|389:114|452:169|426:281,1,220.000001192092,6|10,3:0|3:0,3:0:0:0:
210,281,48005,2,0,B|146:319|146:319|89:307|112:229|112:229|155:204,1,220.000001192092,6|10,3:0|3:0,0:0:0:0:
355,159,49376,2,0,B|261:171|261:171|244:120|195:95|145:99,1,220.000001192092
18,261,50747,2,0,B|11:298|11:298|30:329|33:364,2,82.5000004470345
383,68,52119,5,0,0:0:0:0:
383,68,54347,2,0,B|385:93|385:93|419:152,2,82.5000004470345
57,0,65833,5,4,3:0:0:0:
57,0,66519,1,4,3:0:0:0:
249,107,67205,2,4,B|223:229|145:171|106:278,1,220.000001192092,4|4,3:0|3:0,3:0:0:0:
323,325,68576,1,4,3:0:0:0:
323,325,69262,1,4,3:0:0:0:
366,109,69947,2,4,P|232:48|148:58,1,220.000001192092,4|4,3:0|3:0,3:0:0:0:
30,229,71319,2,4,P|76:228|139:279,1,110.000000596046,4|4,3:0|3:0,3:0:0:0:
207,338,72005,2,4,P|251:320|319:333,1,110.000000596046,4|4,3:0|3:0,3:0:0:0:
396,259,72690,2,4,P|423:124|282:178,1,330.000001788138,4|8,3:0|3:0,3:0:0:0:
354,327,76805,6,6,P|392:249|487:146,1,220.000001192092,6|2,3:0|2:0,2:0:0:0:
266,102,78176,2,2,L|168:50,1,110.000000596046,6|10,3:0|2:0,2:0:0:0:
73,255,78862,2,2,L|182:305,1,110.000000596046,6|10,3:0|2:0,2:0:0:0:
237,211,79547,2,2,P|309:252|401:217,2,165.000000894069,6|2|10,3:0|2:0|2:0,2:0:0:0:
67,0,82290,6,2,P|161:91|200:187,1,220.000001192092,6|0,3:0|2:0,0:0:0:0:
394,75,83662,2,2,P|401:157|380:245,2,165.000000894069,6|2|14,3:0|2:0|3:0,0:0:0:0:
284,64,85033,2,0,B|96:65|105:178|105:178|158:162|200:184,1,330.000001788138,6|10,3:0|3:0,0:0:0:0:
383,237,87776,6,6,P|256:261|182:349,1,247.50001078248,6|10,3:0|3:0,3:0:0:0:
35,158,89662,2,2,P|92:93|150:61,1,143.55000198256,2|10,2:0|3:0,3:0:0:0:
185,133,90519,2,0,P|222:114|244:290,1,330.00001437664,6|6,3:0|3:0,0:0:0:0:
210,384,93262,6,0,P|159:320|170:227,2,165.000000894069,6|2|10,3:0|2:0|3:0,0:0:0:0:
256,192,94633,12,4,98747,0:0:0:0:
428,225,101490,5,2,0:0:0:0:
438,231,104233,2,2,B|412:170|412:170|360:133|311:172|311:172|356:272|356:272|262:286|262:286|221:193|221:193|213:100|329:66,1,660.000028753279
