osu file format v14

[General]
AudioFilename: Adamantite.mp3
AudioLeadIn: 0
PreviewTime: 32914
Countdown: 0
SampleSet: None
StackLeniency: 0.7
Mode: 3
LetterboxInBreaks: 0
SpecialStyle: 0
WidescreenStoryboard: 0

[Editor]
DistanceSpacing: 1
BeatDivisor: 4
GridSize: 32
TimelineZoom: 3.099999

[Metadata]
Title:Adamantite
TitleUnicode:Adamantite
Artist:Street vs Sin:ck
ArtistUnicode:Street vs Sin:ck
Creator:Lusty Platypus
Version:Torment
Source:
Tags:drumstep
BeatmapID:1124784
BeatmapSetID:530642

[Difficulty]
HPDrainRate:9
CircleSize:4
OverallDifficulty:8.5
ApproachRate:5
SliderMultiplier:1.4
SliderTickRate:1

[Events]
//Background and Video events
0,0,"bg.jpg",0,0
//Break Periods
//Storyboard Layer 0 (Background)
//Storyboard Layer 1 (Fail)
//Storyboard Layer 2 (Pass)
//Storyboard Layer 3 (Foreground)
//Storyboard Sound Samples

[TimingPoints]
0,342.857142857143,4,3,0,50,1,0
32914,-100,4,3,0,50,0,1
52114,-100,4,3,0,50,0,0
76800,-100,4,3,0,50,0,1
98742,-100,4,3,0,50,0,0

[HitObjects]
192,192,0,5,4,0:0:0:0:
64,192,0,1,8,0:0:0:0:
448,192,0,1,8,0:0:0:0:
448,192,685,1,8,0:0:0:0:
320,192,685,1,8,0:0:0:0:
192,192,1714,1,8,0:0:0:0:
64,192,1714,1,8,0:0:0:0:
320,192,2057,1,8,0:0:0:0:
448,192,2057,1,8,0:0:0:0:
320,192,2571,1,0,0:0:0:0:
192,192,2657,1,0,0:0:0:0:
64,192,2742,1,0,0:0:0:0:
448,192,2742,1,8,0:0:0:0:
192,192,3428,1,8,0:0:0:0:
320,192,3428,1,8,0:0:0:0:
448,192,4457,1,8,0:0:0:0:
320,192,4457,1,8,0:0:0:0:
320,192,4800,1,8,0:0:0:0:
192,192,4800,1,8,0:0:0:0:
192,192,5485,1,12,0:0:0:0:
64,192,5485,1,12,0:0:0:0:
448,192,5485,1,12,0:0:0:0:
320,192,6171,1,8,0:0:0:0:
192,192,6171,1,8,0:0:0:0:
192,192,7200,1,8,0:0:0:0:
64,192,7200,1,8,0:0:0:0:
320,192,7542,1,8,0:0:0:0:
448,192,7542,1,8,0:0:0:0:
320,192,8228,1,8,0:0:0:0:
64,192,8228,1,8,0:0:0:0:
192,192,8914,1,8,0:0:0:0:
448,192,8914,1,8,0:0:0:0:
320,192,9942,1,8,0:0:0:0:
192,192,9942,1,8,0:0:0:0:
64,192,10285,1,8,0:0:0:0:
448,192,10285,1,8,0:0:0:0:
320,192,10457,1,8,0:0:0:0:
192,192,10457,1,8,0:0:0:0:
64,192,10628,1,8,0:0:0:0:
448,192,10628,1,8,0:0:0:0:
192,192,10800,1,8,0:0:0:0:
64,192,10800,1,8,0:0:0:0:
448,192,10857,1,8,0:0:0:0:
320,192,10857,1,8,0:0:0:0:
192,192,10914,1,8,0:0:0:0:
64,192,10914,1,8,0:0:0:0:
448,192,10971,1,8,0:0:0:0:
320,192,10971,1,8,0:0:0:0:
192,192,11142,1,0,0:0:0:0:
320,192,11228,1,0,0:0:0:0:
448,192,11314,1,0,0:0:0:0:
320,192,11485,1,0,0:0:0:0:
192,192,11571,1,0,0:0:0:0:
64,192,11657,1,0,0:0:0:0:
448,192,11828,1,0,0:0:0:0:
320,192,11914,1,0,0:0:0:0:
192,192,12000,1,0,0:0:0:0:
64,192,12171,1,0,0:0:0:0:
192,192,12257,1,0,0:0:0:0:
320,192,12342,1,0,0:0:0:0:
192,192,12514,1,0,0:0:0:0:
320,192,12600,1,0,0:0:0:0:
192,192,12685,1,0,0:0:0:0:
320,192,12857,1,0,0:0:0:0:
192,192,12942,1,0,0:0:0:0:
320,192,13028,1,0,0:0:0:0:
192,192,13200,1,0,0:0:0:0:
64,192,13285,1,0,0:0:0:0:
448,192,13371,1,0,0:0:0:0:
64,192,13542,1,0,0:0:0:0:
192,192,13628,1,0,0:0:0:0:
448,192,13714,1,2,0:0:0:0:
320,192,13714,1,2,0:0:0:0:
192,192,13885,1,0,0:0:0:0:
448,192,13971,1,0,0:0:0:0:
320,192,14057,1,0,0:0:0:0:
64,192,14228,1,0,0:0:0:0:
192,192,14314,1,0,0:0:0:0:
320,192,14400,1,0,0:0:0:0:
448,192,14571,1,0,0:0:0:0:
64,192,14657,1,0,0:0:0:0:
192,192,14742,1,0,0:0:0:0:
448,192,14914,1,0,0:0:0:0:
192,192,15000,1,0,0:0:0:0:
320,192,15085,1,0,0:0:0:0:
64,192,15257,1,0,0:0:0:0:
320,192,15342,1,0,0:0:0:0:
192,192,15428,1,0,0:0:0:0:
448,192,15600,1,0,0:0:0:0:
320,192,15685,1,0,0:0:0:0:
192,192,15771,1,0,0:0:0:0:
64,192,15942,1,0,0:0:0:0:
192,192,16028,1,0,0:0:0:0:
320,192,16114,1,0,0:0:0:0:
448,192,16285,1,0,0:0:0:0:
192,192,16371,1,0,0:0:0:0:
448,192,16457,1,2,0:0:0:0:
320,192,16457,1,2,0:0:0:0:
448,192,16628,1,0,0:0:0:0:
192,192,16714,1,0,0:0:0:0:
64,192,16800,1,0,0:0:0:0:
320,192,16971,1,0,0:0:0:0:
64,192,17057,1,0,0:0:0:0:
448,192,17142,1,0,0:0:0:0:
192,192,17314,1,0,0:0:0:0:
320,192,17400,1,0,0:0:0:0:
64,192,17485,1,0,0:0:0:0:
320,192,17657,1,0,0:0:0:0:
64,192,17742,1,0,0:0:0:0:
448,192,17828,1,0,0:0:0:0:
64,192,18000,1,0,0:0:0:0:
320,192,18085,1,0,0:0:0:0:
192,192,18171,1,0,0:0:0:0:
448,192,18342,1,0,0:0:0:0:
192,192,18428,1,0,0:0:0:0:
64,192,18514,1,0,0:0:0:0:
320,192,18685,1,0,0:0:0:0:
64,192,18771,1,0,0:0:0:0:
448,192,18857,1,0,0:0:0:0:
448,192,19028,1,0,0:0:0:0:
192,192,19114,1,0,0:0:0:0:
320,192,19200,1,2,0:0:0:0:
448,192,19200,1,2,0:0:0:0:
192,192,19371,1,0,0:0:0:0:
64,192,19457,1,0,0:0:0:0:
320,192,19542,1,0,0:0:0:0:
192,192,19714,1,0,0:0:0:0:
320,192,19800,1,0,0:0:0:0:
448,192,19885,1,0,0:0:0:0:
192,192,20057,1,0,0:0:0:0:
320,192,20142,1,0,0:0:0:0:
64,192,20228,1,0,0:0:0:0:
320,192,20400,1,0,0:0:0:0:
192,192,20485,1,0,0:0:0:0:
64,192,20571,1,0,0:0:0:0:
448,192,20742,1,0,0:0:0:0:
192,192,20828,1,0,0:0:0:0:
320,192,20914,1,0,0:0:0:0:
448,192,21085,1,8,0:0:0:0:
320,192,21085,1,8,0:0:0:0:
192,192,21171,1,8,0:0:0:0:
64,192,21171,1,8,0:0:0:0:
448,192,21257,128,8,21514:0:0:0:0:
320,192,21257,1,8,0:0:0:0:
192,192,21428,1,8,0:0:0:0:
64,192,21428,1,8,0:0:0:0:
64,192,21600,1,0,0:0:0:0:
192,192,21685,1,0,0:0:0:0:
448,192,21771,1,8,0:0:0:0:
320,192,21771,1,8,0:0:0:0:
192,192,21828,1,8,0:0:0:0:
64,192,21828,1,8,0:0:0:0:
320,192,21885,1,8,0:0:0:0:
448,192,21885,1,8,0:0:0:0:
192,192,21942,1,12,0:0:0:0:
64,192,21942,1,12,0:0:0:0:
448,192,21942,1,12,0:0:0:0:
192,192,22114,1,0,0:0:0:0:
64,192,22200,1,0,0:0:0:0:
448,192,22285,1,0,0:0:0:0:
320,192,22285,1,8,0:0:0:0:
320,192,22457,1,0,0:0:0:0:
192,192,22542,1,0,0:0:0:0:
448,192,22628,1,8,0:0:0:0:
64,192,22628,1,0,0:0:0:0:
192,192,22800,1,0,0:0:0:0:
320,192,22885,1,0,0:0:0:0:
192,192,22971,1,0,0:0:0:0:
448,192,22971,1,8,0:0:0:0:
64,192,23142,1,0,0:0:0:0:
448,192,23228,1,0,0:0:0:0:
320,192,23314,1,0,0:0:0:0:
192,192,23314,1,8,0:0:0:0:
448,192,23485,1,0,0:0:0:0:
320,192,23571,1,0,0:0:0:0:
192,192,23657,1,8,0:0:0:0:
64,192,23657,1,0,0:0:0:0:
64,192,23828,1,0,0:0:0:0:
192,192,23914,1,0,0:0:0:0:
320,192,24000,1,0,0:0:0:0:
448,192,24000,1,8,0:0:0:0:
192,192,24171,1,0,0:0:0:0:
64,192,24257,1,0,0:0:0:0:
320,192,24342,1,8,0:0:0:0:
448,192,24342,1,0,0:0:0:0:
320,192,24514,1,0,0:0:0:0:
64,192,24600,1,0,0:0:0:0:
448,192,24685,1,0,0:0:0:0:
320,192,24685,1,8,0:0:0:0:
192,192,24685,1,4,0:0:0:0:
320,192,24857,1,0,0:0:0:0:
192,192,24942,1,0,0:0:0:0:
64,192,25028,1,0,0:0:0:0:
320,192,25028,1,8,0:0:0:0:
192,192,25200,1,0,0:0:0:0:
320,192,25285,1,0,0:0:0:0:
192,192,25371,1,8,0:0:0:0:
448,192,25371,1,0,0:0:0:0:
64,192,25542,1,0,0:0:0:0:
192,192,25628,1,0,0:0:0:0:
320,192,25714,1,8,0:0:0:0:
448,192,25714,1,0,0:0:0:0:
320,192,25885,1,0,0:0:0:0:
192,192,25971,1,0,0:0:0:0:
64,192,26057,1,0,0:0:0:0:
448,192,26057,1,8,0:0:0:0:
192,192,26228,1,0,0:0:0:0:
320,192,26314,1,0,0:0:0:0:
64,192,26400,1,8,0:0:0:0:
448,192,26400,1,0,0:0:0:0:
192,192,26571,1,0,0:0:0:0:
64,192,26657,1,0,0:0:0:0:
320,192,26742,1,8,0:0:0:0:
448,192,26742,1,0,0:0:0:0:
320,192,26914,1,0,0:0:0:0:
448,192,27000,1,0,0:0:0:0:
192,192,27085,1,8,0:0:0:0:
64,192,27085,1,0,0:0:0:0:
64,192,27257,1,0,0:0:0:0:
192,192,27342,1,0,0:0:0:0:
320,192,27428,1,8,0:0:0:0:
448,192,27428,1,0,0:0:0:0:
64,192,27428,1,4,0:0:0:0:
448,192,27600,1,8,0:0:0:0:
320,192,27600,1,8,0:0:0:0:
320,192,27771,1,8,0:0:0:0:
448,192,27771,1,8,0:0:0:0:
448,192,27942,1,8,0:0:0:0:
320,192,27942,1,8,0:0:0:0:
320,192,28114,1,8,0:0:0:0:
448,192,28114,1,8,0:0:0:0:
448,192,28285,1,8,0:0:0:0:
320,192,28285,1,8,0:0:0:0:
448,192,28457,1,8,0:0:0:0:
320,192,28457,1,8,0:0:0:0:
448,192,28628,1,8,0:0:0:0:
320,192,28628,1,8,0:0:0:0:
320,192,28800,1,8,0:0:0:0:
448,192,28800,1,8,0:0:0:0:
192,192,28885,1,8,0:0:0:0:
64,192,28885,1,8,0:0:0:0:
320,192,28971,1,8,0:0:0:0:
448,192,28971,1,8,0:0:0:0:
192,192,29057,1,8,0:0:0:0:
64,192,29057,1,8,0:0:0:0:
320,192,29142,1,8,0:0:0:0:
448,192,29142,1,8,0:0:0:0:
192,192,29228,1,8,0:0:0:0:
64,192,29228,1,8,0:0:0:0:
320,192,29314,1,8,0:0:0:0:
448,192,29314,1,8,0:0:0:0:
192,192,29400,1,8,0:0:0:0:
64,192,29400,1,8,0:0:0:0:
320,192,29485,1,8,0:0:0:0:
448,192,29485,1,8,0:0:0:0:
192,192,29571,1,8,0:0:0:0:
64,192,29571,1,8,0:0:0:0:
448,192,29657,1,8,0:0:0:0:
320,192,29657,1,8,0:0:0:0:
192,192,29742,1,8,0:0:0:0:
64,192,29742,1,8,0:0:0:0:
448,192,29828,1,10,0:0:0:0:
320,192,29914,1,10,0:0:0:0:
64,192,29914,1,10,0:0:0:0:
192,192,30000,1,10,0:0:0:0:
448,192,30000,1,10,0:0:0:0:
320,192,30085,1,10,0:0:0:0:
64,192,30085,1,10,0:0:0:0:
448,192,30171,1,10,0:0:0:0:
192,192,30171,1,10,0:0:0:0:
320,192,30342,1,0,0:0:0:0:
192,192,30514,1,0,0:0:0:0:
64,192,30685,1,0,0:0:0:0:
448,192,30857,1,0,0:0:0:0:
320,192,31028,1,0,0:0:0:0:
192,192,31200,1,0,0:0:0:0:
64,192,31371,1,0,0:0:0:0:
320,192,31542,1,8,0:0:0:0:
448,192,31542,1,8,0:0:0:0:
192,192,31628,1,2,0:0:0:0:
64,192,31714,1,2,0:0:0:0:
192,192,31800,1,2,0:0:0:0:
448,192,31885,1,8,0:0:0:0:
320,192,31885,1,8,0:0:0:0:
192,192,31971,1,2,0:0:0:0:
64,192,32057,1,2,0:0:0:0:
192,192,32142,1,2,0:0:0:0:
64,192,32228,1,2,0:0:0:0:
192,192,32314,1,2,0:0:0:0:
320,192,32400,1,6,0:0:0:0:
64,192,32400,1,6,0:0:0:0:
192,192,32485,1,6,0:0:0:0:
448,192,32485,1,6,0:0:0:0:
64,192,32571,1,6,0:0:0:0:
320,192,32571,1,6,0:0:0:0:
64,192,32914,1,2,0:0:0:0:
192,192,32957,1,2,0:0:0:0:
320,192,33000,1,2,0:0:0:0:
448,192,33042,1,2,0:0:0:0:
64,192,33085,1,2,0:0:0:0:
192,192,33128,1,2,0:0:0:0:
320,192,33171,1,2,0:0:0:0:
448,192,33214,1,2,0:0:0:0:
64,192,33257,1,2,0:0:0:0:
192,192,33300,1,2,0:0:0:0:
448,192,33342,1,0,0:0:0:0:
320,192,33385,1,0,0:0:0:0:
64,192,33428,128,4,33471:0:0:0:0:
448,192,33428,128,4,33471:0:0:0:0:
192,192,33514,128,4,33557:0:0:0:0:
320,192,33514,128,4,33557:0:0:0:0:
448,192,33600,1,2,0:0:0:0:
320,192,33642,1,2,0:0:0:0:
64,192,33685,1,2,0:0:0:0:
192,192,33728,1,2,0:0:0:0:
448,192,33771,1,2,0:0:0:0:
320,192,33814,1,2,0:0:0:0:
64,192,33857,1,2,0:0:0:0:
192,192,33900,1,2,0:0:0:0:
448,192,33942,128,4,33985:0:0:0:0:
320,192,33942,128,4,33985:0:0:0:0:
192,192,34028,128,4,34071:0:0:0:0:
64,192,34028,128,4,34071:0:0:0:0:
448,192,34114,128,4,34157:0:0:0:0:
320,192,34114,128,4,34157:0:0:0:0:
192,192,34200,128,4,34242:0:0:0:0:
64,192,34200,128,4,34242:0:0:0:0:
448,192,34285,128,8,34500:0:0:0:0:
64,192,34285,128,8,34500:0:0:0:0:
192,192,34542,128,8,34757:0:0:0:0:
320,192,34542,128,8,34757:0:0:0:0:
64,192,34800,128,8,34971:0:0:0:0:
448,192,34800,128,8,34971:0:0:0:0:
192,192,34971,1,8,0:0:0:0:
320,192,34971,1,8,0:0:0:0:
448,192,35142,1,0,0:0:0:0:
320,192,35228,1,0,0:0:0:0:
192,192,35314,1,8,0:0:0:0:
64,192,35314,1,8,0:0:0:0:
192,192,35400,1,8,0:0:0:0:
64,192,35400,1,8,0:0:0:0:
320,192,35485,1,8,0:0:0:0:
448,192,35485,1,8,0:0:0:0:
448,192,35571,1,8,0:0:0:0:
320,192,35571,1,8,0:0:0:0:
64,192,35657,128,12,35914:0:0:0:0:
192,192,35657,128,12,35914:0:0:0:0:
448,192,35742,1,8,0:0:0:0:
320,192,35828,1,8,0:0:0:0:
448,192,35914,1,8,0:0:0:0:
192,192,36000,1,8,0:0:0:0:
64,192,36000,1,8,0:0:0:0:
192,192,36085,1,8,0:0:0:0:
64,192,36085,1,8,0:0:0:0:
320,192,36171,1,8,0:0:0:0:
448,192,36171,1,8,0:0:0:0:
448,192,36257,1,8,0:0:0:0:
320,192,36257,1,8,0:0:0:0:
64,192,36342,1,8,0:0:0:0:
192,192,36342,1,8,0:0:0:0:
320,192,36385,1,2,0:0:0:0:
448,192,36428,1,2,0:0:0:0:
64,192,36471,1,2,0:0:0:0:
192,192,36514,1,2,0:0:0:0:
320,192,36557,1,2,0:0:0:0:
448,192,36600,1,2,0:0:0:0:
64,192,36642,1,2,0:0:0:0:
192,192,36685,1,8,0:0:0:0:
320,192,36685,1,8,0:0:0:0:
320,192,36771,1,8,0:0:0:0:
192,192,36771,1,8,0:0:0:0:
64,192,36857,1,8,0:0:0:0:
448,192,36857,1,8,0:0:0:0:
448,192,36942,1,8,0:0:0:0:
64,192,36942,1,8,0:0:0:0:
320,192,37028,128,12,37371:0:0:0:0:
192,192,37028,128,12,37371:0:0:0:0:
64,192,37028,128,12,37371:0:0:0:0:
448,192,37028,128,12,37371:0:0:0:0:
192,192,37542,1,8,0:0:0:0:
64,192,37542,1,8,0:0:0:0:
320,192,37628,1,8,0:0:0:0:
448,192,37628,1,8,0:0:0:0:
64,192,37714,1,12,0:0:0:0:
192,192,37714,1,12,0:0:0:0:
320,192,37714,1,12,0:0:0:0:
320,192,37885,1,8,0:0:0:0:
448,192,37885,1,8,0:0:0:0:
192,192,37971,1,8,0:0:0:0:
64,192,37971,1,8,0:0:0:0:
192,192,38057,1,12,0:0:0:0:
320,192,38057,1,12,0:0:0:0:
448,192,38057,1,12,0:0:0:0:
448,192,38228,1,8,0:0:0:0:
320,192,38228,1,8,0:0:0:0:
192,192,38285,1,8,0:0:0:0:
64,192,38285,1,8,0:0:0:0:
320,192,38342,1,8,0:0:0:0:
448,192,38342,1,8,0:0:0:0:
192,192,38400,1,8,0:0:0:0:
64,192,38400,1,8,0:0:0:0:
448,192,38457,1,2,0:0:0:0:
320,192,38514,1,2,0:0:0:0:
192,192,38571,1,2,0:0:0:0:
64,192,38628,1,2,0:0:0:0:
448,192,38685,1,2,0:0:0:0:
320,192,38742,1,2,0:0:0:0:
64,192,38828,1,8,0:0:0:0:
192,192,38914,1,8,0:0:0:0:
320,192,38914,1,8,0:0:0:0:
320,192,39000,1,8,0:0:0:0:
192,192,39000,1,8,0:0:0:0:
64,192,39085,1,2,0:0:0:0:
448,192,39085,1,8,0:0:0:0:
192,192,39128,1,2,0:0:0:0:
320,192,39171,1,2,0:0:0:0:
448,192,39214,1,2,0:0:0:0:
64,192,39257,1,2,0:0:0:0:
192,192,39300,1,2,0:0:0:0:
320,192,39342,1,2,0:0:0:0:
448,192,39385,1,2,0:0:0:0:
64,192,39428,128,4,39557:0:0:0:0:
320,192,39428,128,4,39557:0:0:0:0:
320,192,39600,128,4,39728:0:0:0:0:
64,192,39600,128,4,39728:0:0:0:0:
448,192,39771,128,8,39985:0:0:0:0:
64,192,39771,128,8,39985:0:0:0:0:
320,192,40028,128,8,40242:0:0:0:0:
192,192,40028,128,8,40242:0:0:0:0:
448,192,40285,128,8,40457:0:0:0:0:
64,192,40285,128,8,40457:0:0:0:0:
320,192,40457,1,8,0:0:0:0:
192,192,40457,1,8,0:0:0:0:
192,192,40628,1,0,0:0:0:0:
64,192,40714,1,0,0:0:0:0:
320,192,40800,1,8,0:0:0:0:
448,192,40800,1,8,0:0:0:0:
320,192,40885,1,8,0:0:0:0:
448,192,40885,1,8,0:0:0:0:
192,192,40971,1,8,0:0:0:0:
64,192,40971,1,8,0:0:0:0:
64,192,41057,1,8,0:0:0:0:
192,192,41057,1,8,0:0:0:0:
320,192,41142,128,12,41400:0:0:0:0:
448,192,41142,128,12,41400:0:0:0:0:
192,192,41228,1,8,0:0:0:0:
64,192,41314,1,8,0:0:0:0:
192,192,41400,1,8,0:0:0:0:
448,192,41485,1,8,0:0:0:0:
320,192,41485,1,8,0:0:0:0:
448,192,41571,1,8,0:0:0:0:
320,192,41571,1,8,0:0:0:0:
64,192,41657,1,8,0:0:0:0:
192,192,41657,1,8,0:0:0:0:
192,192,41742,1,8,0:0:0:0:
64,192,41742,1,8,0:0:0:0:
320,192,41828,1,10,0:0:0:0:
448,192,41828,1,8,0:0:0:0:
192,192,41871,1,2,0:0:0:0:
64,192,41914,1,2,0:0:0:0:
448,192,41957,1,2,0:0:0:0:
320,192,42000,1,2,0:0:0:0:
192,192,42042,1,2,0:0:0:0:
64,192,42085,1,2,0:0:0:0:
320,192,42128,1,2,0:0:0:0:
192,192,42171,1,8,0:0:0:0:
448,192,42171,1,8,0:0:0:0:
192,192,42257,1,8,0:0:0:0:
448,192,42257,1,8,0:0:0:0:
320,192,42342,1,8,0:0:0:0:
64,192,42342,1,8,0:0:0:0:
64,192,42428,1,8,0:0:0:0:
320,192,42428,1,8,0:0:0:0:
64,192,42514,128,12,42857:0:0:0:0:
192,192,42514,128,12,42857:0:0:0:0:
320,192,42514,128,12,42857:0:0:0:0:
448,192,42514,128,12,42857:0:0:0:0:
64,192,43028,1,8,0:0:0:0:
320,192,43028,1,8,0:0:0:0:
192,192,43114,1,8,0:0:0:0:
448,192,43114,1,8,0:0:0:0:
320,192,43200,1,12,0:0:0:0:
192,192,43200,1,12,0:0:0:0:
64,192,43200,1,12,0:0:0:0:
192,192,43371,1,8,0:0:0:0:
320,192,43371,1,8,0:0:0:0:
64,192,43457,1,8,0:0:0:0:
448,192,43457,1,8,0:0:0:0:
448,192,43542,1,12,0:0:0:0:
320,192,43542,1,12,0:0:0:0:
192,192,43542,1,12,0:0:0:0:
192,192,43714,1,8,0:0:0:0:
64,192,43714,1,8,0:0:0:0:
320,192,43771,1,8,0:0:0:0:
448,192,43771,1,8,0:0:0:0:
192,192,43828,1,8,0:0:0:0:
64,192,43828,1,8,0:0:0:0:
320,192,43885,1,8,0:0:0:0:
448,192,43885,1,8,0:0:0:0:
192,192,43942,1,2,0:0:0:0:
64,192,44000,1,2,0:0:0:0:
448,192,44057,1,2,0:0:0:0:
320,192,44114,1,2,0:0:0:0:
192,192,44171,1,2,0:0:0:0:
64,192,44228,1,2,0:0:0:0:
448,192,44285,1,0,0:0:0:0:
320,192,44342,1,0,0:0:0:0:
192,192,44400,1,8,0:0:0:0:
64,192,44400,1,8,0:0:0:0:
192,192,44485,1,8,0:0:0:0:
64,192,44485,1,8,0:0:0:0:
320,192,44571,1,8,0:0:0:0:
448,192,44571,1,8,0:0:0:0:
192,192,44614,1,2,0:0:0:0:
64,192,44657,1,2,0:0:0:0:
448,192,44700,1,2,0:0:0:0:
320,192,44742,1,2,0:0:0:0:
192,192,44785,1,2,0:0:0:0:
64,192,44828,1,2,0:0:0:0:
320,192,44871,1,2,0:0:0:0:
192,192,44914,128,4,44957:0:0:0:0:
448,192,44914,128,4,44957:0:0:0:0:
320,192,45000,128,4,45042:0:0:0:0:
64,192,45000,128,4,45042:0:0:0:0:
192,192,45085,128,4,45128:0:0:0:0:
448,192,45085,128,4,45128:0:0:0:0:
320,192,45171,128,4,45214:0:0:0:0:
64,192,45171,128,4,45214:0:0:0:0:
192,192,45257,128,8,45471:0:0:0:0:
320,192,45257,128,8,45471:0:0:0:0:
448,192,45514,128,8,45728:0:0:0:0:
64,192,45514,128,8,45728:0:0:0:0:
192,192,45771,128,8,45942:0:0:0:0:
320,192,45771,128,8,45942:0:0:0:0:
64,192,45942,1,8,0:0:0:0:
448,192,45942,1,8,0:0:0:0:
192,192,46114,1,0,0:0:0:0:
320,192,46200,1,0,0:0:0:0:
64,192,46285,1,8,0:0:0:0:
448,192,46285,1,8,0:0:0:0:
448,192,46371,1,8,0:0:0:0:
64,192,46371,1,8,0:0:0:0:
192,192,46457,1,8,0:0:0:0:
320,192,46457,1,8,0:0:0:0:
320,192,46542,1,8,0:0:0:0:
192,192,46542,1,8,0:0:0:0:
448,192,46628,128,12,46885:0:0:0:0:
64,192,46628,128,12,46885:0:0:0:0:
320,192,46714,1,8,0:0:0:0:
192,192,46800,1,8,0:0:0:0:
320,192,46885,1,8,0:0:0:0:
64,192,46971,1,8,0:0:0:0:
448,192,46971,1,8,0:0:0:0:
448,192,47057,1,8,0:0:0:0:
64,192,47057,1,8,0:0:0:0:
192,192,47142,1,8,0:0:0:0:
320,192,47142,1,8,0:0:0:0:
320,192,47228,1,8,0:0:0:0:
192,192,47228,1,8,0:0:0:0:
448,192,47314,1,0,0:0:0:0:
64,192,47314,1,0,0:0:0:0:
192,192,47357,1,2,0:0:0:0:
448,192,47400,1,2,0:0:0:0:
320,192,47442,1,2,0:0:0:0:
64,192,47485,1,2,0:0:0:0:
192,192,47528,1,2,0:0:0:0:
448,192,47571,1,2,0:0:0:0:
320,192,47614,1,2,0:0:0:0:
192,192,47657,1,8,0:0:0:0:
64,192,47657,1,8,0:0:0:0:
192,192,47742,1,8,0:0:0:0:
64,192,47742,1,8,0:0:0:0:
320,192,47828,1,8,0:0:0:0:
448,192,47828,1,8,0:0:0:0:
320,192,47914,1,8,0:0:0:0:
448,192,47914,1,8,0:0:0:0:
64,192,48000,128,12,48342:0:0:0:0:
192,192,48000,128,12,48342:0:0:0:0:
320,192,48000,128,12,48342:0:0:0:0:
448,192,48000,128,12,48342:0:0:0:0:
320,192,48514,1,8,0:0:0:0:
64,192,48514,1,8,0:0:0:0:
192,192,48600,1,8,0:0:0:0:
448,192,48600,1,8,0:0:0:0:
64,192,48685,1,12,0:0:0:0:
192,192,48685,1,12,0:0:0:0:
320,192,48685,1,12,0:0:0:0:
320,192,48857,1,8,0:0:0:0:
448,192,48857,1,8,0:0:0:0:
192,192,48942,1,8,0:0:0:0:
64,192,48942,1,8,0:0:0:0:
448,192,49028,1,8,0:0:0:0:
320,192,49028,1,8,0:0:0:0:
320,192,49114,1,8,0:0:0:0:
448,192,49114,1,8,0:0:0:0:
192,192,49200,1,8,0:0:0:0:
64,192,49200,1,8,0:0:0:0:
320,192,49257,1,8,0:0:0:0:
448,192,49257,1,8,0:0:0:0:
192,192,49314,1,8,0:0:0:0:
64,192,49314,1,8,0:0:0:0:
320,192,49371,1,8,0:0:0:0:
448,192,49371,1,8,0:0:0:0:
192,192,49428,1,2,0:0:0:0:
64,192,49485,1,2,0:0:0:0:
448,192,49542,1,2,0:0:0:0:
320,192,49600,1,2,0:0:0:0:
192,192,49657,1,2,0:0:0:0:
64,192,49714,1,2,0:0:0:0:
448,192,49771,1,2,0:0:0:0:
320,192,49828,1,2,0:0:0:0:
448,192,49885,1,8,0:0:0:0:
192,192,49885,1,8,0:0:0:0:
448,192,49971,1,8,0:0:0:0:
192,192,49971,1,8,0:0:0:0:
64,192,50057,1,2,0:0:0:0:
320,192,50057,1,8,0:0:0:0:
192,192,50100,1,2,0:0:0:0:
448,192,50142,1,2,0:0:0:0:
320,192,50185,1,2,0:0:0:0:
64,192,50228,1,2,0:0:0:0:
192,192,50271,1,2,0:0:0:0:
448,192,50314,1,2,0:0:0:0:
320,192,50357,1,2,0:0:0:0:
192,192,50400,128,4,50528:0:0:0:0:
64,192,50400,128,4,50528:0:0:0:0:
320,192,50571,128,4,50700:0:0:0:0:
448,192,50571,128,4,50700:0:0:0:0:
64,192,50742,128,8,50957:0:0:0:0:
192,192,50742,128,8,50957:0:0:0:0:
448,192,51000,128,8,51214:0:0:0:0:
320,192,51000,128,8,51214:0:0:0:0:
192,192,51257,128,8,51428:0:0:0:0:
64,192,51257,128,8,51428:0:0:0:0:
320,192,51428,1,8,0:0:0:0:
448,192,51428,1,8,0:0:0:0:
192,192,51514,1,8,0:0:0:0:
64,192,51600,1,12,0:0:0:0:
448,192,51600,1,12,0:0:0:0:
192,192,51685,1,8,0:0:0:0:
448,192,51685,1,8,0:0:0:0:
64,192,51771,1,12,0:0:0:0:
320,192,51771,1,12,0:0:0:0:
192,192,51771,1,12,0:0:0:0:
448,192,51857,1,8,0:0:0:0:
320,192,51857,1,8,0:0:0:0:
192,192,51942,1,8,0:0:0:0:
64,192,51942,1,8,0:0:0:0:
320,192,52000,1,8,0:0:0:0:
448,192,52000,1,8,0:0:0:0:
192,192,52057,1,8,0:0:0:0:
64,192,52057,1,8,0:0:0:0:
448,192,52114,128,0,54857:0:0:0:0:
320,192,52114,1,8,0:0:0:0:
64,192,54342,1,8,0:0:0:0:
320,192,54428,1,8,0:0:0:0:
192,192,54514,1,8,0:0:0:0:
64,192,54514,1,8,0:0:0:0:
320,192,54857,1,12,0:0:0:0:
192,192,54857,1,12,0:0:0:0:
64,192,54857,1,12,0:0:0:0:
448,192,54971,1,0,0:0:0:0:
320,192,55085,1,0,0:0:0:0:
64,192,56228,1,0,0:0:0:0:
192,192,56285,1,0,0:0:0:0:
320,192,58400,1,0,0:0:0:0:
64,192,58685,1,0,0:0:0:0:
448,192,58914,1,0,0:0:0:0:
320,192,59171,1,0,0:0:0:0:
192,192,59428,1,0,0:0:0:0:
64,192,59657,1,0,0:0:0:0:
192,192,59942,1,0,0:0:0:0:
320,192,60257,1,0,0:0:0:0:
320,192,60514,1,0,0:0:0:0:
192,192,60657,1,0,0:0:0:0:
64,192,60771,1,0,0:0:0:0:
320,192,61485,1,0,0:0:0:0:
64,192,61714,1,0,0:0:0:0:
320,192,61942,1,0,0:0:0:0:
448,192,62171,1,0,0:0:0:0:
192,192,62428,1,0,0:0:0:0:
64,192,62628,1,0,0:0:0:0:
320,192,62714,1,0,0:0:0:0:
192,192,64057,1,0,0:0:0:0:
320,192,64114,1,0,0:0:0:0:
192,192,64200,1,0,0:0:0:0:
448,192,65400,1,0,0:0:0:0:
64,192,65742,1,0,0:0:0:0:
192,192,65828,1,12,0:0:0:0:
320,192,65828,1,12,0:0:0:0:
448,192,65828,1,12,0:0:0:0:
64,192,66000,1,0,0:0:0:0:
192,192,66085,1,0,0:0:0:0:
320,192,66171,1,8,0:0:0:0:
448,192,66171,1,8,0:0:0:0:
448,192,66342,1,0,0:0:0:0:
320,192,66428,1,0,0:0:0:0:
192,192,66514,1,8,0:0:0:0:
64,192,66514,1,8,0:0:0:0:
320,192,66685,1,0,0:0:0:0:
192,192,66771,1,0,0:0:0:0:
64,192,66857,1,8,0:0:0:0:
320,192,66857,1,8,0:0:0:0:
192,192,67028,1,0,0:0:0:0:
320,192,67114,1,0,0:0:0:0:
192,192,67200,1,8,0:0:0:0:
64,192,67200,1,8,0:0:0:0:
448,192,67371,1,0,0:0:0:0:
64,192,67457,1,0,0:0:0:0:
192,192,67542,1,8,0:0:0:0:
320,192,67542,1,8,0:0:0:0:
64,192,67714,1,0,0:0:0:0:
320,192,67800,1,0,0:0:0:0:
192,192,67885,1,8,0:0:0:0:
448,192,67885,1,8,0:0:0:0:
320,192,68057,1,0,0:0:0:0:
64,192,68142,1,0,0:0:0:0:
192,192,68228,1,8,0:0:0:0:
320,192,68228,1,8,0:0:0:0:
64,192,68400,1,0,0:0:0:0:
320,192,68485,1,0,0:0:0:0:
448,192,68571,1,8,0:0:0:0:
192,192,68571,1,8,0:0:0:0:
192,192,68742,1,0,0:0:0:0:
64,192,68828,1,0,0:0:0:0:
320,192,68914,1,8,0:0:0:0:
448,192,68914,1,8,0:0:0:0:
320,192,69085,1,0,0:0:0:0:
192,192,69171,1,0,0:0:0:0:
64,192,69257,1,8,0:0:0:0:
448,192,69257,1,8,0:0:0:0:
192,192,69428,1,0,0:0:0:0:
320,192,69514,1,0,0:0:0:0:
64,192,69600,1,8,0:0:0:0:
448,192,69600,1,8,0:0:0:0:
192,192,69771,1,0,0:0:0:0:
320,192,69857,1,0,0:0:0:0:
64,192,69942,1,8,0:0:0:0:
192,192,69942,1,8,0:0:0:0:
448,192,70114,1,0,0:0:0:0:
192,192,70200,1,0,0:0:0:0:
64,192,70285,1,8,0:0:0:0:
448,192,70285,1,8,0:0:0:0:
64,192,70457,1,0,0:0:0:0:
192,192,70542,1,0,0:0:0:0:
320,192,70628,1,8,0:0:0:0:
448,192,70628,1,8,0:0:0:0:
448,192,70800,1,0,0:0:0:0:
320,192,70885,1,0,0:0:0:0:
192,192,70971,1,8,0:0:0:0:
64,192,70971,1,8,0:0:0:0:
192,192,71142,1,0,0:0:0:0:
320,192,71228,1,0,0:0:0:0:
192,192,71314,1,8,0:0:0:0:
64,192,71314,1,8,0:0:0:0:
192,192,71485,1,8,0:0:0:0:
64,192,71485,1,8,0:0:0:0:
192,192,71657,1,8,0:0:0:0:
64,192,71657,1,8,0:0:0:0:
192,192,71828,1,8,0:0:0:0:
64,192,71828,1,8,0:0:0:0:
192,192,72000,1,8,0:0:0:0:
64,192,72000,1,8,0:0:0:0:
192,192,72171,1,8,0:0:0:0:
64,192,72171,1,8,0:0:0:0:
192,192,72342,1,8,0:0:0:0:
64,192,72342,1,8,0:0:0:0:
192,192,72514,1,8,0:0:0:0:
64,192,72514,1,8,0:0:0:0:
192,192,72685,1,8,0:0:0:0:
64,192,72685,1,8,0:0:0:0:
320,192,72771,1,8,0:0:0:0:
448,192,72771,1,8,0:0:0:0:
192,192,72857,1,8,0:0:0:0:
64,192,72857,1,8,0:0:0:0:
320,192,72942,1,8,0:0:0:0:
448,192,72942,1,8,0:0:0:0:
192,192,73028,1,8,0:0:0:0:
64,192,73028,1,8,0:0:0:0:
320,192,73114,1,8,0:0:0:0:
448,192,73114,1,8,0:0:0:0:
192,192,73200,1,8,0:0:0:0:
64,192,73200,1,8,0:0:0:0:
320,192,73285,1,8,0:0:0:0:
448,192,73285,1,8,0:0:0:0:
192,192,73371,1,8,0:0:0:0:
64,192,73371,1,8,0:0:0:0:
320,192,73457,1,8,0:0:0:0:
448,192,73457,1,8,0:0:0:0:
192,192,73542,1,8,0:0:0:0:
64,192,73542,1,8,0:0:0:0:
320,192,73628,1,8,0:0:0:0:
448,192,73628,1,8,0:0:0:0:
64,192,73714,1,10,0:0:0:0:
320,192,73800,1,10,0:0:0:0:
192,192,73800,1,10,0:0:0:0:
64,192,73885,1,10,0:0:0:0:
448,192,73885,1,10,0:0:0:0:
320,192,73971,1,10,0:0:0:0:
192,192,73971,1,10,0:0:0:0:
64,192,74057,1,10,0:0:0:0:
448,192,74057,1,10,0:0:0:0:
192,192,75428,1,8,0:0:0:0:
64,192,75428,1,8,0:0:0:0:
320,192,75514,1,2,0:0:0:0:
448,192,75600,1,2,0:0:0:0:
320,192,75685,1,2,0:0:0:0:
192,192,75771,1,2,0:0:0:0:
320,192,75857,1,2,0:0:0:0:
192,192,75942,1,2,0:0:0:0:
64,192,75942,1,8,0:0:0:0:
320,192,76028,1,2,0:0:0:0:
448,192,76028,1,8,0:0:0:0:
192,192,76114,1,2,0:0:0:0:
320,192,76200,1,2,0:0:0:0:
192,192,76285,1,6,0:0:0:0:
64,192,76285,1,6,0:0:0:0:
320,192,76371,1,6,0:0:0:0:
448,192,76371,1,6,0:0:0:0:
192,192,76457,1,14,0:0:0:0:
64,192,76457,1,14,0:0:0:0:
320,192,76457,1,14,0:0:0:0:
64,192,76628,128,0,76800:0:0:0:0:
192,192,76800,1,12,0:0:0:0:
320,192,76800,1,12,0:0:0:0:
448,192,76800,128,0,77828:0:0:0:0:
64,192,77142,1,8,0:0:0:0:
192,192,77142,1,8,0:0:0:0:
320,192,77657,1,8,0:0:0:0:
64,192,77657,1,8,0:0:0:0:
320,192,77828,128,0,78000:0:0:0:0:
192,192,77828,1,8,0:0:0:0:
64,192,77828,1,8,0:0:0:0:
64,192,78000,128,0,78171:0:0:0:0:
448,192,78171,128,0,78857:0:0:0:0:
192,192,78171,1,12,0:0:0:0:
320,192,78171,1,12,0:0:0:0:
192,192,78514,1,8,0:0:0:0:
64,192,78514,1,8,0:0:0:0:
64,192,78857,128,0,79542:0:0:0:0:
448,192,79028,1,8,0:0:0:0:
192,192,79028,1,8,0:0:0:0:
320,192,79200,1,8,0:0:0:0:
192,192,79200,1,8,0:0:0:0:
320,192,79542,128,0,80100:0:0:0:0:
192,192,79542,1,12,0:0:0:0:
448,192,79542,1,12,0:0:0:0:
192,192,79885,1,8,0:0:0:0:
64,192,79885,1,8,0:0:0:0:
448,192,80100,128,0,80571:0:0:0:0:
192,192,80400,1,8,0:0:0:0:
320,192,80400,1,8,0:0:0:0:
64,192,80571,128,0,81600:0:0:0:0:
320,192,80571,1,8,0:0:0:0:
192,192,80571,1,8,0:0:0:0:
192,192,80914,1,12,0:0:0:0:
448,192,80914,1,12,0:0:0:0:
320,192,81257,1,8,0:0:0:0:
192,192,81257,1,8,0:0:0:0:
192,192,81600,128,0,81685:0:0:0:0:
320,192,81771,128,0,81857:0:0:0:0:
64,192,81771,1,8,0:0:0:0:
448,192,81771,1,8,0:0:0:0:
448,192,81942,128,0,82028:0:0:0:0:
192,192,81942,1,8,0:0:0:0:
64,192,81942,1,8,0:0:0:0:
320,192,82114,128,0,82200:0:0:0:0:
192,192,82285,128,0,83142:0:0:0:0:
64,192,82285,1,12,0:0:0:0:
448,192,82285,1,12,0:0:0:0:
320,192,82628,1,8,0:0:0:0:
448,192,82628,1,8,0:0:0:0:
320,192,83142,1,8,0:0:0:0:
64,192,83142,1,8,0:0:0:0:
320,192,83314,128,0,83485:0:0:0:0:
192,192,83314,1,8,0:0:0:0:
64,192,83314,1,8,0:0:0:0:
64,192,83485,128,0,83657:0:0:0:0:
448,192,83657,128,0,84171:0:0:0:0:
320,192,83657,1,12,0:0:0:0:
192,192,83657,1,12,0:0:0:0:
64,192,84000,1,8,0:0:0:0:
320,192,84000,1,8,0:0:0:0:
192,192,84171,128,0,84685:0:0:0:0:
320,192,84514,1,8,0:0:0:0:
448,192,84514,1,8,0:0:0:0:
64,192,84685,128,0,84857:0:0:0:0:
448,192,84685,1,8,0:0:0:0:
320,192,84685,1,8,0:0:0:0:
448,192,85028,128,0,85542:0:0:0:0:
192,192,85028,1,12,0:0:0:0:
320,192,85028,1,12,0:0:0:0:
192,192,85371,1,8,0:0:0:0:
64,192,85371,1,8,0:0:0:0:
320,192,85542,128,0,86057:0:0:0:0:
64,192,85885,1,8,0:0:0:0:
448,192,85885,1,8,0:0:0:0:
192,192,86057,128,0,86914:0:0:0:0:
448,192,86057,1,8,0:0:0:0:
64,192,86057,1,8,0:0:0:0:
320,192,86400,1,12,0:0:0:0:
448,192,86400,1,12,0:0:0:0:
320,192,86742,1,8,0:0:0:0:
448,192,86742,1,8,0:0:0:0:
64,192,87085,128,0,87257:0:0:0:0:
448,192,87257,128,0,87428:0:0:0:0:
320,192,87257,1,8,0:0:0:0:
192,192,87257,1,8,0:0:0:0:
320,192,87428,128,0,87600:0:0:0:0:
192,192,87428,1,8,0:0:0:0:
64,192,87428,1,8,0:0:0:0:
192,192,87600,128,0,87771:0:0:0:0:
64,192,87771,128,0,88800:0:0:0:0:
320,192,87771,1,12,0:0:0:0:
448,192,87771,1,12,0:0:0:0:
192,192,88114,1,8,0:0:0:0:
320,192,88114,1,8,0:0:0:0:
320,192,88628,1,8,0:0:0:0:
192,192,88628,1,8,0:0:0:0:
192,192,88800,1,8,0:0:0:0:
448,192,88800,1,8,0:0:0:0:
64,192,88971,128,0,89057:0:0:0:0:
448,192,89057,128,0,89142:0:0:0:0:
320,192,89142,128,0,89657:0:0:0:0:
64,192,89142,1,12,0:0:0:0:
192,192,89142,1,12,0:0:0:0:
192,192,89485,1,8,0:0:0:0:
64,192,89485,1,8,0:0:0:0:
448,192,89657,128,0,90171:0:0:0:0:
320,192,90000,1,8,0:0:0:0:
64,192,90000,1,8,0:0:0:0:
192,192,90171,128,0,90514:0:0:0:0:
320,192,90171,1,8,0:0:0:0:
64,192,90171,1,8,0:0:0:0:
64,192,90514,128,0,91714:0:0:0:0:
320,192,90514,1,12,0:0:0:0:
448,192,90514,1,12,0:0:0:0:
192,192,90857,1,8,0:0:0:0:
320,192,90857,1,8,0:0:0:0:
320,192,91371,1,8,0:0:0:0:
448,192,91371,1,8,0:0:0:0:
448,192,91542,1,8,0:0:0:0:
320,192,91542,1,8,0:0:0:0:
192,192,91714,128,0,91800:0:0:0:0:
320,192,91800,128,0,91885:0:0:0:0:
448,192,91885,128,0,92400:0:0:0:0:
192,192,91885,1,12,0:0:0:0:
64,192,91885,1,12,0:0:0:0:
192,192,92228,1,8,0:0:0:0:
64,192,92228,1,8,0:0:0:0:
320,192,92400,128,0,92914:0:0:0:0:
192,192,92742,1,8,0:0:0:0:
448,192,92742,1,8,0:0:0:0:
64,192,92914,128,0,93771:0:0:0:0:
448,192,92914,1,8,0:0:0:0:
192,192,92914,1,8,0:0:0:0:
320,192,93257,1,12,0:0:0:0:
192,192,93257,1,12,0:0:0:0:
192,192,93600,1,8,0:0:0:0:
320,192,93600,1,8,0:0:0:0:
448,192,93771,128,0,94285:0:0:0:0:
320,192,94114,1,8,0:0:0:0:
64,192,94114,1,8,0:0:0:0:
192,192,94285,128,0,96857:0:0:0:0:
320,192,94285,1,8,0:0:0:0:
64,192,94285,1,8,0:0:0:0:
320,192,94628,1,12,0:0:0:0:
448,192,94628,1,12,0:0:0:0:
64,192,94971,1,8,0:0:0:0:
320,192,94971,1,8,0:0:0:0:
320,192,95485,1,8,0:0:0:0:
448,192,95485,1,8,0:0:0:0:
320,192,95657,1,8,0:0:0:0:
64,192,95657,1,8,0:0:0:0:
448,192,96000,1,12,0:0:0:0:
64,192,96000,1,12,0:0:0:0:
320,192,96342,1,8,0:0:0:0:
448,192,96342,1,8,0:0:0:0:
64,192,96857,1,8,0:0:0:0:
320,192,96857,1,8,0:0:0:0:
448,192,97028,128,0,97200:0:0:0:0:
320,192,97028,1,8,0:0:0:0:
192,192,97028,1,8,0:0:0:0:
320,192,97200,128,0,97371:0:0:0:0:
192,192,97200,1,8,0:0:0:0:
64,192,97200,1,8,0:0:0:0:
64,192,97371,128,0,98228:0:0:0:0:
192,192,97371,1,12,0:0:0:0:
448,192,97371,1,12,0:0:0:0:
192,192,97542,1,8,0:0:0:0:
320,192,97542,1,8,0:0:0:0:
320,192,97714,1,8,0:0:0:0:
192,192,97714,1,8,0:0:0:0:
448,192,97714,1,8,0:0:0:0:
320,192,97885,1,8,0:0:0:0:
448,192,97885,1,8,0:0:0:0:
192,192,98228,1,8,0:0:0:0:
448,192,98228,1,8,0:0:0:0:
320,192,98314,1,8,0:0:0:0:
64,192,98314,1,8,0:0:0:0:
192,192,98400,1,8,0:0:0:0:
448,192,98400,1,8,0:0:0:0:
320,192,98485,1,8,0:0:0:0:
64,192,98485,1,8,0:0:0:0:
192,192,98571,1,8,0:0:0:0:
448,192,98571,1,8,0:0:0:0:
320,192,98657,1,8,0:0:0:0:
64,192,98657,1,8,0:0:0:0:
192,192,98742,1,12,0:0:0:0:
448,192,98742,1,12,0:0:0:0:
448,192,98914,1,0,0:0:0:0:
192,192,99085,1,0,0:0:0:0:
320,192,99257,1,0,0:0:0:0:
64,192,99428,1,0,0:0:0:0:
192,192,99600,1,0,0:0:0:0:
448,192,99771,1,0,0:0:0:0:
64,192,99942,1,0,0:0:0:0:
320,192,100114,1,0,0:0:0:0:
192,192,100285,1,0,0:0:0:0:
448,192,100457,1,0,0:0:0:0:
64,192,100628,1,0,0:0:0:0:
320,192,100800,1,0,0:0:0:0:
192,192,100971,1,0,0:0:0:0:
448,192,101142,1,0,0:0:0:0:
320,192,101314,1,0,0:0:0:0:
192,192,101400,1,0,0:0:0:0:
64,192,101485,1,0,0:0:0:0:
320,192,101657,1,0,0:0:0:0:
192,192,101828,1,0,0:0:0:0:
448,192,102000,1,0,0:0:0:0:
64,192,102171,1,0,0:0:0:0:
320,192,102342,1,0,0:0:0:0:
192,192,102514,1,0,0:0:0:0:
448,192,102685,1,0,0:0:0:0:
320,192,102857,1,0,0:0:0:0:
64,192,103028,1,0,0:0:0:0:
448,192,103200,1,0,0:0:0:0:
192,192,103371,1,0,0:0:0:0:
320,192,103542,1,0,0:0:0:0:
64,192,103714,1,0,0:0:0:0:
448,192,103885,1,0,0:0:0:0:
192,192,104057,1,0,0:0:0:0:
448,192,104228,1,12,0:0:0:0:
320,192,104228,1,12,0:0:0:0:
64,192,104228,1,0,0:0:0:0:
192,192,104400,1,0,0:0:0:0:
448,192,104571,1,0,0:0:0:0:
64,192,104742,1,0,0:0:0:0:
320,192,104914,1,0,0:0:0:0:
192,192,105085,1,0,0:0:0:0:
448,192,105257,1,0,0:0:0:0:
320,192,105428,1,0,0:0:0:0:
192,192,105600,1,0,0:0:0:0:
64,192,105771,1,0,0:0:0:0:
448,192,105942,1,0,0:0:0:0:
64,192,106114,1,0,0:0:0:0:
192,192,106285,1,0,0:0:0:0:
320,192,106457,1,0,0:0:0:0:
64,192,106628,1,0,0:0:0:0:
448,192,106800,1,0,0:0:0:0:
320,192,106971,1,0,0:0:0:0:
192,192,107142,1,0,0:0:0:0:
64,192,107314,1,0,0:0:0:0:
448,192,107485,1,0,0:0:0:0:
192,192,107657,1,0,0:0:0:0:
320,192,107828,1,0,0:0:0:0:
64,192,108000,1,0,0:0:0:0:
448,192,108171,1,0,0:0:0:0:
320,192,108342,1,0,0:0:0:0:
192,192,108514,1,0,0:0:0:0:
448,192,108685,1,0,0:0:0:0:
64,192,108857,1,0,0:0:0:0:
320,192,109028,1,0,0:0:0:0:
192,192,109200,1,0,0:0:0:0:
448,192,109371,1,0,0:0:0:0:
320,192,109542,1,0,0:0:0:0:
