osu file format v14

[General]
AudioFilename: Adamantite.mp3
AudioLeadIn: 0
PreviewTime: 31462
Countdown: 1
SampleSet: Soft
StackLeniency: 0.7
Mode: 0
LetterboxInBreaks: 1
WidescreenStoryboard: 1

[Editor]
Bookmarks: 5,10976,21947,32919,43890,54862,65833,76805,87776,98747,109719
DistanceSpacing: 0.7
BeatDivisor: 4
GridSize: 8
TimelineZoom: 2.699999

[Metadata]
Title:Adamantite
TitleUnicode:Adamantite
Artist:Street vs Sin:cK
ArtistUnicode:Street vs Sin:cK
Creator:-Sepia-
Version:Annecy
Source:
Tags:
BeatmapID:1194704
BeatmapSetID:563373

[Difficulty]
HPDrainRate:5
CircleSize:4.3
OverallDifficulty:5
ApproachRate:10
SliderMultiplier:1.6
SliderTickRate:1

[Events]
//Background and Video events
0,0,"7y6t.png",0,0
//Break Periods
//Storyboard Layer 0 (Background)
//Storyboard Layer 1 (Fail)
//Storyboard Layer 2 (Pass)
//Storyboard Layer 3 (Foreground)
//Storyboard Sound Samples

[TimingPoints]
5,342.857142857143,4,2,10,50,1,0
5,-133.333333333333,4,2,10,50,0,0
3433,-100,4,2,10,50,0,0
10290,-58.8235294117647,4,1,99,50,0,0
10976,-100,4,2,10,25,0,0
11747,-100,4,2,10,5,0,0
11833,-100,4,2,10,25,0,0
12090,-100,4,2,10,5,0,0
12176,-100,4,2,10,25,0,0
12433,-100,4,2,10,5,0,0
12519,-100,4,2,10,25,0,0
12776,-100,4,2,10,5,0,0
12862,-100,4,2,10,30,0,0
20919,-50,4,2,10,25,0,0
21090,-50,4,1,99,75,0,0
21947,-200,4,3,10,50,0,0
28805,-200,4,1,99,50,0,0
29833,-66.6666666666667,4,1,99,99,0,0
30176,-200,4,2,10,50,0,0
30176,-200,4,2,10,15,0,0
31547,-100,4,3,99,50,0,0
32576,-200,4,2,0,50,0,0
32919,-50,4,3,99,75,0,0
33005,-50,4,1,99,75,0,0
36347,-40,4,1,99,75,0,0
37547,-40,4,1,99,75,0,0
38405,-25,4,3,99,75,0,0
38833,-50,4,1,99,75,0,0
40033,-40,4,1,99,75,0,0
40290,-50,4,1,99,75,0,0
41490,-133.333333333333,4,2,0,75,0,0
41833,-40,4,1,99,75,0,0
43033,-40,4,1,99,75,0,0
43890,-25,4,3,99,75,0,0
44319,-50,4,2,0,75,0,0
44576,-50,4,1,99,75,0,0
45262,-50,4,1,99,75,0,0
52119,-50,4,2,0,50,0,0
54862,-133.333333333333,4,2,0,50,0,0
56147,-133.333333333333,4,2,0,5,0,0
56233,-133.333333333333,4,2,0,50,0,0
57519,-133.333333333333,4,2,0,5,0,0
57605,-133.333333333333,4,2,0,50,0,0
58290,-133.333333333333,4,2,0,5,0,0
58412,270.27027027027,3,2,0,50,1,0
58613,-100,3,2,0,5,0,0
58679,263.157894736842,3,2,0,50,1,0
58880,-100,3,2,0,5,0,0
58942,246.913580246914,3,2,0,50,1,0
59125,-100,3,2,0,5,0,0
59188,250,3,2,0,50,1,0
59375,-100,3,2,0,5,0,0
59438,-100,3,2,0,50,0,0
59625,-100,3,2,0,5,0,0
59674,275.229357798165,3,2,0,50,1,0
59949,310.55900621118,4,2,0,50,1,0
60259,284.36018957346,4,2,0,50,1,0
60543,216.606498194946,4,2,0,50,1,0
60651,228.571428571429,4,2,0,50,1,0
60765,740.740740740741,4,2,0,50,1,0
61505,234.192037470726,4,2,0,50,1,0
61739,209.059233449477,4,2,0,50,1,0
61948,241.935483870968,4,2,0,50,1,0
62189,246.913580246914,4,2,0,50,1,0
62435,208.333333333333,4,2,0,50,1,0
62643,385.852090032154,4,2,0,50,1,0
62739,313.31592689295,4,1,99,20,1,0
63052,289.156626506024,4,2,0,50,1,0
64208,302.114803625378,4,2,0,50,1,0
65416,417.391304347826,4,2,0,50,1,0
65833,342.857142857143,4,2,0,50,1,0
65833,-100,4,1,99,50,0,0
73718,-66.6666666666667,4,1,99,50,0,0
76461,-66.6666666666667,4,1,98,50,0,0
90518,-58.8235294117647,4,1,98,50,0,0
98747,-58.8235294117647,4,2,0,25,0,0
106975,-133.333333333333,4,2,0,50,0,0

[Colours]
Combo1 : 255,255,255
Combo2 : 128,128,128
Combo3 : 255,255,255
Combo4 : 0,0,0
Combo5 : 255,0,0
Combo6 : 255,0,0

[HitObjects]
211,12,5,6,0,B|156:51|113:43|92:5|92:5|26:6|26:6|89:63|78:109|54:167|54:167|140:109|140:109|182:160|277:105|277:105|266:208|266:208|115:206,1,870.000033187867,12|0,0:0|0:0,0:0:0:0:
147,224,2576,1,0,0:0:0:0:
152,244,2662,1,0,0:0:0:0:
150,264,2747,1,0,0:0:0:0:
41,281,3433,2,8,P|62:278|125:295,1,80,10|8,0:0|0:0,0:0:0:0:
148,318,3690,1,8,0:0:0:0:
173,349,3776,1,8,0:0:0:0:
283,266,3947,1,8,0:0:0:0:
282,245,4033,1,8,0:0:0:0:
280,225,4119,1,8,0:0:0:0:
254,41,4462,5,8,0:0:0:0:
403,48,4805,2,8,P|415:101|411:135,1,80
398,163,5062,1,8,0:0:0:0:
375,195,5147,1,8,0:0:0:0:
103,83,5319,1,8,0:0:0:0:
103,83,5405,1,8,0:0:0:0:
103,83,5490,54,0,B|146:51|173:60|207:144|126:168|150:209|150:209|98:188|36:232|36:232|133:283|133:283|230:260|230:260|200:212|245:154|256:103|223:43|223:43|300:53,1,800,4|0,0:0|0:0,0:0:0:0:
384,67,7547,2,8,P|384:129|413:172,1,80
390,144,7805,1,8,0:0:0:0:
390,144,7890,1,8,0:0:0:0:
447,263,8062,1,8,0:0:0:0:
340,308,8233,5,8,0:0:0:0:
182,251,8405,1,0,0:0:0:0:
192,253,8490,1,0,0:0:0:0:
201,255,8576,1,0,0:0:0:0:
344,191,8747,1,0,0:0:0:0:
323,195,8832,1,0,0:0:0:0:
305,199,8918,1,0,0:0:0:0:
140,118,9090,1,0,0:0:0:0:
178,125,9175,1,0,0:0:0:0:
210,132,9261,1,0,0:0:0:0:
390,41,9433,1,0,0:0:0:0:
338,50,9518,1,0,0:0:0:0:
287,61,9604,1,0,0:0:0:0:
182,272,9776,1,0,0:0:0:0:
196,201,9862,1,0,0:0:0:0:
209,131,9947,1,0,0:0:0:0:
312,324,10119,37,0,0:0:0:0:
386,339,10205,1,0,0:0:0:0:
457,356,10290,2,0,P|401:333|376:333,1,68.0000012969971,8|0,0:0|0:0,0:0:0:0:
312,324,10462,1,2,0:0:0:0:
457,356,10633,2,0,P|401:333|376:333,1,68.0000012969971,8|0,0:0|0:0,0:0:0:0:
312,324,10805,2,0,L|269:324,3,34.0000006484985,2|0|0|0,0:0|0:0|0:0|0:0,0:0:0:0:
382,290,10976,37,2,0:0:0:0:
435,230,11147,1,0,0:0:0:0:
447,150,11319,1,2,0:0:0:0:
430,71,11490,2,0,P|451:23|534:6,1,120
332,80,11833,2,0,P|264:66|205:86,1,120
137,28,12176,2,0,P|123:96|143:155,1,120
217,116,12519,2,0,P|231:184|211:243,1,120
158,287,12862,1,0,0:0:0:0:
291,353,13033,1,0,0:0:0:0:
400,259,13205,1,0,0:0:0:0:
404,231,13291,1,0,0:0:0:0:
408,203,13376,1,0,0:0:0:0:
366,108,13547,1,0,0:0:0:0:
432,26,13719,5,2,0:0:0:0:
298,82,13890,1,0,0:0:0:0:
147,44,14062,1,2,0:0:0:0:
203,204,14233,2,0,P|219:152|214:121,1,80,0|2,0:0|0:0,0:0:0:0:
41,177,14576,2,0,P|25:229|30:260,1,80,0|2,0:0|0:0,0:0:0:0:
191,137,14919,2,0,P|139:121|108:126,1,80,0|2,0:0|0:0,0:0:0:0:
164,299,15262,2,0,P|216:315|247:310,1,80,0|2,0:0|0:0,0:0:0:0:
337,309,15605,1,0,0:0:0:0:
483,290,15776,1,2,0:0:0:0:
363,179,15947,1,0,0:0:0:0:
357,212,16033,1,0,0:0:0:0:
350,245,16119,1,2,0:0:0:0:
343,277,16205,1,0,0:0:0:0:
337,309,16290,1,0,0:0:0:0:
213,358,16462,53,2,0:0:0:0:
85,315,16633,1,0,0:0:0:0:
337,309,16805,1,2,0:0:0:0:
194,189,16976,2,0,L|175:285,1,80,0|2,0:0|0:0,0:0:0:0:
317,204,17319,2,0,L|298:108,1,80,0|2,0:0|0:0,0:0:0:0:
178,110,17662,2,2,L|197:206,1,80,0|0,0:0|0:0,0:0:0:0:
226,323,18005,5,0,0:0:0:0:
226,323,18090,1,0,0:0:0:0:
226,323,18176,1,2,0:0:0:0:
414,63,18347,1,0,0:0:0:0:
406,102,18433,1,0,0:0:0:0:
398,141,18519,1,2,0:0:0:0:
384,219,18690,1,0,0:0:0:0:
377,258,18776,1,0,0:0:0:0:
370,297,18862,1,2,0:0:0:0:
226,323,19033,1,0,0:0:0:0:
226,323,19119,1,0,0:0:0:0:
226,323,19205,1,8,0:0:0:0:
214,316,19376,5,8,0:0:0:0:
209,303,19547,53,2,0:0:0:0:
209,289,19719,21,8,0:0:0:0:
216,277,19891,53,8,0:0:0:0:
227,271,20062,21,8,0:0:0:0:
240,272,20234,53,10,0:0:0:0:
252,276,20405,5,8,0:0:0:0:
262,283,20577,5,8,0:0:0:0:
268,294,20747,53,8,0:0:0:0:
267,310,20919,21,0,0:0:0:0:
32,67,21090,22,0,L|150:90,1,80,2|0,0:0|0:0,0:0:0:0:
481,165,21261,1,8,0:0:0:0:
494,160,21433,2,0,L|376:183,1,80,2|0,0:0|0:0,0:0:0:0:
67,250,21604,1,8,0:0:0:0:
65,285,21690,1,0,0:0:0:0:
62,320,21776,2,0,L|62:367,3,40,2|0|0|0,0:0|0:0|0:0|0:0,0:0:0:0:
151,316,21947,21,10,0:0:0:0:
262,286,22119,1,0,0:0:0:0:
267,304,22205,1,0,0:0:0:0:
271,319,22290,1,8,0:0:0:0:
385,270,22462,1,0,0:0:0:0:
380,288,22548,1,0,0:0:0:0:
376,303,22633,1,8,0:0:0:0:
267,213,22805,5,0,0:0:0:0:
272,231,22891,1,0,0:0:0:0:
276,246,22976,1,8,0:0:0:0:
390,197,23147,1,0,0:0:0:0:
385,215,23234,1,0,0:0:0:0:
381,230,23319,1,8,0:0:0:0:
229,149,23490,5,0,0:0:0:0:
234,167,23576,1,0,0:0:0:0:
238,182,23661,1,8,0:0:0:0:
352,133,23833,1,0,0:0:0:0:
347,151,23919,1,0,0:0:0:0:
343,166,24004,1,8,0:0:0:0:
235,43,24176,53,0,0:0:0:0:
240,61,24262,1,0,0:0:0:0:
244,76,24347,1,8,0:0:0:0:
325,8,24519,1,0,0:0:0:0:
320,26,24605,1,0,0:0:0:0:
316,41,24690,1,8,0:0:0:0:
54,102,24862,21,0,0:0:0:0:
73,105,24947,1,0,0:0:0:0:
92,108,25033,1,8,0:0:0:0:
229,133,25205,1,0,0:0:0:0:
210,136,25290,1,0,0:0:0:0:
191,139,25376,1,8,0:0:0:0:
74,186,25547,53,0,0:0:0:0:
93,189,25632,1,0,0:0:0:0:
112,192,25718,1,8,0:0:0:0:
249,217,25890,1,0,0:0:0:0:
230,220,25975,1,0,0:0:0:0:
211,223,26061,1,8,0:0:0:0:
8,250,26233,21,0,0:0:0:0:
27,253,26318,1,0,0:0:0:0:
46,256,26404,1,8,0:0:0:0:
183,281,26576,1,0,0:0:0:0:
164,284,26661,1,0,0:0:0:0:
145,287,26747,1,8,0:0:0:0:
84,352,26919,53,0,0:0:0:0:
46,256,27005,1,0,0:0:0:0:
106,172,27090,1,8,0:0:0:0:
183,281,27262,1,0,0:0:0:0:
401,350,27433,1,0,0:0:0:0:
318,66,27605,1,0,0:0:0:0:
230,341,27776,1,0,0:0:0:0:
401,147,27947,1,0,0:0:0:0:
177,258,28119,1,0,0:0:0:0:
339,374,28290,1,0,0:0:0:0:
266,63,28462,1,0,0:0:0:0:
177,258,28633,1,0,0:0:0:0:
14,0,28805,37,2,0:0:0:0:
9,23,28890,1,2,0:0:0:0:
9,48,28976,1,2,0:0:0:0:
14,72,29062,1,2,0:0:0:0:
24,94,29147,1,2,0:0:0:0:
40,113,29233,1,2,0:0:0:0:
58,129,29319,1,2,0:0:0:0:
80,141,29405,1,2,0:0:0:0:
101,152,29490,1,2,0:0:0:0:
80,166,29576,1,2,0:0:0:0:
59,181,29662,1,2,0:0:0:0:
44,202,29747,1,2,0:0:0:0:
111,166,29833,21,8,0:0:0:0:
186,159,29919,1,8,0:0:0:0:
260,168,30005,1,8,0:0:0:0:
331,196,30090,1,8,0:0:0:0:
389,237,30176,5,2,0:0:0:0:
361,169,30347,1,2,0:0:0:0:
395,188,30519,1,2,0:0:0:0:
361,169,30690,1,2,0:0:0:0:
354,209,30862,1,2,0:0:0:0:
361,169,31033,1,2,0:0:0:0:
395,188,31205,1,2,0:0:0:0:
361,169,31376,1,2,0:0:0:0:
337,349,31547,53,2,0:0:0:0:
293,329,31633,1,0,0:0:0:0:
246,316,31719,1,0,0:0:0:0:
198,311,31805,1,0,0:0:0:0:
110,347,31890,5,2,0:0:0:0:
64,329,31976,1,0,0:0:0:0:
27,298,32061,1,0,0:0:0:0:
0,257,32147,1,0,0:0:0:0:
45,118,32233,69,2,0:0:0:0:
102,190,32318,1,0,0:0:0:0:
193,221,32404,1,0,0:0:0:0:
286,213,32490,1,0,0:0:0:0:
371,183,32576,22,0,P|382:224|380:240,1,60,2|0,0:0|0:0,0:0:0:0:
102,190,32919,54,0,B|223:162|223:162|155:140|84:145|46:122,1,240,14|0,0:0|0:0,0:0:0:0:
26,148,33262,1,0,0:0:0:0:
26,156,33347,1,0,0:0:0:0:
80,232,33433,1,0,0:0:0:0:
81,240,33519,1,0,0:0:0:0:
156,313,33605,6,0,P|200:313|151:310,1,240,8|0,0:0|0:0,0:0:0:0:
72,334,33947,1,0,0:0:0:0:
156,313,34033,1,0,0:0:0:0:
244,333,34119,1,0,0:0:0:0:
333,344,34205,1,0,0:0:0:0:
416,311,34290,70,0,P|424:235|372:155,1,160,2|0,0:0|0:0,0:0:0:0:
225,33,34547,2,0,P|217:109|269:189,1,160,2|0,0:0|0:0,0:0:0:0:
333,344,34805,2,0,P|273:329|236:331,1,80,2|0,0:0|0:0,0:0:0:0:
35,340,34976,1,8,0:0:0:0:
52,193,35147,5,0,0:0:0:0:
55,187,35233,1,0,0:0:0:0:
128,135,35319,1,0,0:0:0:0:
125,128,35405,1,0,0:0:0:0:
45,103,35490,1,0,0:0:0:0:
48,96,35576,1,0,0:0:0:0:
95,18,35662,70,0,B|104:48|96:72|96:72|128:64|160:72|160:72|144:48|160:16|160:16|128:24|96:16,1,240,2|0,0:0|0:0,0:0:0:0:
125,128,36005,2,0,P|89:122|40:130,1,80
240,215,36176,2,0,P|276:221|325:213,1,80
128,321,36347,6,0,B|89:284|83:223|83:223|184:298|263:296,1,300,8|0,0:0|0:0,0:0:0:0:
378,295,36690,1,0,0:0:0:0:
474,273,36776,1,0,0:0:0:0:
306,245,36862,1,0,0:0:0:0:
225,211,36948,1,0,0:0:0:0:
320,138,37033,70,0,P|331:75|330:152,1,300,2|0,0:0|0:0,0:0:0:0:
320,138,37376,1,0,0:0:0:0:
176,48,37547,1,2,0:0:0:0:
256,192,37633,1,2,0:0:0:0:
240,344,37719,1,8,0:0:0:0:
336,48,37890,1,2,0:0:0:0:
256,192,37976,1,2,0:0:0:0:
272,344,38062,1,8,0:0:0:0:
256,192,38233,6,2,L|256:120,3,50
113,162,38405,70,0,P|205:311|182:49,1,640,6|0,0:0|0:0,0:0:0:0:
322,121,38833,5,0,0:0:0:0:
296,197,38919,1,0,0:0:0:0:
233,247,39005,1,0,0:0:0:0:
156,265,39090,2,0,P|270:218|386:267,1,240,8|0,0:0|0:0,0:0:0:0:
446,338,39433,2,0,P|388:334|336:353,1,80
77,264,39605,2,0,P|135:260|187:279,1,80
314,84,39776,70,0,L|295:265,1,160,2|0,0:0|0:0,0:0:0:0:
320,44,40033,2,0,L|294:269,1,200,2|0,0:0|0:0,0:0:0:0:
328,3,40290,2,0,L|301:222,1,160,2|8,0:0|0:0,0:0:0:0:
195,347,40633,5,0,0:0:0:0:
176,342,40719,1,0,0:0:0:0:
146,252,40805,1,0,0:0:0:0:
127,257,40891,1,0,0:0:0:0:
63,334,40976,1,0,0:0:0:0:
82,343,41062,1,0,0:0:0:0:
127,257,41147,70,0,P|127:170|252:100,1,240,2|0,0:0|0:0,0:0:0:0:
231,247,41490,5,0,0:0:0:0:
228,232,41576,1,0,0:0:0:0:
225,217,41662,1,0,0:0:0:0:
222,202,41747,1,0,0:0:0:0:
218,187,41833,2,0,B|226:259|226:259|266:323|266:323|255:386,1,200,8|0,0:0|0:0,0:0:0:0:
379,49,42176,1,0,0:0:0:0:
379,57,42262,1,0,0:0:0:0:
443,120,42347,1,0,0:0:0:0:
443,128,42433,1,0,0:0:0:0:
347,155,42519,70,0,P|316:228|329:134,1,300,2|2,0:0|0:0,0:0:0:0:
347,155,42862,1,0,0:0:0:0:
426,72,43033,5,2,0:0:0:0:
256,192,43119,1,2,0:0:0:0:
45,233,43205,1,8,0:0:0:0:
85,72,43376,1,2,0:0:0:0:
256,192,43462,1,2,0:0:0:0:
466,233,43548,1,8,0:0:0:0:
256,192,43719,70,2,L|256:120,3,50
398,221,43890,6,0,P|306:72|329:334,1,640,6|0,0:0|0:0,0:0:0:0:
279,309,44319,70,0,P|332:294|375:305,2,80
135,115,44576,6,0,B|120:191|120:191|141:259|141:259|113:350,1,240,8|0,0:0|0:0,0:0:0:0:
48,288,44919,1,0,0:0:0:0:
48,275,45005,1,0,0:0:0:0:
116,210,45090,1,0,0:0:0:0:
116,197,45176,1,0,0:0:0:0:
147,92,45262,2,0,P|208:184|328:208,1,160,2|0,0:0|0:0,0:0:0:0:
459,291,45519,2,0,P|398:199|287:167,1,160,2|0,0:0|0:0,0:0:0:0:
356,16,45776,2,0,L|356:213,1,160,2|8,0:0|0:0,0:0:0:0:
258,343,46119,69,0,0:0:0:0:
233,335,46205,1,0,0:0:0:0:
311,342,46290,1,0,0:0:0:0:
390,329,46376,1,0,0:0:0:0:
456,283,46462,1,0,0:0:0:0:
492,212,46547,1,0,0:0:0:0:
508,133,46633,6,0,P|394:167|271:116,1,240,2|0,0:0|0:0,0:0:0:0:
223,16,46976,2,0,P|207:69|213:110,1,80
200,332,47147,2,2,P|184:279|190:238,1,80,2|0,0:0|0:0,0:0:0:0:
219,29,47319,2,0,P|172:142|193:273,1,240,8|0,0:0|0:0,0:0:0:0:
202,330,47662,1,0,0:0:0:0:
261,277,47747,1,0,0:0:0:0:
339,261,47833,1,0,0:0:0:0:
418,270,47919,1,0,0:0:0:0:
494,295,48005,70,0,P|416:344|346:346,1,160,2|0,0:0|0:0,0:0:0:0:
202,330,48262,2,0,P|243:317|298:321,2,80,2|0|0,0:0|0:0|0:0,0:0:0:0:
359,58,48519,5,2,0:0:0:0:
353,138,48605,1,2,0:0:0:0:
349,218,48690,2,0,L|352:134,1,80,8|0,0:0|0:0,0:0:0:0:
215,91,48862,69,0,0:0:0:0:
209,171,48948,1,2,0:0:0:0:
211,250,49033,2,0,L|208:164,1,80,8|0,0:0|0:0,0:0:0:0:
296,332,49205,6,2,P|322:334|344:343,3,40
206,252,49376,70,0,P|310:224|409:311,1,240,4|0,0:0|0:0,0:0:0:0:
296,333,49719,1,0,0:0:0:0:
286,253,49805,1,0,0:0:0:0:
306,176,49890,1,0,0:0:0:0:
359,115,49976,1,0,0:0:0:0:
436,94,50062,2,0,P|408:179|264:216,1,240,8|0,0:0|0:0,0:0:0:0:
23,247,50405,2,0,P|64:270|117:267,1,80
369,357,50576,2,0,P|328:334|275:337,1,80
217,98,50747,5,2,0:0:0:0:
218,105,50833,1,0,0:0:0:0:
218,109,50919,1,0,0:0:0:0:
176,159,51005,1,2,0:0:0:0:
175,166,51091,1,0,0:0:0:0:
175,170,51177,1,0,0:0:0:0:
141,225,51262,1,2,0:0:0:0:
141,225,51347,1,0,0:0:0:0:
141,225,51433,70,0,P|240:199|304:222,1,160,8|2,0:0|0:0,0:0:0:0:
402,289,51690,2,0,P|356:298|306:292,1,80,2|8,0:0|0:0,0:0:0:0:
208,305,51862,5,2,0:0:0:0:
168,309,51947,2,2,L|107:317,3,40
256,192,52119,12,0,54176,0:0:0:0:
130,88,54347,5,2,0:0:0:0:
110,165,54433,1,2,0:0:0:0:
149,235,54519,1,10,0:0:0:0:
217,318,54862,6,0,P|306:279|141:242,1,450.000017166138
250,225,56233,6,0,P|161:186|326:149,1,450.000017166138
233,133,57605,54,0,P|212:191|327:311,1,240.000009155274
310,215,58412,2,0,P|411:179|439:181,1,120,2|0,0:0|0:0,0:0:0:0:
512,232,58679,2,0,P|411:268|383:266,1,120,2|0,0:0|0:0,0:0:0:0:
310,215,58942,2,0,L|304:351,1,120,2|0,0:0|0:0,0:0:0:0:
186,347,59188,2,0,P|117:321|37:338,1,120,2|0,0:0|0:0,0:0:0:0:
113,191,59438,2,0,P|182:217|262:200,1,120,2|0,0:0|0:0,0:0:0:0:
317,147,59674,2,2,L|296:309,1,160,0|0,0:0|0:0,0:0:0:0:
115,190,60259,2,0,P|157:119|232:89,1,160,2|0,0:0|0:0,0:0:0:0:
225,89,60651,1,2,0:0:0:0:
225,89,60765,1,2,0:0:0:0:
337,276,61505,6,0,P|229:278|184:318,1,160,2|0,0:0|0:0,0:0:0:0:
167,331,61843,1,0,0:0:0:0:
137,353,61948,2,0,L|129:187,1,160,2|0,0:0|0:0,0:0:0:0:
228,61,62435,2,0,L|236:236,1,160,2|0,0:0|0:0,0:0:0:0:
235,220,62739,1,4,0:0:0:0:
88,125,64064,53,0,0:0:0:0:
88,125,64114,1,0,0:0:0:0:
88,125,64164,1,0,0:0:0:0:
225,182,65416,6,0,P|218:235|160:286,1,120
135,308,65833,5,2,0:0:0:0:
363,212,66004,5,0,0:0:0:0:
342,213,66090,1,0,0:0:0:0:
322,214,66175,1,2,0:0:0:0:
121,162,66347,5,0,0:0:0:0:
141,164,66433,1,0,0:0:0:0:
161,165,66518,1,2,0:0:0:0:
357,230,66690,37,0,0:0:0:0:
337,227,66776,1,0,0:0:0:0:
317,225,66861,1,2,0:0:0:0:
128,139,67033,5,0,0:0:0:0:
147,144,67119,1,0,0:0:0:0:
167,148,67204,1,2,0:0:0:0:
349,247,67375,5,0,0:0:0:0:
329,241,67461,1,0,0:0:0:0:
310,235,67546,1,2,0:0:0:0:
139,117,67718,5,0,0:0:0:0:
157,126,67804,1,0,0:0:0:0:
175,134,67889,1,2,0:0:0:0:
338,262,68061,37,0,0:0:0:0:
319,253,68147,1,0,0:0:0:0:
302,244,68232,1,2,0:0:0:0:
133,80,68404,5,0,0:0:0:0:
153,94,68490,1,0,0:0:0:0:
173,107,68575,1,2,0:0:0:0:
338,292,68747,5,0,0:0:0:0:
318,277,68833,1,0,0:0:0:0:
299,263,68918,1,2,0:0:0:0:
155,60,69090,5,0,0:0:0:0:
172,77,69176,1,0,0:0:0:0:
189,94,69261,1,2,0:0:0:0:
320,305,69433,37,0,0:0:0:0:
302,287,69519,1,0,0:0:0:0:
286,269,69604,1,2,0:0:0:0:
170,27,69776,5,0,0:0:0:0:
185,49,69862,1,0,0:0:0:0:
201,71,69947,1,2,0:0:0:0:
304,329,70118,5,0,0:0:0:0:
289,306,70204,1,0,0:0:0:0:
274,283,70289,1,2,0:0:0:0:
206,33,70461,5,0,0:0:0:0:
216,55,70547,1,0,0:0:0:0:
227,77,70632,1,2,0:0:0:0:
280,342,70804,37,0,0:0:0:0:
269,315,70890,1,0,0:0:0:0:
258,289,70975,1,2,0:0:0:0:
230,0,71147,5,0,0:0:0:0:
237,27,71233,1,0,0:0:0:0:
246,54,71318,1,2,0:0:0:0:
184,360,71490,5,2,0:0:0:0:
286,102,71661,1,2,0:0:0:0:
171,313,71833,1,2,0:0:0:0:
332,140,72004,1,2,0:0:0:0:
174,252,72175,1,2,0:0:0:0:
337,197,72347,5,2,0:0:0:0:
203,211,72518,1,2,0:0:0:0:
148,46,72690,1,2,0:0:0:0:
137,84,72775,1,2,0:0:0:0:
126,122,72861,1,2,0:0:0:0:
115,160,72947,1,2,0:0:0:0:
104,198,73033,1,2,0:0:0:0:
93,236,73118,1,2,0:0:0:0:
83,274,73204,1,2,0:0:0:0:
73,312,73290,1,2,0:0:0:0:
109,297,73375,5,2,0:0:0:0:
148,289,73461,1,2,0:0:0:0:
188,291,73547,1,2,0:0:0:0:
227,299,73633,1,2,0:0:0:0:
257,230,73718,5,8,0:0:0:0:
297,161,73804,1,8,0:0:0:0:
360,111,73890,1,8,0:0:0:0:
433,83,73975,1,8,0:0:0:0:
512,68,74061,1,8,0:0:0:0:
256,192,74147,12,0,75261,0:0:0:0:
82,48,75433,5,0,0:0:0:0:
79,59,75518,1,0,0:0:0:0:
80,70,75604,1,0,0:0:0:0:
82,76,75690,1,0,0:0:0:0:
153,140,75775,5,0,0:0:0:0:
156,151,75860,1,0,0:0:0:0:
155,162,75946,1,0,0:0:0:0:
153,168,76032,1,0,0:0:0:0:
43,228,76118,5,0,0:0:0:0:
106,308,76204,1,0,0:0:0:0:
191,281,76290,1,0,0:0:0:0:
275,303,76375,1,0,0:0:0:0:
365,343,76461,6,0,P|359:213|316:170,1,180.000006866455,14|0,0:0|0:0,0:0:0:0:
253,56,76804,5,4,0:0:0:0:
106,308,76975,1,0,0:0:0:0:
24,151,77147,1,8,0:0:0:0:
414,25,77318,5,0,0:0:0:0:
405,84,77404,1,0,0:0:0:0:
397,143,77490,1,0,0:0:0:0:
389,201,77575,1,0,0:0:0:0:
381,260,77661,1,2,0:0:0:0:
373,319,77747,1,0,0:0:0:0:
366,378,77833,1,12,0:0:0:0:
485,174,78004,1,4,0:0:0:0:
262,244,78175,5,6,0:0:0:0:
331,47,78347,1,0,0:0:0:0:
60,159,78518,1,8,0:0:0:0:
214,362,78690,5,0,0:0:0:0:
218,302,78775,1,0,0:0:0:0:
223,242,78861,1,4,0:0:0:0:
228,182,78947,1,0,0:0:0:0:
233,122,79033,1,2,0:0:0:0:
238,62,79118,1,0,0:0:0:0:
243,2,79204,1,8,0:0:0:0:
460,138,79375,6,0,L|366:143,1,60.0000022888184
232,146,79547,1,4,0:0:0:0:
115,360,79718,1,0,0:0:0:0:
1,203,79890,1,8,0:0:0:0:
230,146,80061,6,0,P|235:188|229:217,1,60.0000022888184,4|0,0:0|0:0,0:0:0:0:
395,50,80233,2,0,P|400:92|394:121,1,60.0000022888184
161,0,80404,2,0,P|156:42|162:71,1,60.0000022888184
192,185,80575,1,12,0:0:0:0:
245,329,80747,5,0,0:0:0:0:
296,323,80833,1,0,0:0:0:0:
345,318,80918,1,0,0:0:0:0:
480,232,81090,1,0,0:0:0:0:
350,20,81261,1,8,0:0:0:0:
125,132,81433,5,0,0:0:0:0:
184,136,81518,1,0,0:0:0:0:
243,141,81604,1,4,0:0:0:0:
302,146,81690,1,0,0:0:0:0:
361,150,81775,1,6,0:0:0:0:
379,268,81947,2,0,P|352:298|327:313,1,60.0000022888184,12|0,0:0|0:0,0:0:0:0:
62,299,82118,2,0,P|89:269|114:254,1,60.0000022888184,4|0,0:0|0:0,0:0:0:0:
243,141,82290,5,6,0:0:0:0:
138,103,82461,1,0,0:0:0:0:
40,67,82633,1,8,0:0:0:0:
166,348,82804,5,0,0:0:0:0:
181,289,82890,1,0,0:0:0:0:
196,231,82975,1,0,0:0:0:0:
212,172,83061,1,0,0:0:0:0:
228,113,83147,1,2,0:0:0:0:
467,154,83318,2,0,P|467:233|450:260,1,60.0000022888184,12|0,0:0|0:0,0:0:0:0:
428,343,83490,1,6,0:0:0:0:
181,289,83661,5,6,0:0:0:0:
468,157,83833,1,0,0:0:0:0:
221,110,84004,1,8,0:0:0:0:
38,192,84175,5,4,0:0:0:0:
97,198,84261,1,0,0:0:0:0:
156,204,84347,1,0,0:0:0:0:
215,210,84433,1,0,0:0:0:0:
274,216,84518,1,0,0:0:0:0:
333,222,84604,1,0,0:0:0:0:
392,228,84690,1,12,0:0:0:0:
248,20,84861,5,0,0:0:0:0:
248,20,84947,1,0,0:0:0:0:
248,20,85033,6,0,P|210:42|169:45,1,60.0000022888184,12|0,0:0|0:0,0:0:0:0:
70,45,85204,1,0,0:0:0:0:
70,45,85290,1,0,0:0:0:0:
70,45,85375,1,0,0:0:0:0:
242,98,85547,2,0,P|198:101|159:87,1,60.0000022888184,12|0,0:0|0:0,0:0:0:0:
70,45,85718,1,0,0:0:0:0:
70,45,85804,1,0,0:0:0:0:
70,45,85889,1,0,0:0:0:0:
89,227,86061,6,0,P|115:262|146:277,1,60.0000022888184,12|0,0:0|0:0,0:0:0:0:
199,353,86233,2,0,P|240:340|274:345,1,60.0000022888184,0|0,0:3|0:3,0:3:0:0:
353,325,86404,5,0,0:0:0:0:
474,222,86575,1,8,0:0:0:0:
89,226,86747,1,0,0:0:0:0:
210,11,86918,5,0,0:0:0:0:
226,68,87004,1,0,0:0:0:0:
242,125,87090,1,14,0:0:0:0:
258,182,87175,1,0,0:0:0:0:
274,239,87261,1,12,0:0:0:0:
393,324,87433,6,0,L|401:264,1,60.0000022888184,14|0,0:0|0:0,0:0:0:0:
96,253,87604,6,0,L|104:313,1,60.0000022888184,12|0,0:0|0:0,0:0:0:0:
274,239,87775,1,14,0:0:0:0:
226,68,87947,1,0,0:0:0:0:
94,254,88118,1,8,0:0:0:0:
394,141,88290,5,0,0:0:0:0:
427,190,88375,1,0,0:0:0:0:
437,249,88461,1,0,0:0:0:0:
413,304,88547,1,0,0:0:0:0:
369,345,88633,1,2,0:0:0:0:
111,137,88804,6,0,P|91:214|94:257,1,120.000004577637,8|4,0:0|0:0,0:0:0:0:
101,283,89061,1,2,0:0:0:0:
127,318,89147,1,4,0:0:0:0:
369,345,89318,1,2,0:0:0:0:
486,214,89490,1,8,0:0:0:0:
188,47,89661,5,6,0:0:0:0:
197,106,89747,1,0,0:0:0:0:
206,165,89833,1,0,0:0:0:0:
215,222,89918,1,0,0:0:0:0:
225,282,90004,2,0,L|237:353,1,60.0000022888184,2|0,0:0|0:0,0:0:0:0:
410,284,90175,2,0,P|411:224|356:153,1,120.000004577637,12|0,0:0|0:0,0:0:0:0:
289,37,90518,1,4,0:0:0:0:
144,340,90690,1,2,0:0:0:0:
31,95,90861,1,8,0:0:0:0:
293,159,91033,5,2,0:0:0:0:
316,215,91118,1,2,0:0:0:0:
307,275,91204,1,2,0:0:0:0:
266,321,91290,1,0,0:0:0:0:
207,336,91375,1,8,0:0:0:0:
228,215,91547,6,4,P|316:239|350:297,1,136.000002593994,8|4,0:0|0:0,0:0:0:0:
389,309,91804,1,4,0:0:0:0:
447,328,91890,1,4,0:0:0:0:
357,177,92061,1,2,0:0:0:0:
482,8,92233,1,0,0:0:0:0:
476,222,92404,5,4,0:0:0:0:
409,208,92490,1,0,0:0:0:0:
342,215,92575,1,0,0:0:0:0:
276,233,92661,1,0,0:0:0:0:
207,231,92747,1,0,0:0:0:0:
139,220,92833,1,0,0:0:0:0:
77,191,92918,2,0,B|64:275|64:275|81:337,1,136.000002593994,12|0,0:0|0:0,0:0:0:0:
209,358,93261,5,0,0:0:0:0:
261,194,93433,1,0,0:0:0:0:
137,22,93604,1,0,0:0:0:0:
119,201,93775,1,6,0:0:0:0:
179,170,93861,1,0,0:0:0:0:
247,169,93947,1,2,0:0:0:0:
313,182,94033,1,0,0:0:0:0:
379,191,94118,1,0,0:0:0:0:
480,49,94290,6,0,B|499:124|499:124|475:216,1,136.000002593994,12|0,0:0|0:0,0:0:0:0:
388,348,94633,5,0,0:0:0:0:
263,41,94804,1,0,0:0:0:0:
168,342,94975,1,0,0:0:0:0:
345,195,95147,5,8,0:0:0:0:
279,176,95233,1,8,0:0:0:0:
214,194,95318,1,8,0:0:0:0:
145,198,95404,1,8,0:0:0:0:
80,176,95490,1,8,0:0:0:0:
121,46,95661,6,0,B|142:125|142:125|119:217,1,136.000002593994
104,241,95918,1,8,0:0:0:0:
106,309,96004,5,10,0:0:0:0:
157,353,96090,1,8,0:0:0:0:
224,350,96175,1,8,0:0:0:0:
251,287,96261,1,8,0:0:0:0:
201,239,96347,1,10,0:0:0:0:
145,199,96433,1,8,0:0:0:0:
143,131,96518,1,8,0:0:0:0:
183,76,96604,1,8,0:0:0:0:
250,82,96690,5,10,0:0:0:0:
299,128,96775,1,8,0:0:0:0:
299,196,96861,1,8,0:0:0:0:
247,241,96947,1,8,0:0:0:0:
180,253,97033,1,14,0:0:0:0:
125,212,97118,1,8,0:0:0:0:
129,143,97204,1,12,0:0:0:0:
126,74,97290,1,8,0:0:0:0:
60,57,97375,5,14,0:0:0:0:
10,103,97461,1,8,0:0:0:0:
13,171,97547,1,8,0:0:0:0:
78,191,97633,1,8,0:0:0:0:
144,178,97718,1,10,0:0:0:0:
209,158,97804,1,8,0:0:0:0:
276,168,97890,1,8,0:0:0:0:
341,185,97975,1,8,0:0:0:0:
375,244,98061,5,10,0:0:0:0:
369,312,98147,1,8,0:0:0:0:
324,363,98233,6,0,L|210:354,1,68.0000012969971
21,272,98404,2,0,L|135:281,1,68.0000012969971
218,288,98575,5,4,0:0:0:0:
318,267,98661,1,4,0:0:0:0:
401,207,98747,5,4,0:0:0:0:
381,144,98918,1,0,0:0:0:0:
444,199,99090,1,0,0:0:0:0:
344,176,99261,1,0,0:0:0:0:
463,151,99433,1,0,0:0:0:0:
356,227,99604,1,0,0:0:0:0:
452,112,99775,1,0,0:0:0:0:
391,253,99947,1,0,0:0:0:0:
424,74,100118,1,0,0:0:0:0:
443,255,100290,1,0,0:0:0:0:
372,78,100461,1,0,0:0:0:0:
487,227,100633,1,0,0:0:0:0:
328,122,100804,1,0,0:0:0:0:
506,164,100975,1,0,0:0:0:0:
301,182,101147,1,0,0:0:0:0:
429,171,101318,5,2,0:0:0:0:
374,188,101404,1,2,0:0:0:0:
429,197,101490,1,2,0:0:0:0:
301,182,101661,5,0,0:0:0:0:
282,233,101833,1,0,0:0:0:0:
336,174,102004,1,0,0:0:0:0:
243,236,102175,1,0,0:0:0:0:
374,177,102347,1,0,0:0:0:0:
214,203,102518,1,0,0:0:0:0:
383,215,102690,1,0,0:0:0:0:
216,168,102861,5,0,0:0:0:0:
384,267,103033,1,0,0:0:0:0:
233,132,103204,1,0,0:0:0:0:
372,310,103375,1,0,0:0:0:0:
262,96,103547,1,0,0:0:0:0:
357,353,103718,1,0,0:0:0:0:
294,54,103890,1,0,0:0:0:0:
319,366,104061,1,0,0:0:0:0:
329,26,104233,5,4,0:0:0:0:
335,131,104404,1,0,0:0:0:0:
358,6,104575,1,0,0:0:0:0:
296,134,104747,1,0,0:0:0:0:
413,10,104918,1,0,0:0:0:0:
236,116,105090,1,0,0:0:0:0:
450,45,105261,5,0,0:0:0:0:
211,69,105433,1,0,0:0:0:0:
449,96,105604,1,0,0:0:0:0:
216,28,105775,1,0,0:0:0:0:
438,139,105947,1,0,0:0:0:0:
242,7,106118,1,0,0:0:0:0:
413,174,106290,1,0,0:0:0:0:
281,6,106461,1,0,0:0:0:0:
373,225,106633,1,0,0:0:0:0:
320,3,106804,1,0,0:0:0:0:
243,170,106975,6,2,B|201:175|201:175|164:171|164:171|129:177,2,90.0000034332277
321,134,107661,2,2,B|325:179|325:179|303:261,1,120.000004577637
256,192,108175,12,0,109718,0:0:0:0:
