osu file format v14

[General]
AudioFilename: [BOFU2015] Street - Sakura Fubuki [BGA].mp3
AudioLeadIn: 0
PreviewTime: -1
Countdown: 0
SampleSet: None
StackLeniency: 0.7
Mode: 3
LetterboxInBreaks: 1
SpecialStyle: 0
WidescreenStoryboard: 0

[Editor]
DistanceSpacing: 0.9
BeatDivisor: 4
GridSize: 32
TimelineZoom: 1

[Metadata]
Title:Sakura Fubuki
TitleUnicode:Sakura Fubuki
Artist:Street
ArtistUnicode:Street
Creator:xXAmaggardXx
Version:Hard
Source:
Tags:
BeatmapID:875388
BeatmapSetID:402526

[Difficulty]
HPDrainRate:7
CircleSize:4
OverallDifficulty:8
ApproachRate:5
SliderMultiplier:1.4
SliderTickRate:1

[Events]
//Background and Video events
0,0,"8.png",0,0
//Break Periods
//Storyboard Layer 0 (Background)
//Storyboard Layer 1 (Fail)
//Storyboard Layer 2 (Pass)
//Storyboard Layer 3 (Foreground)
//Storyboard Sound Samples

[TimingPoints]
210,342.857142857143,4,1,0,100,1,0
11250,342.857142857143,4,1,0,100,1,0
68855,-100,4,1,0,100,0,1
90800,-100,4,1,0,100,0,0

[HitObjects]
64,192,210,5,0,0:0:0:0:
448,192,210,1,0,0:0:0:0:
192,192,210,128,0,2095:0:0:0:0:
320,192,2352,1,0,0:0:0:0:
64,192,2352,1,0,0:0:0:0:
448,192,2352,128,0,2695:0:0:0:0:
64,192,2867,128,0,5352:0:0:0:0:
192,192,2867,1,0,0:0:0:0:
192,192,5695,1,0,0:0:0:0:
320,192,5695,128,0,7410:0:0:0:0:
320,192,7752,1,0,0:0:0:0:
448,192,7752,128,0,8010:0:0:0:0:
192,192,7752,1,0,0:0:0:0:
320,192,8267,1,0,0:0:0:0:
64,192,8267,128,0,10838:0:0:0:0:
192,192,11181,128,0,13307:0:0:0:0:
448,192,11181,128,0,15192:0:0:0:0:
320,192,13307,128,0,13821:0:0:0:0:
64,192,13821,128,0,15192:0:0:0:0:
320,192,15192,128,0,15878:0:0:0:0:
448,192,16221,1,0,0:0:0:0:
320,192,16221,1,0,0:0:0:0:
320,192,16392,1,0,0:0:0:0:
192,192,16392,1,0,0:0:0:0:
192,192,16564,1,0,0:0:0:0:
64,192,16564,1,0,0:0:0:0:
64,192,16735,1,0,0:0:0:0:
320,192,16735,1,0,0:0:0:0:
448,192,16735,1,0,0:0:0:0:
64,192,17078,1,0,0:0:0:0:
192,192,17078,1,0,0:0:0:0:
448,192,17078,1,0,0:0:0:0:
448,192,17421,1,0,0:0:0:0:
320,192,17421,1,0,0:0:0:0:
64,192,17421,1,0,0:0:0:0:
64,192,17764,1,0,0:0:0:0:
192,192,17764,1,0,0:0:0:0:
448,192,17764,1,0,0:0:0:0:
192,192,18107,1,0,0:0:0:0:
64,192,18278,1,0,0:0:0:0:
192,192,18450,1,0,0:0:0:0:
320,192,18621,1,0,0:0:0:0:
448,192,18792,1,0,0:0:0:0:
320,192,18964,1,0,0:0:0:0:
192,192,19135,1,0,0:0:0:0:
320,192,19307,1,0,0:0:0:0:
448,192,19478,1,0,0:0:0:0:
320,192,19564,1,0,0:0:0:0:
192,192,19650,1,0,0:0:0:0:
64,192,19735,1,0,0:0:0:0:
320,192,19821,1,0,0:0:0:0:
192,192,19907,1,0,0:0:0:0:
320,192,19992,1,0,0:0:0:0:
192,192,20078,1,0,0:0:0:0:
64,192,20164,1,0,0:0:0:0:
192,192,20250,1,0,0:0:0:0:
320,192,20335,1,0,0:0:0:0:
448,192,20421,1,0,0:0:0:0:
320,192,20507,1,0,0:0:0:0:
192,192,20592,1,0,0:0:0:0:
320,192,20678,1,0,0:0:0:0:
192,192,20764,1,0,0:0:0:0:
64,192,20850,1,0,0:0:0:0:
192,192,20935,1,0,0:0:0:0:
64,192,21021,1,0,0:0:0:0:
192,192,21107,1,0,0:0:0:0:
320,192,21192,1,0,0:0:0:0:
192,192,21278,1,0,0:0:0:0:
320,192,21364,1,0,0:0:0:0:
192,192,21450,1,0,0:0:0:0:
64,192,21535,1,0,0:0:0:0:
192,192,21621,1,0,0:0:0:0:
64,192,21707,1,0,0:0:0:0:
192,192,21792,1,0,0:0:0:0:
320,192,21878,1,0,0:0:0:0:
64,192,21964,1,0,0:0:0:0:
192,192,22007,1,0,0:0:0:0:
320,192,22050,1,0,0:0:0:0:
448,192,22092,1,0,0:0:0:0:
320,192,22135,1,0,0:0:0:0:
192,192,22178,1,0,0:0:0:0:
64,192,22221,1,0,0:0:0:0:
192,192,22221,1,0,0:0:0:0:
64,192,22392,1,0,0:0:0:0:
192,192,22392,1,0,0:0:0:0:
64,192,22735,1,0,0:0:0:0:
192,192,22735,1,0,0:0:0:0:
320,192,22735,1,0,0:0:0:0:
64,192,22907,1,0,0:0:0:0:
192,192,22907,1,0,0:0:0:0:
320,192,22907,1,0,0:0:0:0:
64,192,23250,1,0,0:0:0:0:
320,192,23250,1,0,0:0:0:0:
448,192,23250,1,0,0:0:0:0:
64,192,23421,1,0,0:0:0:0:
320,192,23421,1,0,0:0:0:0:
448,192,23421,1,0,0:0:0:0:
192,192,23764,1,0,0:0:0:0:
320,192,23764,1,0,0:0:0:0:
448,192,23764,1,0,0:0:0:0:
192,192,23935,1,0,0:0:0:0:
320,192,23935,1,0,0:0:0:0:
448,192,23935,1,0,0:0:0:0:
320,192,24278,1,0,0:0:0:0:
192,192,24450,1,0,0:0:0:0:
320,192,24535,1,0,0:0:0:0:
192,192,24621,1,0,0:0:0:0:
64,192,24792,128,0,25135:0:0:0:0:
64,192,25307,1,0,0:0:0:0:
192,192,25392,1,0,0:0:0:0:
64,192,25478,1,0,0:0:0:0:
192,192,25564,1,0,0:0:0:0:
320,192,25650,1,0,0:0:0:0:
448,192,25735,1,0,0:0:0:0:
320,192,25821,1,0,0:0:0:0:
448,192,25907,1,0,0:0:0:0:
320,192,25992,128,0,26250:0:0:0:0:
192,192,26335,1,0,0:0:0:0:
320,192,26421,1,0,0:0:0:0:
448,192,26507,1,0,0:0:0:0:
320,192,26592,1,0,0:0:0:0:
192,192,26678,1,0,0:0:0:0:
320,192,26764,1,0,0:0:0:0:
192,192,26850,1,0,0:0:0:0:
320,192,26935,1,0,0:0:0:0:
448,192,27021,128,0,27707:0:0:0:0:
320,192,27192,1,0,0:0:0:0:
192,192,27364,1,0,0:0:0:0:
64,192,27535,1,0,0:0:0:0:
64,192,27707,1,0,0:0:0:0:
192,192,27792,1,0,0:0:0:0:
320,192,27878,1,0,0:0:0:0:
448,192,27964,1,0,0:0:0:0:
64,192,28050,1,0,0:0:0:0:
192,192,28135,1,0,0:0:0:0:
320,192,28221,1,0,0:0:0:0:
448,192,28307,1,0,0:0:0:0:
320,192,28392,128,0,28564:0:0:0:0:
448,192,28735,1,0,0:0:0:0:
64,192,28735,1,0,0:0:0:0:
320,192,28821,1,0,0:0:0:0:
192,192,28821,1,0,0:0:0:0:
448,192,28907,1,0,0:0:0:0:
64,192,28907,1,0,0:0:0:0:
320,192,28992,1,0,0:0:0:0:
192,192,28992,1,0,0:0:0:0:
64,192,29078,128,0,29335:0:0:0:0:
448,192,29421,1,0,0:0:0:0:
320,192,29507,1,0,0:0:0:0:
192,192,29592,1,0,0:0:0:0:
64,192,29678,1,0,0:0:0:0:
192,192,29764,128,0,30107:0:0:0:0:
320,192,29764,1,0,0:0:0:0:
64,192,29850,1,0,0:0:0:0:
320,192,29935,1,0,0:0:0:0:
64,192,30021,1,0,0:0:0:0:
320,192,30278,128,0,30621:0:0:0:0:
64,192,30792,1,0,0:0:0:0:
192,192,30878,1,0,0:0:0:0:
448,192,30964,1,0,0:0:0:0:
320,192,31050,1,0,0:0:0:0:
64,192,31135,1,0,0:0:0:0:
192,192,31221,1,0,0:0:0:0:
448,192,31307,1,0,0:0:0:0:
320,192,31392,1,0,0:0:0:0:
320,192,31821,1,0,0:0:0:0:
192,192,31907,1,0,0:0:0:0:
448,192,31992,1,0,0:0:0:0:
64,192,32078,1,0,0:0:0:0:
320,192,32164,1,0,0:0:0:0:
192,192,32250,1,0,0:0:0:0:
64,192,32335,1,0,0:0:0:0:
64,192,32507,1,0,0:0:0:0:
192,192,32507,1,0,0:0:0:0:
64,192,32678,1,0,0:0:0:0:
320,192,32678,1,0,0:0:0:0:
448,192,32850,1,0,0:0:0:0:
320,192,32850,1,0,0:0:0:0:
64,192,33021,1,0,0:0:0:0:
192,192,33021,1,0,0:0:0:0:
448,192,33192,1,0,0:0:0:0:
320,192,33278,1,0,0:0:0:0:
320,192,33450,1,0,0:0:0:0:
192,192,33535,1,0,0:0:0:0:
192,192,33707,1,0,0:0:0:0:
64,192,33792,1,0,0:0:0:0:
448,192,34050,1,0,0:0:0:0:
64,192,34050,1,0,0:0:0:0:
320,192,34135,1,0,0:0:0:0:
192,192,34135,1,0,0:0:0:0:
448,192,34221,1,0,0:0:0:0:
64,192,34221,1,0,0:0:0:0:
64,192,34392,1,0,0:0:0:0:
320,192,34392,1,0,0:0:0:0:
448,192,34392,128,0,34907:0:0:0:0:
320,192,35078,1,0,0:0:0:0:
192,192,35078,1,0,0:0:0:0:
64,192,35078,1,0,0:0:0:0:
192,192,35421,1,0,0:0:0:0:
64,192,35421,1,0,0:0:0:0:
64,192,35764,128,0,36107:0:0:0:0:
448,192,35764,128,0,38335:0:0:0:0:
64,192,36450,1,0,0:0:0:0:
192,192,36450,1,0,0:0:0:0:
192,192,36621,1,0,0:0:0:0:
320,192,36792,1,0,0:0:0:0:
64,192,36792,1,0,0:0:0:0:
192,192,36964,1,0,0:0:0:0:
320,192,37135,1,0,0:0:0:0:
64,192,37307,1,0,0:0:0:0:
192,192,37307,1,0,0:0:0:0:
64,192,37478,1,0,0:0:0:0:
192,192,37650,1,0,0:0:0:0:
320,192,37821,1,0,0:0:0:0:
320,192,37992,1,0,0:0:0:0:
64,192,38164,1,0,0:0:0:0:
448,192,38507,1,0,0:0:0:0:
320,192,38592,1,0,0:0:0:0:
192,192,38678,128,0,39707:0:0:0:0:
320,192,38850,1,0,0:0:0:0:
320,192,39021,1,0,0:0:0:0:
448,192,39021,1,0,0:0:0:0:
320,192,39192,1,0,0:0:0:0:
320,192,39364,1,0,0:0:0:0:
448,192,39364,1,0,0:0:0:0:
320,192,39535,1,0,0:0:0:0:
320,192,39878,1,0,0:0:0:0:
192,192,39964,1,0,0:0:0:0:
64,192,40050,128,0,40907:0:0:0:0:
448,192,40221,1,0,0:0:0:0:
192,192,40221,1,0,0:0:0:0:
320,192,40392,1,0,0:0:0:0:
448,192,40564,1,0,0:0:0:0:
448,192,40735,1,0,0:0:0:0:
192,192,41078,1,0,0:0:0:0:
192,192,41250,128,0,42621:0:0:0:0:
448,192,41250,1,0,0:0:0:0:
64,192,41250,1,0,0:0:0:0:
320,192,41592,1,0,0:0:0:0:
448,192,41764,1,0,0:0:0:0:
320,192,41935,1,0,0:0:0:0:
320,192,42107,1,0,0:0:0:0:
448,192,42278,1,0,0:0:0:0:
320,192,42450,1,0,0:0:0:0:
192,192,42792,128,0,43478:0:0:0:0:
64,192,42792,1,0,0:0:0:0:
320,192,42964,1,0,0:0:0:0:
448,192,43135,1,0,0:0:0:0:
320,192,43307,1,0,0:0:0:0:
320,192,43478,128,0,44164:0:0:0:0:
64,192,43478,1,0,0:0:0:0:
192,192,43650,1,0,0:0:0:0:
448,192,43821,1,0,0:0:0:0:
192,192,43992,1,0,0:0:0:0:
448,192,44164,128,0,46221:0:0:0:0:
64,192,44164,1,0,0:0:0:0:
64,192,44507,1,0,0:0:0:0:
320,192,44507,1,0,0:0:0:0:
192,192,44850,1,0,0:0:0:0:
64,192,44850,1,0,0:0:0:0:
320,192,45192,1,0,0:0:0:0:
192,192,45192,1,0,0:0:0:0:
64,192,45364,1,0,0:0:0:0:
192,192,45450,1,0,0:0:0:0:
320,192,45535,1,0,0:0:0:0:
64,192,46392,1,0,0:0:0:0:
192,192,46478,1,0,0:0:0:0:
320,192,46564,1,0,0:0:0:0:
192,192,46650,1,0,0:0:0:0:
64,192,46735,1,0,0:0:0:0:
192,192,46821,1,0,0:0:0:0:
64,192,46907,128,0,47935:0:0:0:0:
320,192,46907,128,0,47935:0:0:0:0:
448,192,46907,128,0,47935:0:0:0:0:
192,192,48107,128,0,49307:0:0:0:0:
64,192,48107,128,0,49307:0:0:0:0:
448,192,48107,128,0,49307:0:0:0:0:
64,192,49478,128,0,50678:0:0:0:0:
192,192,49478,128,0,50678:0:0:0:0:
320,192,49478,128,0,50678:0:0:0:0:
192,192,50850,128,0,52050:0:0:0:0:
64,192,50850,128,0,52050:0:0:0:0:
448,192,52221,1,0,0:0:0:0:
320,192,52307,1,0,0:0:0:0:
192,192,52392,128,0,53421:0:0:0:0:
64,192,52392,128,0,53421:0:0:0:0:
448,192,52392,128,0,53421:0:0:0:0:
320,192,53592,128,0,54792:0:0:0:0:
64,192,53592,128,0,54792:0:0:0:0:
192,192,54964,128,0,56164:0:0:0:0:
320,192,54964,128,0,56164:0:0:0:0:
192,192,56335,128,0,57535:0:0:0:0:
64,192,56335,128,0,57535:0:0:0:0:
192,192,57878,128,0,60278:0:0:0:0:
448,192,57878,128,0,58392:0:0:0:0:
320,192,58392,128,0,58564:0:0:0:0:
320,192,58735,1,0,0:0:0:0:
448,192,58821,1,0,0:0:0:0:
320,192,58907,1,0,0:0:0:0:
448,192,59078,128,0,59250:0:0:0:0:
320,192,59421,1,0,0:0:0:0:
64,192,59592,1,0,0:0:0:0:
320,192,59764,1,0,0:0:0:0:
448,192,59935,1,0,0:0:0:0:
320,192,60107,1,0,0:0:0:0:
64,192,60278,1,0,0:0:0:0:
320,192,60450,1,0,0:0:0:0:
192,192,60535,1,0,0:0:0:0:
64,192,60621,128,0,62335:0:0:0:0:
320,192,60621,128,0,61307:0:0:0:0:
192,192,61478,1,0,0:0:0:0:
320,192,61650,1,0,0:0:0:0:
448,192,61821,128,0,62335:0:0:0:0:
448,192,62507,1,0,0:0:0:0:
320,192,62592,1,0,0:0:0:0:
448,192,62678,128,0,63192:0:0:0:0:
192,192,63192,1,0,0:0:0:0:
320,192,63278,1,0,0:0:0:0:
448,192,63364,128,0,64735:0:0:0:0:
64,192,63364,1,0,0:0:0:0:
192,192,63364,1,0,0:0:0:0:
320,192,63707,1,0,0:0:0:0:
64,192,63707,1,0,0:0:0:0:
320,192,64050,1,0,0:0:0:0:
192,192,64050,1,0,0:0:0:0:
192,192,64392,1,0,0:0:0:0:
64,192,64392,1,0,0:0:0:0:
320,192,64735,1,0,0:0:0:0:
192,192,64735,1,0,0:0:0:0:
64,192,64907,1,0,0:0:0:0:
192,192,65078,1,0,0:0:0:0:
320,192,65078,1,0,0:0:0:0:
448,192,65250,1,0,0:0:0:0:
192,192,65421,1,0,0:0:0:0:
320,192,65421,1,0,0:0:0:0:
64,192,65592,1,0,0:0:0:0:
192,192,65764,1,0,0:0:0:0:
320,192,65764,1,0,0:0:0:0:
448,192,65935,1,0,0:0:0:0:
64,192,66107,1,0,0:0:0:0:
192,192,66192,1,0,0:0:0:0:
320,192,66278,1,0,0:0:0:0:
192,192,66364,1,0,0:0:0:0:
448,192,66450,1,0,0:0:0:0:
320,192,66535,1,0,0:0:0:0:
192,192,66621,1,0,0:0:0:0:
64,192,66707,1,0,0:0:0:0:
192,192,66792,1,0,0:0:0:0:
64,192,66878,1,0,0:0:0:0:
192,192,66964,1,0,0:0:0:0:
320,192,67050,1,0,0:0:0:0:
448,192,67135,1,0,0:0:0:0:
320,192,67221,1,0,0:0:0:0:
448,192,67307,1,0,0:0:0:0:
320,192,67392,1,0,0:0:0:0:
448,192,67478,1,0,0:0:0:0:
320,192,67564,1,0,0:0:0:0:
192,192,67650,1,0,0:0:0:0:
64,192,67735,1,0,0:0:0:0:
448,192,67821,1,0,0:0:0:0:
320,192,67907,1,0,0:0:0:0:
192,192,67992,1,0,0:0:0:0:
64,192,68078,1,0,0:0:0:0:
448,192,68164,1,0,0:0:0:0:
320,192,68250,1,0,0:0:0:0:
64,192,68335,1,0,0:0:0:0:
192,192,68421,1,0,0:0:0:0:
448,192,68507,1,0,0:0:0:0:
320,192,68592,1,0,0:0:0:0:
64,192,68678,1,0,0:0:0:0:
192,192,68764,1,0,0:0:0:0:
320,192,68850,128,0,69535:0:0:0:0:
448,192,69707,1,0,0:0:0:0:
320,192,69878,1,0,0:0:0:0:
192,192,70050,128,0,70221:0:0:0:0:
448,192,70392,1,0,0:0:0:0:
320,192,70478,1,0,0:0:0:0:
192,192,70564,1,0,0:0:0:0:
320,192,70650,1,0,0:0:0:0:
192,192,70735,1,0,0:0:0:0:
64,192,70821,1,0,0:0:0:0:
192,192,70907,1,0,0:0:0:0:
320,192,70992,1,0,0:0:0:0:
64,192,71078,1,0,0:0:0:0:
192,192,71164,1,0,0:0:0:0:
320,192,71250,1,0,0:0:0:0:
448,192,71335,128,0,71764:0:0:0:0:
320,192,71764,1,0,0:0:0:0:
192,192,71935,1,0,0:0:0:0:
64,192,72107,1,0,0:0:0:0:
192,192,72192,1,0,0:0:0:0:
64,192,72278,1,0,0:0:0:0:
64,192,72450,1,0,0:0:0:0:
192,192,72621,1,0,0:0:0:0:
320,192,72792,1,0,0:0:0:0:
448,192,72878,1,0,0:0:0:0:
320,192,72964,128,0,73135:0:0:0:0:
192,192,73135,1,0,0:0:0:0:
448,192,73221,1,0,0:0:0:0:
320,192,73307,1,0,0:0:0:0:
192,192,73392,1,0,0:0:0:0:
64,192,73478,1,0,0:0:0:0:
192,192,73564,1,0,0:0:0:0:
64,192,73650,1,0,0:0:0:0:
192,192,73735,1,0,0:0:0:0:
320,192,73821,1,0,0:0:0:0:
192,192,73907,1,0,0:0:0:0:
320,192,73992,1,0,0:0:0:0:
448,192,74078,1,0,0:0:0:0:
320,192,74164,1,0,0:0:0:0:
448,192,74250,1,0,0:0:0:0:
320,192,74335,128,0,75021:0:0:0:0:
192,192,75192,1,0,0:0:0:0:
64,192,75364,1,0,0:0:0:0:
64,192,75535,1,0,0:0:0:0:
192,192,75621,1,0,0:0:0:0:
64,192,75707,128,0,76221:0:0:0:0:
192,192,76221,128,0,76564:0:0:0:0:
320,192,76564,1,0,0:0:0:0:
448,192,76650,1,0,0:0:0:0:
320,192,76735,1,0,0:0:0:0:
64,192,76907,128,0,77592:0:0:0:0:
192,192,77592,128,0,77935:0:0:0:0:
320,192,77935,128,0,78278:0:0:0:0:
448,192,78278,128,0,78621:0:0:0:0:
320,192,78621,1,0,0:0:0:0:
192,192,78792,1,0,0:0:0:0:
64,192,78964,1,0,0:0:0:0:
192,192,79135,1,0,0:0:0:0:
64,192,79307,1,0,0:0:0:0:
192,192,79392,1,0,0:0:0:0:
448,192,79478,1,0,0:0:0:0:
320,192,79564,1,0,0:0:0:0:
64,192,79650,1,0,0:0:0:0:
192,192,79735,1,0,0:0:0:0:
320,192,79821,128,0,79992:0:0:0:0:
448,192,79992,128,0,80164:0:0:0:0:
320,192,80164,128,0,80335:0:0:0:0:
64,192,80335,1,0,0:0:0:0:
192,192,80421,1,0,0:0:0:0:
320,192,80507,1,0,0:0:0:0:
64,192,80678,1,0,0:0:0:0:
192,192,80764,1,0,0:0:0:0:
320,192,80850,1,0,0:0:0:0:
448,192,81021,128,0,81364:0:0:0:0:
320,192,81364,1,0,0:0:0:0:
192,192,81535,1,0,0:0:0:0:
320,192,81707,1,0,0:0:0:0:
448,192,81792,1,0,0:0:0:0:
320,192,81878,1,0,0:0:0:0:
192,192,81964,1,0,0:0:0:0:
320,192,82050,1,0,0:0:0:0:
448,192,82135,1,0,0:0:0:0:
320,192,82221,1,0,0:0:0:0:
192,192,82307,1,0,0:0:0:0:
320,192,82392,1,0,0:0:0:0:
448,192,82478,1,0,0:0:0:0:
320,192,82564,128,0,83421:0:0:0:0:
192,192,83421,1,0,0:0:0:0:
64,192,83592,1,0,0:0:0:0:
320,192,83764,1,0,0:0:0:0:
448,192,83850,1,0,0:0:0:0:
320,192,83935,1,0,0:0:0:0:
192,192,84107,1,0,0:0:0:0:
320,192,84192,1,0,0:0:0:0:
192,192,84278,1,0,0:0:0:0:
448,192,84364,1,0,0:0:0:0:
320,192,84450,1,0,0:0:0:0:
192,192,84535,1,0,0:0:0:0:
64,192,84621,1,0,0:0:0:0:
192,192,84707,1,0,0:0:0:0:
64,192,84792,1,0,0:0:0:0:
192,192,84878,1,0,0:0:0:0:
320,192,84964,1,0,0:0:0:0:
448,192,85050,1,0,0:0:0:0:
320,192,85135,1,0,0:0:0:0:
192,192,85221,1,0,0:0:0:0:
320,192,85307,128,0,85992:0:0:0:0:
192,192,86164,1,0,0:0:0:0:
64,192,86335,1,0,0:0:0:0:
320,192,86507,1,0,0:0:0:0:
192,192,86592,1,0,0:0:0:0:
64,192,86678,128,0,87192:0:0:0:0:
192,192,87192,128,0,87535:0:0:0:0:
320,192,87535,128,0,87878:0:0:0:0:
448,192,87878,128,0,88564:0:0:0:0:
64,192,88564,1,0,0:0:0:0:
192,192,88650,1,0,0:0:0:0:
320,192,88735,1,0,0:0:0:0:
192,192,88821,1,0,0:0:0:0:
320,192,88907,1,0,0:0:0:0:
64,192,88992,1,0,0:0:0:0:
192,192,89078,1,0,0:0:0:0:
320,192,89164,1,0,0:0:0:0:
448,192,89250,1,0,0:0:0:0:
320,192,89335,1,0,0:0:0:0:
448,192,89421,128,0,90792:0:0:0:0:
320,192,90450,1,0,0:0:0:0:
192,192,90535,1,0,0:0:0:0:
64,192,90621,1,0,0:0:0:0:
192,192,90707,1,0,0:0:0:0:
320,192,90792,128,0,91821:0:0:0:0:
64,192,90792,128,0,91821:0:0:0:0:
192,192,91992,128,0,93192:0:0:0:0:
320,192,91992,128,0,93192:0:0:0:0:
448,192,93364,128,0,94564:0:0:0:0:
320,192,93364,128,0,94564:0:0:0:0:
320,192,94735,128,0,95935:0:0:0:0:
64,192,94735,128,0,95935:0:0:0:0:
448,192,96107,1,0,0:0:0:0:
320,192,96192,1,0,0:0:0:0:
192,192,96278,128,0,97307:0:0:0:0:
64,192,96278,128,0,97307:0:0:0:0:
192,192,97478,128,0,98678:0:0:0:0:
320,192,97478,128,0,98678:0:0:0:0:
320,192,98850,128,0,100050:0:0:0:0:
448,192,98850,128,0,100050:0:0:0:0:
192,192,100221,128,0,101421:0:0:0:0:
448,192,100221,128,0,101421:0:0:0:0:
192,192,101764,128,0,102792:0:0:0:0:
448,192,101764,128,0,102792:0:0:0:0:
64,192,101764,128,0,102792:0:0:0:0:
64,192,102964,128,0,104164:0:0:0:0:
320,192,102964,128,0,104164:0:0:0:0:
448,192,102964,128,0,104164:0:0:0:0:
448,192,104335,128,0,105535:0:0:0:0:
320,192,104335,128,0,105535:0:0:0:0:
192,192,104335,128,0,105535:0:0:0:0:
64,192,105707,128,0,106907:0:0:0:0:
192,192,105707,128,0,106907:0:0:0:0:
448,192,105707,128,0,106907:0:0:0:0:
448,192,107078,1,0,0:0:0:0:
320,192,107164,1,0,0:0:0:0:
192,192,107250,128,0,108278:0:0:0:0:
448,192,107250,128,0,108278:0:0:0:0:
64,192,108450,128,0,109650:0:0:0:0:
320,192,108450,128,0,109650:0:0:0:0:
448,192,108450,128,0,109650:0:0:0:0:
192,192,109821,128,0,111021:0:0:0:0:
448,192,109821,128,0,111021:0:0:0:0:
320,192,111192,128,0,112221:0:0:0:0:
448,192,111192,128,0,112221:0:0:0:0:
64,192,112392,1,0,0:0:0:0:
192,192,112435,1,0,0:0:0:0:
320,192,112478,1,0,0:0:0:0:
448,192,112521,1,0,0:0:0:0:
320,192,112564,1,0,0:0:0:0:
192,192,112607,1,0,0:0:0:0:
64,192,112650,1,0,0:0:0:0:
