osu file format v14

[General]
AudioFilename: audio.mp3
AudioLeadIn: 0
PreviewTime: 68409
Countdown: 0
SampleSet: Normal
StackLeniency: 0.7
Mode: 3
LetterboxInBreaks: 0
SpecialStyle: 1
WidescreenStoryboard: 1

[Editor]
DistanceSpacing: 0.8
BeatDivisor: 4
GridSize: 4
TimelineZoom: 2.499999

[Metadata]
Title:Sakura Fubuki
TitleUnicode:Sakura Fubuki
Artist:Street
ArtistUnicode:Street
Creator:Airon 9th
Version:Normal
Source:BMS
Tags:BEST MUSIC SELECTION -CHUNITHM VARIETY SOUNDTACK- BOFU 2015 大血戰 - THE BMS OF FIGHTERS ULTIMATE- drumstep Zyon Dynamix ExNeko Choboco
BeatmapID:1349221
BeatmapSetID:635052

[Difficulty]
HPDrainRate:7
CircleSize:4
OverallDifficulty:7
ApproachRate:5
SliderMultiplier:1.4
SliderTickRate:1

[Events]
//Background and Video events
0,0,"cover.png",0,0
//Break Periods
//Storyboard Layer 0 (Background)
//Storyboard Layer 1 (Fail)
//Storyboard Layer 2 (Pass)
//Storyboard Layer 3 (Foreground)
//Storyboard Sound Samples

[TimingPoints]
181,342.857142857143,4,1,1,100,1,0

[Colours]
Combo1 : 255,192,0
Combo2 : 0,202,0
Combo3 : 18,124,255
Combo4 : 242,24,57

[HitObjects]
329,192,181,5,0,0:0:0:0:
475,192,2238,1,0,0:0:0:0:
36,192,2752,1,0,0:0:0:0:
402,192,5666,1,0,0:0:0:0:
182,192,5666,1,0,0:0:0:0:
402,192,7723,1,0,0:0:0:0:
320,192,7723,1,0,0:0:0:0:
36,192,8238,1,0,0:0:0:0:
192,192,8238,1,0,0:0:0:0:
448,192,11152,1,0,0:0:0:0:
36,192,11152,1,0,0:0:0:0:
320,192,13209,1,0,0:0:0:0:
448,192,13209,1,0,0:0:0:0:
182,192,13723,1,0,0:0:0:0:
36,192,13723,1,0,0:0:0:0:
329,192,15095,1,0,0:0:0:0:
64,192,15095,1,0,0:0:0:0:
448,192,16123,1,0,0:0:0:0:
320,192,16295,1,0,0:0:0:0:
192,192,16466,1,0,0:0:0:0:
448,192,16638,1,0,0:0:0:0:
192,192,16981,1,0,0:0:0:0:
448,192,17323,1,0,0:0:0:0:
192,192,17666,1,0,0:0:0:0:
182,192,18009,1,0,0:0:0:0:
36,192,18009,1,0,0:0:0:0:
448,192,18352,1,0,0:0:0:0:
320,192,18352,1,0,0:0:0:0:
64,192,18695,1,0,0:0:0:0:
192,192,18695,1,0,0:0:0:0:
448,192,19038,1,0,0:0:0:0:
320,192,19038,1,0,0:0:0:0:
64,192,19209,1,0,0:0:0:0:
192,192,19381,1,0,0:0:0:0:
320,192,19552,1,0,0:0:0:0:
448,192,19723,1,0,0:0:0:0:
320,192,19895,1,0,0:0:0:0:
192,192,20066,1,0,0:0:0:0:
64,192,20238,1,0,0:0:0:0:
448,192,20409,128,0,20752:0:0:0:0:
64,192,20752,1,0,0:0:0:0:
448,192,21095,1,0,0:0:0:0:
64,192,21438,1,0,0:0:0:0:
64,192,21781,128,0,21952:0:0:0:0:
448,192,21952,1,0,0:0:0:0:
192,192,22123,128,0,22295:0:0:0:0:
320,192,22295,1,0,0:0:0:0:
320,192,22638,128,0,22809:0:0:0:0:
192,192,22809,1,0,0:0:0:0:
64,192,23152,128,0,23323:0:0:0:0:
192,192,23323,1,0,0:0:0:0:
448,192,23666,128,0,23838:0:0:0:0:
320,192,23838,1,0,0:0:0:0:
320,192,24181,1,0,0:0:0:0:
192,192,24352,1,0,0:0:0:0:
64,192,24523,1,0,0:0:0:0:
448,192,24695,128,0,25209:0:0:0:0:
320,192,25209,1,0,0:0:0:0:
64,192,25381,1,0,0:0:0:0:
192,192,25552,1,0,0:0:0:0:
320,192,25723,1,0,0:0:0:0:
448,192,25895,1,0,0:0:0:0:
320,192,26066,1,0,0:0:0:0:
36,192,26238,1,0,0:0:0:0:
182,192,26238,1,0,0:0:0:0:
329,192,26581,1,0,0:0:0:0:
192,192,26752,1,0,0:0:0:0:
320,192,26923,1,0,0:0:0:0:
192,192,27095,1,0,0:0:0:0:
320,192,27266,1,0,0:0:0:0:
448,192,27438,1,0,0:0:0:0:
36,192,27609,1,0,0:0:0:0:
192,192,27609,1,0,0:0:0:0:
320,192,27952,1,0,0:0:0:0:
64,192,28123,1,0,0:0:0:0:
192,192,28295,1,0,0:0:0:0:
320,192,28466,1,0,0:0:0:0:
320,192,28638,128,0,28723:0:0:0:0:
448,192,28809,128,0,28895:0:0:0:0:
64,192,28981,1,0,0:0:0:0:
192,192,28981,1,0,0:0:0:0:
320,192,29152,1,0,0:0:0:0:
448,192,29323,1,0,0:0:0:0:
182,192,29495,1,0,0:0:0:0:
448,192,29666,1,0,0:0:0:0:
64,192,29838,1,0,0:0:0:0:
192,192,30009,1,0,0:0:0:0:
402,192,30181,1,0,0:0:0:0:
109,192,30181,1,0,0:0:0:0:
256,192,30695,1,0,0:0:0:0:
192,192,30866,1,0,0:0:0:0:
109,192,31038,1,0,0:0:0:0:
448,192,31038,1,0,0:0:0:0:
256,192,31209,1,0,0:0:0:0:
192,192,31381,1,0,0:0:0:0:
475,192,31552,1,0,0:0:0:0:
36,192,31723,1,0,0:0:0:0:
182,192,31723,1,0,0:0:0:0:
192,192,32066,1,0,0:0:0:0:
320,192,32238,1,0,0:0:0:0:
448,192,32409,1,0,0:0:0:0:
36,192,32581,1,0,0:0:0:0:
192,192,32581,1,0,0:0:0:0:
448,192,32752,1,0,0:0:0:0:
256,192,32923,1,0,0:0:0:0:
36,192,33095,1,0,0:0:0:0:
320,192,33438,1,0,0:0:0:0:
192,192,33609,1,0,0:0:0:0:
448,192,33781,1,0,0:0:0:0:
320,192,33781,1,0,0:0:0:0:
64,192,33952,1,0,0:0:0:0:
192,192,34123,1,0,0:0:0:0:
64,192,34295,1,0,0:0:0:0:
320,192,34295,1,0,0:0:0:0:
448,192,34295,1,0,0:0:0:0:
320,192,34981,1,0,0:0:0:0:
448,192,34981,1,0,0:0:0:0:
192,192,35323,1,0,0:0:0:0:
64,192,35323,1,0,0:0:0:0:
320,192,35666,1,0,0:0:0:0:
448,192,35666,1,0,0:0:0:0:
192,192,36009,128,0,36181:0:0:0:0:
320,192,36181,1,0,0:0:0:0:
109,192,36352,1,0,0:0:0:0:
320,192,36523,1,0,0:0:0:0:
109,192,36695,1,0,0:0:0:0:
329,192,36866,1,0,0:0:0:0:
182,192,37038,1,0,0:0:0:0:
256,192,37209,1,0,0:0:0:0:
36,192,37209,1,0,0:0:0:0:
448,192,37209,1,0,0:0:0:0:
182,192,37381,1,0,0:0:0:0:
329,192,37552,1,0,0:0:0:0:
64,192,37723,1,0,0:0:0:0:
475,192,37895,1,0,0:0:0:0:
192,192,38066,1,0,0:0:0:0:
448,192,38238,1,0,0:0:0:0:
320,192,38409,1,0,0:0:0:0:
402,192,38581,1,0,0:0:0:0:
36,192,38581,1,0,0:0:0:0:
192,192,38581,1,0,0:0:0:0:
329,192,38752,1,0,0:0:0:0:
402,192,38923,1,0,0:0:0:0:
192,192,39095,1,0,0:0:0:0:
64,192,39266,1,0,0:0:0:0:
329,192,39438,1,0,0:0:0:0:
475,192,39609,1,0,0:0:0:0:
192,192,39781,1,0,0:0:0:0:
64,192,39952,1,0,0:0:0:0:
320,192,39952,1,0,0:0:0:0:
448,192,39952,1,0,0:0:0:0:
192,192,40123,1,0,0:0:0:0:
320,192,40295,1,0,0:0:0:0:
192,192,40466,1,0,0:0:0:0:
320,192,40638,1,0,0:0:0:0:
192,192,40809,1,0,0:0:0:0:
64,192,40981,1,0,0:0:0:0:
402,192,41152,1,0,0:0:0:0:
182,192,41152,1,0,0:0:0:0:
320,192,41152,1,0,0:0:0:0:
36,192,41323,1,0,0:0:0:0:
192,192,41495,1,0,0:0:0:0:
320,192,41666,1,0,0:0:0:0:
192,192,41838,1,0,0:0:0:0:
256,192,42009,1,0,0:0:0:0:
448,192,42181,1,0,0:0:0:0:
64,192,42352,1,0,0:0:0:0:
192,192,42523,1,0,0:0:0:0:
320,192,42609,1,0,0:0:0:0:
448,192,42695,1,0,0:0:0:0:
320,192,42866,1,0,0:0:0:0:
448,192,43038,1,0,0:0:0:0:
256,192,43209,1,0,0:0:0:0:
182,192,43381,1,0,0:0:0:0:
64,192,43552,1,0,0:0:0:0:
448,192,43723,1,0,0:0:0:0:
320,192,43895,1,0,0:0:0:0:
192,192,43981,1,0,0:0:0:0:
64,192,44066,1,0,0:0:0:0:
448,192,44238,1,0,0:0:0:0:
182,192,44409,1,0,0:0:0:0:
64,192,44409,1,0,0:0:0:0:
320,192,44581,1,0,0:0:0:0:
448,192,44581,1,0,0:0:0:0:
64,192,44752,1,0,0:0:0:0:
192,192,44752,1,0,0:0:0:0:
448,192,44923,1,0,0:0:0:0:
320,192,44923,1,0,0:0:0:0:
192,192,45095,1,0,0:0:0:0:
64,192,45095,1,0,0:0:0:0:
320,192,45266,1,0,0:0:0:0:
448,192,45266,1,0,0:0:0:0:
448,192,45438,128,0,45609:0:0:0:0:
192,192,45609,128,0,45781:0:0:0:0:
64,192,45781,128,0,45952:0:0:0:0:
448,192,45952,128,0,46123:0:0:0:0:
192,192,46123,128,0,46295:0:0:0:0:
448,192,46295,128,0,46466:0:0:0:0:
320,192,46466,128,0,46809:0:0:0:0:
192,192,46638,128,0,46809:0:0:0:0:
64,192,46809,1,0,0:0:0:0:
109,192,48009,1,0,0:0:0:0:
256,192,48009,1,0,0:0:0:0:
475,192,49381,1,0,0:0:0:0:
329,192,49381,1,0,0:0:0:0:
109,192,50752,1,0,0:0:0:0:
256,192,50752,1,0,0:0:0:0:
64,192,52295,1,0,0:0:0:0:
36,192,53495,1,0,0:0:0:0:
182,192,53495,1,0,0:0:0:0:
475,192,54866,1,0,0:0:0:0:
329,192,54866,1,0,0:0:0:0:
109,192,56238,1,0,0:0:0:0:
256,192,56238,1,0,0:0:0:0:
64,192,57438,128,0,57781:0:0:0:0:
448,192,57781,128,0,58123:0:0:0:0:
256,192,58123,1,0,0:0:0:0:
402,192,58295,1,0,0:0:0:0:
109,192,58466,1,0,0:0:0:0:
329,192,58638,1,0,0:0:0:0:
192,192,58809,1,0,0:0:0:0:
402,192,58981,1,0,0:0:0:0:
64,192,58981,128,0,59152:0:0:0:0:
192,192,59152,1,0,0:0:0:0:
448,192,59323,1,0,0:0:0:0:
320,192,59495,1,0,0:0:0:0:
36,192,59666,1,0,0:0:0:0:
182,192,59838,1,0,0:0:0:0:
329,192,60009,1,0,0:0:0:0:
192,192,60181,1,0,0:0:0:0:
448,192,60352,128,0,61209:0:0:0:0:
320,192,61209,1,0,0:0:0:0:
64,192,61381,1,0,0:0:0:0:
192,192,61552,1,0,0:0:0:0:
64,192,61723,1,0,0:0:0:0:
329,192,61723,128,0,62323:0:0:0:0:
192,192,62323,1,0,0:0:0:0:
448,192,62495,128,0,63095:0:0:0:0:
320,192,63095,1,0,0:0:0:0:
320,192,63266,1,0,0:0:0:0:
448,192,63438,1,0,0:0:0:0:
256,192,63609,1,0,0:0:0:0:
448,192,63781,1,0,0:0:0:0:
192,192,63952,1,0,0:0:0:0:
64,192,64123,1,0,0:0:0:0:
192,192,64295,1,0,0:0:0:0:
64,192,64466,1,0,0:0:0:0:
192,192,64638,1,0,0:0:0:0:
320,192,64809,1,0,0:0:0:0:
192,192,64981,1,0,0:0:0:0:
320,192,65152,1,0,0:0:0:0:
448,192,65323,1,0,0:0:0:0:
320,192,65323,1,0,0:0:0:0:
64,192,65495,1,0,0:0:0:0:
192,192,65495,1,0,0:0:0:0:
448,192,65666,1,0,0:0:0:0:
320,192,65666,1,0,0:0:0:0:
192,192,65838,1,0,0:0:0:0:
64,192,65838,1,0,0:0:0:0:
448,192,66009,1,0,0:0:0:0:
36,192,66181,1,0,0:0:0:0:
320,192,66352,1,0,0:0:0:0:
448,192,66352,1,0,0:0:0:0:
36,192,66523,1,0,0:0:0:0:
192,192,66523,1,0,0:0:0:0:
320,192,66695,1,0,0:0:0:0:
64,192,66866,1,0,0:0:0:0:
448,192,67038,1,0,0:0:0:0:
192,192,67209,1,0,0:0:0:0:
475,192,67209,128,0,68238:0:0:0:0:
109,192,67381,1,0,0:0:0:0:
320,192,67381,128,0,68238:0:0:0:0:
36,192,67723,1,0,0:0:0:0:
192,192,67723,128,0,68238:0:0:0:0:
64,192,68066,128,0,68238:0:0:0:0:
36,192,68409,1,0,0:0:0:0:
192,192,68581,1,0,0:0:0:0:
475,192,68752,1,0,0:0:0:0:
192,192,69095,1,0,0:0:0:0:
320,192,69095,1,0,0:0:0:0:
448,192,69609,1,0,0:0:0:0:
64,192,69781,1,0,0:0:0:0:
256,192,69952,128,0,70295:0:0:0:0:
64,192,70295,1,0,0:0:0:0:
192,192,70466,1,0,0:0:0:0:
320,192,70638,1,0,0:0:0:0:
448,192,70809,1,0,0:0:0:0:
320,192,70981,1,0,0:0:0:0:
192,192,71152,1,0,0:0:0:0:
402,192,71323,128,0,71495:0:0:0:0:
64,192,71495,1,0,0:0:0:0:
192,192,71666,1,0,0:0:0:0:
320,192,71838,1,0,0:0:0:0:
448,192,72009,1,0,0:0:0:0:
320,192,72181,1,0,0:0:0:0:
192,192,72352,1,0,0:0:0:0:
64,192,72523,1,0,0:0:0:0:
402,192,72695,128,0,72866:0:0:0:0:
36,192,72866,1,0,0:0:0:0:
448,192,73038,1,0,0:0:0:0:
192,192,73038,1,0,0:0:0:0:
320,192,73209,1,0,0:0:0:0:
64,192,73381,1,0,0:0:0:0:
448,192,73381,1,0,0:0:0:0:
192,192,73552,1,0,0:0:0:0:
448,192,73723,1,0,0:0:0:0:
320,192,73723,1,0,0:0:0:0:
192,192,73895,1,0,0:0:0:0:
64,192,74066,1,0,0:0:0:0:
320,192,74066,1,0,0:0:0:0:
448,192,74238,128,0,74923:0:0:0:0:
320,192,74238,128,0,74923:0:0:0:0:
192,192,74238,128,0,74923:0:0:0:0:
64,192,74238,128,0,74923:0:0:0:0:
192,192,75095,128,0,75266:0:0:0:0:
320,192,75266,128,0,75438:0:0:0:0:
64,192,75438,128,0,76123:0:0:0:0:
192,192,76123,128,0,76466:0:0:0:0:
64,192,76466,128,0,76809:0:0:0:0:
402,192,76638,1,0,0:0:0:0:
192,192,76809,128,0,77323:0:0:0:0:
320,192,76981,1,0,0:0:0:0:
36,192,77323,1,0,0:0:0:0:
192,192,77495,128,0,77838:0:0:0:0:
64,192,77838,1,0,0:0:0:0:
329,192,77838,128,0,78181:0:0:0:0:
64,192,78181,1,0,0:0:0:0:
448,192,78181,128,0,78523:0:0:0:0:
192,192,78352,1,0,0:0:0:0:
256,192,78523,1,0,0:0:0:0:
109,192,78695,1,0,0:0:0:0:
448,192,78866,1,0,0:0:0:0:
192,192,79038,1,0,0:0:0:0:
320,192,79209,1,0,0:0:0:0:
448,192,79295,1,0,0:0:0:0:
192,192,79381,1,0,0:0:0:0:
448,192,79466,1,0,0:0:0:0:
64,192,79552,1,0,0:0:0:0:
192,192,79638,1,0,0:0:0:0:
448,192,79723,128,0,79895:0:0:0:0:
329,192,79895,1,0,0:0:0:0:
64,192,80066,1,0,0:0:0:0:
192,192,80238,128,0,80409:0:0:0:0:
64,192,80409,1,0,0:0:0:0:
320,192,80581,128,0,80752:0:0:0:0:
402,192,80752,1,0,0:0:0:0:
192,192,80923,128,0,81266:0:0:0:0:
64,192,81266,1,0,0:0:0:0:
320,192,81438,1,0,0:0:0:0:
448,192,81438,1,0,0:0:0:0:
64,192,81609,128,0,81781:0:0:0:0:
320,192,81781,128,0,81952:0:0:0:0:
448,192,81952,128,0,82123:0:0:0:0:
64,192,82123,128,0,82295:0:0:0:0:
448,192,82295,128,0,82466:0:0:0:0:
192,192,82466,128,0,82638:0:0:0:0:
64,192,82638,128,0,82809:0:0:0:0:
448,192,82638,128,0,82809:0:0:0:0:
320,192,82809,128,0,82981:0:0:0:0:
64,192,82981,128,0,83152:0:0:0:0:
448,192,82981,128,0,83152:0:0:0:0:
192,192,83152,128,0,83323:0:0:0:0:
64,192,83323,128,0,83495:0:0:0:0:
320,192,83495,128,0,83666:0:0:0:0:
64,192,83666,1,0,0:0:0:0:
448,192,84009,1,0,0:0:0:0:
320,192,84181,1,0,0:0:0:0:
192,192,84352,1,0,0:0:0:0:
64,192,84523,1,0,0:0:0:0:
192,192,84695,1,0,0:0:0:0:
320,192,84866,1,0,0:0:0:0:
448,192,85038,128,0,85723:0:0:0:0:
64,192,85038,1,0,0:0:0:0:
320,192,85209,128,0,85723:0:0:0:0:
192,192,85209,1,0,0:0:0:0:
64,192,85723,1,0,0:0:0:0:
64,192,86066,128,0,86238:0:0:0:0:
192,192,86238,128,0,86409:0:0:0:0:
402,192,86409,1,0,0:0:0:0:
64,192,86409,128,0,87095:0:0:0:0:
192,192,86752,1,0,0:0:0:0:
402,192,87095,1,0,0:0:0:0:
192,192,87095,128,0,87438:0:0:0:0:
402,192,87438,1,0,0:0:0:0:
64,192,87438,128,0,87781:0:0:0:0:
320,192,87609,1,0,0:0:0:0:
192,192,87781,1,0,0:0:0:0:
448,192,87781,128,0,88295:0:0:0:0:
64,192,88123,1,0,0:0:0:0:
64,192,88466,128,0,88638:0:0:0:0:
320,192,88638,128,0,88809:0:0:0:0:
192,192,88809,128,0,88981:0:0:0:0:
64,192,88981,128,0,89152:0:0:0:0:
448,192,88981,128,0,89152:0:0:0:0:
320,192,89152,1,0,0:0:0:0:
448,192,89323,128,0,90095:0:0:0:0:
192,192,89323,1,0,0:0:0:0:
64,192,89495,1,0,0:0:0:0:
192,192,89666,1,0,0:0:0:0:
64,192,89838,1,0,0:0:0:0:
192,192,90009,1,0,0:0:0:0:
320,192,90181,1,0,0:0:0:0:
448,192,90352,128,0,90695:0:0:0:0:
320,192,90523,128,0,90695:0:0:0:0:
36,192,90695,1,0,0:0:0:0:
192,192,90695,1,0,0:0:0:0:
36,192,91895,1,0,0:0:0:0:
182,192,91895,1,0,0:0:0:0:
256,192,93266,1,0,0:0:0:0:
402,192,93266,1,0,0:0:0:0:
256,192,94638,1,0,0:0:0:0:
109,192,94638,1,0,0:0:0:0:
64,192,96181,1,0,0:0:0:0:
36,192,97381,1,0,0:0:0:0:
182,192,97381,1,0,0:0:0:0:
475,192,98752,1,0,0:0:0:0:
329,192,98752,1,0,0:0:0:0:
329,192,100123,1,0,0:0:0:0:
182,192,100123,1,0,0:0:0:0:
256,192,101666,128,0,102866:0:0:0:0:
402,192,101666,128,0,102866:0:0:0:0:
36,192,102866,128,0,104238:0:0:0:0:
182,192,102866,128,0,104238:0:0:0:0:
329,192,104238,128,0,105609:0:0:0:0:
402,192,105609,128,0,106981:0:0:0:0:
109,192,105609,128,0,106981:0:0:0:0:
192,192,106981,1,0,0:0:0:0:
256,192,107152,128,0,108352:0:0:0:0:
192,192,108352,128,0,109723:0:0:0:0:
475,192,108352,128,0,109723:0:0:0:0:
64,192,109723,128,0,111095:0:0:0:0:
448,192,111095,128,0,112295:0:0:0:0:
192,192,111095,128,0,112295:0:0:0:0:
320,192,112295,1,0,0:0:0:0:
36,192,112638,1,0,0:0:0:0:
192,192,112638,1,0,0:0:0:0:
