osu file format v14

[General]
AudioFilename: audio.mp3
AudioLeadIn: 0
PreviewTime: 68409
Countdown: 0
SampleSet: Normal
StackLeniency: 0.7
Mode: 3
LetterboxInBreaks: 0
SpecialStyle: 1
WidescreenStoryboard: 1

[Editor]
DistanceSpacing: 0.8
BeatDivisor: 8
GridSize: 4
TimelineZoom: 2.499999

[Metadata]
Title:Sakura Fubuki
TitleUnicode:Sakura Fubuki
Artist:Street
ArtistUnicode:Street
Creator:Airon 9th
Version:Insane
Source:BMS
Tags:BEST MUSIC SELECTION -CHUNITHM VARIETY SOUNDTACK- BOFU 2015 大血戰 - THE BMS OF FIGHTERS ULTIMATE- drumstep Zyon Dynamix ExNeko Choboco
BeatmapID:1347578
BeatmapSetID:635052

[Difficulty]
HPDrainRate:8
CircleSize:4
OverallDifficulty:8
ApproachRate:5
SliderMultiplier:1.4
SliderTickRate:1

[Events]
//Background and Video events
0,0,"cover.png",0,0
//Break Periods
//Storyboard Layer 0 (Background)
//Storyboard Layer 1 (Fail)
//Storyboard Layer 2 (Pass)
//Storyboard Layer 3 (Foreground)
//Storyboard Sound Samples

[TimingPoints]
181,342.857142857143,4,1,1,40,1,0

[Colours]
Combo1 : 255,192,0
Combo2 : 0,202,0
Combo3 : 18,124,255
Combo4 : 242,24,57

[HitObjects]
329,192,181,5,0,0:0:0:0:
192,192,181,1,0,0:0:0:0:
475,192,2238,1,0,0:0:0:0:
329,192,2238,1,0,0:0:0:0:
36,192,2752,1,0,0:0:0:0:
182,192,2752,1,0,0:0:0:0:
402,192,5666,1,0,0:0:0:0:
182,192,5666,1,0,0:0:0:0:
109,192,7723,1,0,0:0:0:0:
402,192,7723,1,0,0:0:0:0:
36,192,8238,1,0,0:0:0:0:
329,192,8238,1,0,0:0:0:0:
192,192,11152,1,0,0:0:0:0:
36,192,11152,1,0,0:0:0:0:
320,192,11323,1,0,0:0:0:0:
475,192,11495,1,0,0:0:0:0:
329,192,11666,1,0,0:0:0:0:
192,192,11752,1,0,0:0:0:0:
475,192,11838,1,0,0:0:0:0:
64,192,11838,1,0,0:0:0:0:
192,192,12009,1,0,0:0:0:0:
320,192,12181,1,0,0:0:0:0:
64,192,12352,1,0,0:0:0:0:
320,192,12523,1,0,0:0:0:0:
192,192,12695,1,0,0:0:0:0:
475,192,12866,1,0,0:0:0:0:
320,192,12866,1,0,0:0:0:0:
448,192,13038,1,0,0:0:0:0:
256,192,13123,1,0,0:0:0:0:
36,192,13209,1,0,0:0:0:0:
192,192,13209,1,0,0:0:0:0:
320,192,13381,1,0,0:0:0:0:
475,192,13552,1,0,0:0:0:0:
182,192,13723,1,0,0:0:0:0:
36,192,13723,1,0,0:0:0:0:
320,192,13895,1,0,0:0:0:0:
192,192,14066,1,0,0:0:0:0:
109,192,14238,1,0,0:0:0:0:
192,192,14409,1,0,0:0:0:0:
329,192,14495,1,0,0:0:0:0:
475,192,14581,1,0,0:0:0:0:
182,192,14581,1,0,0:0:0:0:
320,192,14752,1,0,0:0:0:0:
192,192,14923,1,0,0:0:0:0:
329,192,15095,1,0,0:0:0:0:
64,192,15095,1,0,0:0:0:0:
448,192,15266,1,0,0:0:0:0:
192,192,15438,1,0,0:0:0:0:
109,192,15609,1,0,0:0:0:0:
475,192,15609,1,0,0:0:0:0:
192,192,15781,1,0,0:0:0:0:
256,192,15866,1,0,0:0:0:0:
402,192,15952,1,0,0:0:0:0:
329,192,16038,1,0,0:0:0:0:
448,192,16123,1,0,0:0:0:0:
192,192,16123,1,0,0:0:0:0:
329,192,16295,1,0,0:0:0:0:
36,192,16295,1,0,0:0:0:0:
402,192,16466,1,0,0:0:0:0:
192,192,16466,1,0,0:0:0:0:
182,192,16638,1,0,0:0:0:0:
36,192,16638,1,0,0:0:0:0:
329,192,16809,1,0,0:0:0:0:
192,192,16981,1,0,0:0:0:0:
36,192,16981,1,0,0:0:0:0:
320,192,17152,1,0,0:0:0:0:
475,192,17323,1,0,0:0:0:0:
320,192,17323,1,0,0:0:0:0:
192,192,17495,1,0,0:0:0:0:
475,192,17666,1,0,0:0:0:0:
320,192,17666,1,0,0:0:0:0:
192,192,17838,1,0,0:0:0:0:
182,192,18009,1,0,0:0:0:0:
36,192,18009,1,0,0:0:0:0:
320,192,18181,1,0,0:0:0:0:
402,192,18181,1,0,0:0:0:0:
182,192,18352,1,0,0:0:0:0:
36,192,18352,1,0,0:0:0:0:
320,192,18523,1,0,0:0:0:0:
402,192,18523,1,0,0:0:0:0:
182,192,18695,1,0,0:0:0:0:
320,192,18695,1,0,0:0:0:0:
64,192,18866,1,0,0:0:0:0:
448,192,18866,1,0,0:0:0:0:
320,192,19038,1,0,0:0:0:0:
192,192,19038,1,0,0:0:0:0:
402,192,19209,1,0,0:0:0:0:
36,192,19209,1,0,0:0:0:0:
64,192,19381,1,0,0:0:0:0:
192,192,19381,1,0,0:0:0:0:
448,192,19466,1,0,0:0:0:0:
320,192,19466,1,0,0:0:0:0:
192,192,19552,1,0,0:0:0:0:
64,192,19552,1,0,0:0:0:0:
320,192,19638,1,0,0:0:0:0:
448,192,19638,1,0,0:0:0:0:
64,192,19723,1,0,0:0:0:0:
192,192,19723,1,0,0:0:0:0:
320,192,19809,1,0,0:0:0:0:
448,192,19809,1,0,0:0:0:0:
64,192,19895,1,0,0:0:0:0:
192,192,19895,1,0,0:0:0:0:
448,192,19981,1,0,0:0:0:0:
320,192,19981,1,0,0:0:0:0:
64,192,20066,1,0,0:0:0:0:
192,192,20066,1,0,0:0:0:0:
320,192,20152,1,0,0:0:0:0:
448,192,20152,1,0,0:0:0:0:
64,192,20238,1,0,0:0:0:0:
192,192,20238,1,0,0:0:0:0:
448,192,20323,1,0,0:0:0:0:
320,192,20323,1,0,0:0:0:0:
448,192,20409,1,0,0:0:0:0:
192,192,20409,1,0,0:0:0:0:
320,192,20495,1,0,0:0:0:0:
64,192,20495,1,0,0:0:0:0:
192,192,20581,1,0,0:0:0:0:
448,192,20581,1,0,0:0:0:0:
64,192,20666,1,0,0:0:0:0:
320,192,20666,1,0,0:0:0:0:
320,192,20752,1,0,0:0:0:0:
64,192,20752,1,0,0:0:0:0:
448,192,20752,1,0,0:0:0:0:
192,192,20838,1,0,0:0:0:0:
320,192,20923,1,0,0:0:0:0:
192,192,21009,1,0,0:0:0:0:
320,192,21095,1,0,0:0:0:0:
64,192,21095,1,0,0:0:0:0:
475,192,21095,1,0,0:0:0:0:
320,192,21181,1,0,0:0:0:0:
192,192,21266,1,0,0:0:0:0:
320,192,21352,1,0,0:0:0:0:
64,192,21438,1,0,0:0:0:0:
192,192,21438,1,0,0:0:0:0:
402,192,21438,1,0,0:0:0:0:
192,192,21523,1,0,0:0:0:0:
320,192,21609,1,0,0:0:0:0:
192,192,21695,1,0,0:0:0:0:
64,192,21781,1,0,0:0:0:0:
192,192,21866,1,0,0:0:0:0:
448,192,21952,1,0,0:0:0:0:
320,192,22038,1,0,0:0:0:0:
448,192,22123,1,0,0:0:0:0:
192,192,22123,1,0,0:0:0:0:
64,192,22123,1,0,0:0:0:0:
448,192,22295,1,0,0:0:0:0:
64,192,22295,1,0,0:0:0:0:
320,192,22295,1,0,0:0:0:0:
320,192,22638,1,0,0:0:0:0:
192,192,22638,1,0,0:0:0:0:
64,192,22638,1,0,0:0:0:0:
448,192,22809,1,0,0:0:0:0:
192,192,22809,1,0,0:0:0:0:
320,192,22809,1,0,0:0:0:0:
448,192,23152,1,0,0:0:0:0:
256,192,23152,1,0,0:0:0:0:
109,192,23152,1,0,0:0:0:0:
448,192,23323,1,0,0:0:0:0:
256,192,23323,1,0,0:0:0:0:
109,192,23323,1,0,0:0:0:0:
402,192,23666,1,0,0:0:0:0:
192,192,23666,1,0,0:0:0:0:
64,192,23666,1,0,0:0:0:0:
402,192,23838,1,0,0:0:0:0:
192,192,23838,1,0,0:0:0:0:
64,192,23838,1,0,0:0:0:0:
448,192,24181,1,0,0:0:0:0:
192,192,24181,1,0,0:0:0:0:
448,192,24352,1,0,0:0:0:0:
64,192,24352,1,0,0:0:0:0:
320,192,24438,1,0,0:0:0:0:
192,192,24523,1,0,0:0:0:0:
64,192,24523,1,0,0:0:0:0:
320,192,24609,1,0,0:0:0:0:
448,192,24609,1,0,0:0:0:0:
64,192,24695,1,0,0:0:0:0:
192,192,24695,1,0,0:0:0:0:
320,192,24866,1,0,0:0:0:0:
448,192,24866,1,0,0:0:0:0:
192,192,25038,128,0,25209:0:0:0:0:
64,192,25209,1,0,0:0:0:0:
320,192,25295,1,0,0:0:0:0:
192,192,25381,1,0,0:0:0:0:
329,192,25466,1,0,0:0:0:0:
448,192,25552,1,0,0:0:0:0:
64,192,25552,1,0,0:0:0:0:
256,192,25723,1,0,0:0:0:0:
448,192,25809,1,0,0:0:0:0:
320,192,25895,1,0,0:0:0:0:
192,192,26066,1,0,0:0:0:0:
36,192,26238,1,0,0:0:0:0:
182,192,26238,1,0,0:0:0:0:
320,192,26323,1,0,0:0:0:0:
182,192,26409,1,0,0:0:0:0:
256,192,26495,1,0,0:0:0:0:
192,192,26581,1,0,0:0:0:0:
320,192,26752,128,0,26923:0:0:0:0:
64,192,26923,1,0,0:0:0:0:
448,192,26923,1,0,0:0:0:0:
320,192,27095,1,0,0:0:0:0:
182,192,27266,1,0,0:0:0:0:
448,192,27438,1,0,0:0:0:0:
329,192,27523,1,0,0:0:0:0:
36,192,27609,1,0,0:0:0:0:
192,192,27609,1,0,0:0:0:0:
329,192,27781,1,0,0:0:0:0:
109,192,27952,1,0,0:0:0:0:
256,192,28123,1,0,0:0:0:0:
192,192,28209,1,0,0:0:0:0:
256,192,28295,1,0,0:0:0:0:
109,192,28295,1,0,0:0:0:0:
320,192,28466,1,0,0:0:0:0:
402,192,28552,1,0,0:0:0:0:
64,192,28638,128,0,28723:0:0:0:0:
192,192,28723,128,0,28809:0:0:0:0:
448,192,28809,128,0,28895:0:0:0:0:
64,192,28895,128,0,28981:0:0:0:0:
448,192,28981,1,0,0:0:0:0:
320,192,28981,1,0,0:0:0:0:
192,192,29152,1,0,0:0:0:0:
448,192,29323,1,0,0:0:0:0:
329,192,29409,1,0,0:0:0:0:
182,192,29495,1,0,0:0:0:0:
64,192,29581,1,0,0:0:0:0:
329,192,29666,1,0,0:0:0:0:
192,192,29752,1,0,0:0:0:0:
320,192,29838,1,0,0:0:0:0:
192,192,29923,1,0,0:0:0:0:
320,192,30009,1,0,0:0:0:0:
192,192,30095,1,0,0:0:0:0:
402,192,30181,1,0,0:0:0:0:
320,192,30181,1,0,0:0:0:0:
109,192,30181,1,0,0:0:0:0:
192,192,30352,1,0,0:0:0:0:
320,192,30523,1,0,0:0:0:0:
256,192,30695,1,0,0:0:0:0:
64,192,30781,1,0,0:0:0:0:
192,192,30866,1,0,0:0:0:0:
320,192,30952,1,0,0:0:0:0:
109,192,31038,1,0,0:0:0:0:
448,192,31038,1,0,0:0:0:0:
256,192,31209,1,0,0:0:0:0:
192,192,31381,1,0,0:0:0:0:
475,192,31552,1,0,0:0:0:0:
329,192,31638,1,0,0:0:0:0:
36,192,31723,1,0,0:0:0:0:
182,192,31723,1,0,0:0:0:0:
329,192,31809,1,0,0:0:0:0:
475,192,31895,1,0,0:0:0:0:
329,192,31981,1,0,0:0:0:0:
192,192,32066,1,0,0:0:0:0:
256,192,32238,1,0,0:0:0:0:
109,192,32238,1,0,0:0:0:0:
448,192,32409,1,0,0:0:0:0:
36,192,32581,1,0,0:0:0:0:
192,192,32581,1,0,0:0:0:0:
256,192,32666,1,0,0:0:0:0:
448,192,32752,1,0,0:0:0:0:
256,192,32923,1,0,0:0:0:0:
192,192,33009,1,0,0:0:0:0:
36,192,33095,1,0,0:0:0:0:
320,192,33266,1,0,0:0:0:0:
64,192,33438,1,0,0:0:0:0:
182,192,33609,1,0,0:0:0:0:
329,192,33695,1,0,0:0:0:0:
448,192,33781,1,0,0:0:0:0:
64,192,33781,1,0,0:0:0:0:
320,192,33952,1,0,0:0:0:0:
448,192,34038,1,0,0:0:0:0:
320,192,34123,1,0,0:0:0:0:
64,192,34295,1,0,0:0:0:0:
192,192,34295,1,0,0:0:0:0:
448,192,34295,1,0,0:0:0:0:
64,192,34638,1,0,0:0:0:0:
192,192,34723,1,0,0:0:0:0:
448,192,34809,1,0,0:0:0:0:
320,192,34895,1,0,0:0:0:0:
64,192,34981,1,0,0:0:0:0:
182,192,34981,1,0,0:0:0:0:
448,192,34981,1,0,0:0:0:0:
320,192,35066,1,0,0:0:0:0:
64,192,35152,1,0,0:0:0:0:
192,192,35238,1,0,0:0:0:0:
402,192,35323,1,0,0:0:0:0:
256,192,35323,1,0,0:0:0:0:
64,192,35323,1,0,0:0:0:0:
192,192,35409,1,0,0:0:0:0:
448,192,35495,1,0,0:0:0:0:
320,192,35581,1,0,0:0:0:0:
475,192,35666,1,0,0:0:0:0:
36,192,35666,1,0,0:0:0:0:
192,192,35666,1,0,0:0:0:0:
448,192,35838,1,0,0:0:0:0:
192,192,36009,128,0,36181:0:0:0:0:
109,192,36352,1,0,0:0:0:0:
192,192,36438,1,0,0:0:0:0:
448,192,36523,1,0,0:0:0:0:
320,192,36523,1,0,0:0:0:0:
64,192,36695,1,0,0:0:0:0:
192,192,36781,1,0,0:0:0:0:
329,192,36866,1,0,0:0:0:0:
182,192,37038,1,0,0:0:0:0:
256,192,37209,1,0,0:0:0:0:
36,192,37209,1,0,0:0:0:0:
448,192,37381,1,0,0:0:0:0:
320,192,37466,1,0,0:0:0:0:
192,192,37552,1,0,0:0:0:0:
36,192,37552,1,0,0:0:0:0:
320,192,37723,1,0,0:0:0:0:
475,192,37895,1,0,0:0:0:0:
182,192,37895,1,0,0:0:0:0:
36,192,38066,1,0,0:0:0:0:
182,192,38238,1,0,0:0:0:0:
475,192,38409,1,0,0:0:0:0:
109,192,38409,1,0,0:0:0:0:
329,192,38495,1,0,0:0:0:0:
402,192,38581,1,0,0:0:0:0:
36,192,38581,1,0,0:0:0:0:
192,192,38752,1,0,0:0:0:0:
402,192,38923,1,0,0:0:0:0:
320,192,38923,1,0,0:0:0:0:
402,192,39095,1,0,0:0:0:0:
320,192,39181,1,0,0:0:0:0:
475,192,39266,1,0,0:0:0:0:
192,192,39266,1,0,0:0:0:0:
329,192,39438,1,0,0:0:0:0:
64,192,39523,1,0,0:0:0:0:
475,192,39609,1,0,0:0:0:0:
320,192,39695,1,0,0:0:0:0:
448,192,39781,1,0,0:0:0:0:
320,192,39866,1,0,0:0:0:0:
192,192,39952,1,0,0:0:0:0:
64,192,39952,1,0,0:0:0:0:
192,192,40123,1,0,0:0:0:0:
320,192,40295,1,0,0:0:0:0:
192,192,40381,1,0,0:0:0:0:
448,192,40466,1,0,0:0:0:0:
320,192,40552,1,0,0:0:0:0:
64,192,40638,1,0,0:0:0:0:
192,192,40638,1,0,0:0:0:0:
64,192,40809,1,0,0:0:0:0:
475,192,40981,1,0,0:0:0:0:
192,192,40981,1,0,0:0:0:0:
329,192,41066,1,0,0:0:0:0:
182,192,41152,1,0,0:0:0:0:
36,192,41152,1,0,0:0:0:0:
36,192,41323,1,0,0:0:0:0:
192,192,41495,1,0,0:0:0:0:
64,192,41666,1,0,0:0:0:0:
448,192,41752,1,0,0:0:0:0:
320,192,41838,1,0,0:0:0:0:
64,192,41923,1,0,0:0:0:0:
256,192,42009,1,0,0:0:0:0:
192,192,42009,1,0,0:0:0:0:
64,192,42181,1,0,0:0:0:0:
256,192,42181,1,0,0:0:0:0:
192,192,42352,1,0,0:0:0:0:
448,192,42352,1,0,0:0:0:0:
64,192,42523,1,0,0:0:0:0:
320,192,42609,1,0,0:0:0:0:
192,192,42695,1,0,0:0:0:0:
448,192,42781,1,0,0:0:0:0:
64,192,42866,1,0,0:0:0:0:
448,192,42952,1,0,0:0:0:0:
320,192,43038,1,0,0:0:0:0:
192,192,43038,1,0,0:0:0:0:
256,192,43209,1,0,0:0:0:0:
402,192,43381,1,0,0:0:0:0:
182,192,43381,1,0,0:0:0:0:
192,192,43552,1,0,0:0:0:0:
64,192,43638,1,0,0:0:0:0:
320,192,43723,1,0,0:0:0:0:
192,192,43723,1,0,0:0:0:0:
320,192,43895,1,0,0:0:0:0:
64,192,43895,1,0,0:0:0:0:
448,192,43981,1,0,0:0:0:0:
192,192,43981,1,0,0:0:0:0:
320,192,44066,1,0,0:0:0:0:
448,192,44238,1,0,0:0:0:0:
320,192,44323,1,0,0:0:0:0:
64,192,44409,1,0,0:0:0:0:
182,192,44495,1,0,0:0:0:0:
320,192,44581,1,0,0:0:0:0:
448,192,44666,1,0,0:0:0:0:
192,192,44752,1,0,0:0:0:0:
64,192,44752,1,0,0:0:0:0:
320,192,44923,1,0,0:0:0:0:
192,192,45009,1,0,0:0:0:0:
448,192,45095,1,0,0:0:0:0:
320,192,45095,1,0,0:0:0:0:
64,192,45266,1,0,0:0:0:0:
320,192,45323,1,0,0:0:0:0:
192,192,45381,1,0,0:0:0:0:
64,192,45438,1,0,0:0:0:0:
448,192,45438,128,0,45609:0:0:0:0:
192,192,45609,128,0,45781:0:0:0:0:
320,192,45609,1,0,0:0:0:0:
448,192,45781,1,0,0:0:0:0:
64,192,45781,128,0,45952:0:0:0:0:
192,192,45952,1,0,0:0:0:0:
448,192,45952,128,0,46123:0:0:0:0:
192,192,46123,128,0,46209:0:0:0:0:
320,192,46209,128,0,46295:0:0:0:0:
192,192,46295,128,0,46381:0:0:0:0:
320,192,46381,128,0,46466:0:0:0:0:
64,192,46466,128,0,46552:0:0:0:0:
448,192,46552,128,0,46638:0:0:0:0:
64,192,46638,128,0,46723:0:0:0:0:
448,192,46723,128,0,46809:0:0:0:0:
320,192,46809,1,0,0:0:0:0:
192,192,46809,1,0,0:0:0:0:
109,192,48009,1,0,0:0:0:0:
256,192,48009,1,0,0:0:0:0:
475,192,49381,1,0,0:0:0:0:
329,192,49381,1,0,0:0:0:0:
109,192,50752,1,0,0:0:0:0:
256,192,50752,1,0,0:0:0:0:
475,192,52123,1,0,0:0:0:0:
320,192,52209,1,0,0:0:0:0:
192,192,52295,1,0,0:0:0:0:
64,192,52295,1,0,0:0:0:0:
192,192,53495,1,0,0:0:0:0:
320,192,53495,1,0,0:0:0:0:
475,192,54866,1,0,0:0:0:0:
329,192,54866,1,0,0:0:0:0:
109,192,56238,1,0,0:0:0:0:
256,192,56238,1,0,0:0:0:0:
448,192,57438,1,0,0:0:0:0:
256,192,57609,1,0,0:0:0:0:
192,192,57695,1,0,0:0:0:0:
109,192,57781,1,0,0:0:0:0:
448,192,57781,128,0,58123:0:0:0:0:
256,192,58123,1,0,0:0:0:0:
402,192,58295,1,0,0:0:0:0:
109,192,58466,1,0,0:0:0:0:
329,192,58638,1,0,0:0:0:0:
192,192,58809,1,0,0:0:0:0:
402,192,58981,1,0,0:0:0:0:
64,192,58981,128,0,59152:0:0:0:0:
192,192,59152,1,0,0:0:0:0:
182,192,59323,1,0,0:0:0:0:
320,192,59495,1,0,0:0:0:0:
36,192,59666,1,0,0:0:0:0:
182,192,59838,1,0,0:0:0:0:
329,192,60009,1,0,0:0:0:0:
402,192,60181,1,0,0:0:0:0:
448,192,60352,128,0,61209:0:0:0:0:
64,192,60352,1,0,0:0:0:0:
192,192,60438,1,0,0:0:0:0:
320,192,60523,1,0,0:0:0:0:
192,192,60695,1,0,0:0:0:0:
320,192,60866,1,0,0:0:0:0:
192,192,61038,1,0,0:0:0:0:
320,192,61209,1,0,0:0:0:0:
64,192,61381,1,0,0:0:0:0:
64,192,61552,1,0,0:0:0:0:
192,192,61638,1,0,0:0:0:0:
448,192,61723,1,0,0:0:0:0:
329,192,61723,128,0,62238:0:0:0:0:
192,192,61895,1,0,0:0:0:0:
448,192,61895,1,0,0:0:0:0:
64,192,62066,1,0,0:0:0:0:
64,192,62238,1,0,0:0:0:0:
192,192,62323,1,0,0:0:0:0:
448,192,62409,128,0,62923:0:0:0:0:
320,192,62409,1,0,0:0:0:0:
192,192,62581,1,0,0:0:0:0:
320,192,62752,1,0,0:0:0:0:
320,192,62923,1,0,0:0:0:0:
109,192,63095,1,0,0:0:0:0:
448,192,63095,128,0,63266:0:0:0:0:
192,192,63181,1,0,0:0:0:0:
320,192,63266,1,0,0:0:0:0:
192,192,63438,1,0,0:0:0:0:
448,192,63438,1,0,0:0:0:0:
256,192,63609,1,0,0:0:0:0:
182,192,63781,1,0,0:0:0:0:
448,192,63781,1,0,0:0:0:0:
192,192,63952,1,0,0:0:0:0:
320,192,64123,1,0,0:0:0:0:
64,192,64123,1,0,0:0:0:0:
192,192,64295,1,0,0:0:0:0:
320,192,64466,1,0,0:0:0:0:
64,192,64466,1,0,0:0:0:0:
402,192,64638,1,0,0:0:0:0:
192,192,64638,1,0,0:0:0:0:
320,192,64809,1,0,0:0:0:0:
64,192,64809,1,0,0:0:0:0:
192,192,64981,1,0,0:0:0:0:
402,192,64981,1,0,0:0:0:0:
320,192,65152,1,0,0:0:0:0:
64,192,65152,1,0,0:0:0:0:
320,192,65323,1,0,0:0:0:0:
192,192,65323,1,0,0:0:0:0:
192,192,65495,1,0,0:0:0:0:
329,192,65495,1,0,0:0:0:0:
320,192,65666,1,0,0:0:0:0:
192,192,65666,1,0,0:0:0:0:
320,192,65838,1,0,0:0:0:0:
192,192,65838,1,0,0:0:0:0:
36,192,66009,1,0,0:0:0:0:
192,192,66009,1,0,0:0:0:0:
448,192,66095,1,0,0:0:0:0:
320,192,66095,1,0,0:0:0:0:
36,192,66181,1,0,0:0:0:0:
192,192,66181,1,0,0:0:0:0:
448,192,66266,1,0,0:0:0:0:
320,192,66266,1,0,0:0:0:0:
36,192,66352,1,0,0:0:0:0:
192,192,66352,1,0,0:0:0:0:
448,192,66438,1,0,0:0:0:0:
320,192,66438,1,0,0:0:0:0:
36,192,66523,1,0,0:0:0:0:
192,192,66523,1,0,0:0:0:0:
448,192,66609,1,0,0:0:0:0:
320,192,66609,1,0,0:0:0:0:
192,192,66695,1,0,0:0:0:0:
36,192,66695,1,0,0:0:0:0:
320,192,66781,1,0,0:0:0:0:
448,192,66781,1,0,0:0:0:0:
36,192,66866,1,0,0:0:0:0:
192,192,66866,1,0,0:0:0:0:
448,192,66952,1,0,0:0:0:0:
329,192,66952,1,0,0:0:0:0:
448,192,67038,1,0,0:0:0:0:
320,192,67123,1,0,0:0:0:0:
192,192,67209,1,0,0:0:0:0:
475,192,67209,128,0,68238:0:0:0:0:
64,192,67295,1,0,0:0:0:0:
192,192,67381,1,0,0:0:0:0:
320,192,67381,128,0,68238:0:0:0:0:
36,192,67723,1,0,0:0:0:0:
192,192,67723,128,0,68238:0:0:0:0:
64,192,68066,128,0,68238:0:0:0:0:
36,192,68409,1,0,0:0:0:0:
192,192,68495,1,0,0:0:0:0:
448,192,68581,1,0,0:0:0:0:
320,192,68666,1,0,0:0:0:0:
475,192,68752,1,0,0:0:0:0:
64,192,68752,1,0,0:0:0:0:
182,192,69095,1,0,0:0:0:0:
475,192,69095,1,0,0:0:0:0:
64,192,69266,1,0,0:0:0:0:
182,192,69352,1,0,0:0:0:0:
64,192,69438,1,0,0:0:0:0:
64,192,69609,1,0,0:0:0:0:
320,192,69609,1,0,0:0:0:0:
182,192,69781,1,0,0:0:0:0:
402,192,69781,1,0,0:0:0:0:
64,192,69952,1,0,0:0:0:0:
256,192,69952,128,0,70123:0:0:0:0:
475,192,70123,1,0,0:0:0:0:
64,192,70123,1,0,0:0:0:0:
182,192,70295,1,0,0:0:0:0:
402,192,70295,1,0,0:0:0:0:
320,192,70381,1,0,0:0:0:0:
475,192,70466,1,0,0:0:0:0:
329,192,70552,1,0,0:0:0:0:
402,192,70638,1,0,0:0:0:0:
329,192,70723,1,0,0:0:0:0:
192,192,70809,1,0,0:0:0:0:
320,192,70895,1,0,0:0:0:0:
192,192,70981,1,0,0:0:0:0:
64,192,71066,1,0,0:0:0:0:
192,192,71152,1,0,0:0:0:0:
329,192,71238,1,0,0:0:0:0:
402,192,71323,128,0,71495:0:0:0:0:
36,192,71495,1,0,0:0:0:0:
256,192,71495,1,0,0:0:0:0:
475,192,71666,1,0,0:0:0:0:
182,192,71666,1,0,0:0:0:0:
64,192,71838,1,0,0:0:0:0:
329,192,71838,1,0,0:0:0:0:
475,192,71838,1,0,0:0:0:0:
329,192,72009,1,0,0:0:0:0:
402,192,72095,1,0,0:0:0:0:
329,192,72181,1,0,0:0:0:0:
320,192,72352,1,0,0:0:0:0:
64,192,72352,1,0,0:0:0:0:
402,192,72352,1,0,0:0:0:0:
475,192,72523,1,0,0:0:0:0:
192,192,72523,1,0,0:0:0:0:
64,192,72523,1,0,0:0:0:0:
182,192,72695,1,0,0:0:0:0:
402,192,72695,128,0,72866:0:0:0:0:
36,192,72866,1,0,0:0:0:0:
64,192,73038,1,0,0:0:0:0:
320,192,73038,1,0,0:0:0:0:
192,192,73123,1,0,0:0:0:0:
448,192,73209,1,0,0:0:0:0:
320,192,73209,1,0,0:0:0:0:
192,192,73295,1,0,0:0:0:0:
320,192,73381,1,0,0:0:0:0:
64,192,73381,1,0,0:0:0:0:
192,192,73466,1,0,0:0:0:0:
320,192,73552,1,0,0:0:0:0:
448,192,73552,1,0,0:0:0:0:
192,192,73638,1,0,0:0:0:0:
64,192,73723,1,0,0:0:0:0:
320,192,73723,1,0,0:0:0:0:
192,192,73809,1,0,0:0:0:0:
448,192,73895,1,0,0:0:0:0:
320,192,73895,1,0,0:0:0:0:
192,192,73981,1,0,0:0:0:0:
64,192,74066,1,0,0:0:0:0:
320,192,74066,1,0,0:0:0:0:
192,192,74152,1,0,0:0:0:0:
448,192,74238,128,0,74923:0:0:0:0:
64,192,74238,128,0,74923:0:0:0:0:
320,192,74238,1,0,0:0:0:0:
320,192,74581,1,0,0:0:0:0:
192,192,74923,1,0,0:0:0:0:
448,192,75095,1,0,0:0:0:0:
192,192,75095,128,0,75266:0:0:0:0:
64,192,75266,1,0,0:0:0:0:
320,192,75266,128,0,75438:0:0:0:0:
402,192,75438,1,0,0:0:0:0:
64,192,75438,128,0,76123:0:0:0:0:
320,192,75609,1,0,0:0:0:0:
192,192,75781,1,0,0:0:0:0:
256,192,75952,1,0,0:0:0:0:
448,192,76123,1,0,0:0:0:0:
192,192,76123,128,0,76466:0:0:0:0:
448,192,76295,1,0,0:0:0:0:
320,192,76381,1,0,0:0:0:0:
475,192,76466,1,0,0:0:0:0:
64,192,76466,128,0,76809:0:0:0:0:
192,192,76638,1,0,0:0:0:0:
320,192,76809,1,0,0:0:0:0:
192,192,76809,128,0,77323:0:0:0:0:
36,192,76981,1,0,0:0:0:0:
475,192,76981,1,0,0:0:0:0:
320,192,77152,1,0,0:0:0:0:
36,192,77323,1,0,0:0:0:0:
448,192,77323,1,0,0:0:0:0:
402,192,77495,1,0,0:0:0:0:
182,192,77495,128,0,77838:0:0:0:0:
329,192,77581,1,0,0:0:0:0:
475,192,77666,1,0,0:0:0:0:
64,192,77838,1,0,0:0:0:0:
329,192,77838,128,0,78181:0:0:0:0:
192,192,78009,1,0,0:0:0:0:
475,192,78009,1,0,0:0:0:0:
64,192,78181,1,0,0:0:0:0:
448,192,78181,128,0,78523:0:0:0:0:
256,192,78352,1,0,0:0:0:0:
192,192,78352,1,0,0:0:0:0:
64,192,78523,1,0,0:0:0:0:
320,192,78695,1,0,0:0:0:0:
192,192,78781,1,0,0:0:0:0:
256,192,78866,1,0,0:0:0:0:
64,192,78866,1,0,0:0:0:0:
448,192,78952,1,0,0:0:0:0:
192,192,79038,1,0,0:0:0:0:
448,192,79123,1,0,0:0:0:0:
320,192,79209,1,0,0:0:0:0:
64,192,79295,1,0,0:0:0:0:
402,192,79381,1,0,0:0:0:0:
192,192,79466,1,0,0:0:0:0:
320,192,79552,1,0,0:0:0:0:
64,192,79638,1,0,0:0:0:0:
448,192,79723,128,0,79895:0:0:0:0:
320,192,79723,1,0,0:0:0:0:
192,192,79723,1,0,0:0:0:0:
320,192,79895,1,0,0:0:0:0:
64,192,80066,1,0,0:0:0:0:
192,192,80066,1,0,0:0:0:0:
64,192,80238,1,0,0:0:0:0:
320,192,80323,1,0,0:0:0:0:
64,192,80409,128,0,80581:0:0:0:0:
192,192,80409,1,0,0:0:0:0:
192,192,80581,1,0,0:0:0:0:
448,192,80666,1,0,0:0:0:0:
320,192,80752,1,0,0:0:0:0:
64,192,80923,1,0,0:0:0:0:
448,192,80923,128,0,81609:0:0:0:0:
320,192,81095,1,0,0:0:0:0:
64,192,81266,1,0,0:0:0:0:
192,192,81266,1,0,0:0:0:0:
64,192,81438,1,0,0:0:0:0:
182,192,81438,1,0,0:0:0:0:
320,192,81438,1,0,0:0:0:0:
64,192,81609,1,0,0:0:0:0:
192,192,81695,1,0,0:0:0:0:
256,192,81781,1,0,0:0:0:0:
448,192,81866,1,0,0:0:0:0:
329,192,81952,1,0,0:0:0:0:
192,192,82038,1,0,0:0:0:0:
64,192,82123,1,0,0:0:0:0:
192,192,82209,1,0,0:0:0:0:
320,192,82295,1,0,0:0:0:0:
192,192,82381,1,0,0:0:0:0:
64,192,82466,1,0,0:0:0:0:
320,192,82466,128,0,83323:0:0:0:0:
192,192,82638,1,0,0:0:0:0:
448,192,82638,1,0,0:0:0:0:
64,192,82809,1,0,0:0:0:0:
192,192,82809,1,0,0:0:0:0:
64,192,82981,1,0,0:0:0:0:
448,192,82981,1,0,0:0:0:0:
192,192,83152,1,0,0:0:0:0:
448,192,83152,1,0,0:0:0:0:
64,192,83323,128,0,83495:0:0:0:0:
192,192,83323,1,0,0:0:0:0:
192,192,83495,128,0,83666:0:0:0:0:
320,192,83495,1,0,0:0:0:0:
64,192,83666,1,0,0:0:0:0:
320,192,83666,128,0,84009:0:0:0:0:
192,192,83838,1,0,0:0:0:0:
64,192,84009,1,0,0:0:0:0:
192,192,84095,1,0,0:0:0:0:
320,192,84181,1,0,0:0:0:0:
448,192,84181,1,0,0:0:0:0:
192,192,84266,1,0,0:0:0:0:
64,192,84352,1,0,0:0:0:0:
192,192,84438,1,0,0:0:0:0:
320,192,84523,1,0,0:0:0:0:
448,192,84523,1,0,0:0:0:0:
192,192,84609,1,0,0:0:0:0:
64,192,84695,1,0,0:0:0:0:
192,192,84781,1,0,0:0:0:0:
320,192,84866,1,0,0:0:0:0:
448,192,84866,1,0,0:0:0:0:
64,192,84952,1,0,0:0:0:0:
320,192,85038,128,0,85723:0:0:0:0:
192,192,85038,1,0,0:0:0:0:
448,192,85123,1,0,0:0:0:0:
192,192,85209,128,0,85381:0:0:0:0:
64,192,85209,1,0,0:0:0:0:
448,192,85381,128,0,85552:0:0:0:0:
64,192,85552,128,0,85723:0:0:0:0:
192,192,85723,1,0,0:0:0:0:
36,192,86066,1,0,0:0:0:0:
402,192,86066,1,0,0:0:0:0:
192,192,86066,128,0,86238:0:0:0:0:
256,192,86238,1,0,0:0:0:0:
64,192,86238,128,0,86409:0:0:0:0:
402,192,86409,1,0,0:0:0:0:
192,192,86409,128,0,87095:0:0:0:0:
320,192,86495,1,0,0:0:0:0:
475,192,86581,1,0,0:0:0:0:
320,192,86752,1,0,0:0:0:0:
448,192,86838,1,0,0:0:0:0:
320,192,86923,1,0,0:0:0:0:
402,192,87095,1,0,0:0:0:0:
36,192,87095,128,0,87438:0:0:0:0:
320,192,87181,1,0,0:0:0:0:
192,192,87266,1,0,0:0:0:0:
320,192,87352,1,0,0:0:0:0:
402,192,87438,1,0,0:0:0:0:
182,192,87438,128,0,87781:0:0:0:0:
320,192,87609,1,0,0:0:0:0:
402,192,87781,1,0,0:0:0:0:
329,192,87781,128,0,88295:0:0:0:0:
192,192,87866,1,0,0:0:0:0:
64,192,87952,1,0,0:0:0:0:
192,192,88038,1,0,0:0:0:0:
402,192,88123,1,0,0:0:0:0:
192,192,88209,1,0,0:0:0:0:
64,192,88295,1,0,0:0:0:0:
192,192,88381,1,0,0:0:0:0:
64,192,88466,128,0,88552:0:0:0:0:
192,192,88552,128,0,88638:0:0:0:0:
320,192,88638,128,0,88723:0:0:0:0:
448,192,88723,128,0,88809:0:0:0:0:
320,192,88809,128,0,88895:0:0:0:0:
192,192,88895,128,0,88981:0:0:0:0:
64,192,88981,128,0,89066:0:0:0:0:
320,192,88981,128,0,89066:0:0:0:0:
192,192,89066,128,0,89152:0:0:0:0:
448,192,89066,128,0,89152:0:0:0:0:
64,192,89152,128,0,89238:0:0:0:0:
320,192,89152,128,0,89238:0:0:0:0:
192,192,89238,128,0,89323:0:0:0:0:
448,192,89323,128,0,90009:0:0:0:0:
36,192,89323,1,0,0:0:0:0:
320,192,89409,1,0,0:0:0:0:
64,192,89495,1,0,0:0:0:0:
192,192,89581,1,0,0:0:0:0:
64,192,89666,1,0,0:0:0:0:
192,192,89752,1,0,0:0:0:0:
64,192,89838,1,0,0:0:0:0:
192,192,89923,1,0,0:0:0:0:
64,192,90009,1,0,0:0:0:0:
192,192,90095,1,0,0:0:0:0:
64,192,90181,1,0,0:0:0:0:
448,192,90181,1,0,0:0:0:0:
192,192,90266,1,0,0:0:0:0:
448,192,90352,1,0,0:0:0:0:
320,192,90352,1,0,0:0:0:0:
192,192,90438,1,0,0:0:0:0:
320,192,90523,1,0,0:0:0:0:
448,192,90523,1,0,0:0:0:0:
192,192,90609,1,0,0:0:0:0:
475,192,90695,1,0,0:0:0:0:
329,192,90695,1,0,0:0:0:0:
36,192,90695,1,0,0:0:0:0:
36,192,91895,1,0,0:0:0:0:
182,192,91895,1,0,0:0:0:0:
256,192,93266,1,0,0:0:0:0:
402,192,93266,1,0,0:0:0:0:
256,192,94638,1,0,0:0:0:0:
109,192,94638,1,0,0:0:0:0:
402,192,96009,1,0,0:0:0:0:
256,192,96095,1,0,0:0:0:0:
109,192,96181,1,0,0:0:0:0:
36,192,97381,1,0,0:0:0:0:
182,192,97381,1,0,0:0:0:0:
475,192,98752,1,0,0:0:0:0:
329,192,98752,1,0,0:0:0:0:
329,192,100123,1,0,0:0:0:0:
182,192,100123,1,0,0:0:0:0:
256,192,101666,128,0,102866:0:0:0:0:
402,192,101666,128,0,102866:0:0:0:0:
36,192,102866,128,0,104238:0:0:0:0:
182,192,102866,128,0,104238:0:0:0:0:
329,192,104238,128,0,105609:0:0:0:0:
402,192,105609,128,0,106981:0:0:0:0:
109,192,105609,128,0,106981:0:0:0:0:
256,192,106981,1,0,0:0:0:0:
182,192,107066,1,0,0:0:0:0:
256,192,107152,128,0,108352:0:0:0:0:
192,192,108352,128,0,109723:0:0:0:0:
475,192,108352,128,0,109723:0:0:0:0:
64,192,109723,128,0,111095:0:0:0:0:
448,192,111095,128,0,112295:0:0:0:0:
192,192,111095,128,0,112295:0:0:0:0:
109,192,112295,1,0,0:0:0:0:
192,192,112381,1,0,0:0:0:0:
320,192,112466,1,0,0:0:0:0:
448,192,112552,1,0,0:0:0:0:
36,192,112638,1,0,0:0:0:0:
182,192,112638,1,0,0:0:0:0:
