osu file format v8

[General]
AudioFilename: peak of hope.mp3
AudioLeadIn: 0
PreviewTime: 91624
Countdown: 1
SampleSet: Soft
StackLeniency: 0.7
Mode: 0
LetterboxInBreaks: 1

[Editor]
DistanceSpacing: 1
BeatDivisor: 8
GridSize: 8

[Metadata]
Title:Peak of hope (Full Ver.)
Artist:Strawberry Jam
Creator:Drafura
Version:Normal
Source:Spiral
Tags:Kibouhou Cape of Hope

[Difficulty]
HPDrainRate:3
CircleSize:4
OverallDifficulty:5
ApproachRate:5
SliderMultiplier:1.5
SliderTickRate:2

[Events]
//Background and Video events
0,0,"spiral_8.jpg"
//Break Periods
2,27326,33549
2,55804,60092
2,111418,116022
2,167032,171320
//Storyboard Layer 0 (Background)
//Storyboard Layer 1 (Fail)
//Storyboard Layer 2 (Pass)
//Storyboard Layer 3 (Foreground)
//Storyboard Sound Samples
//Background Colour Transformations
3,100,163,162,255

[TimingPoints]
7181,733.207317073171,4,2,1,90,1,0
8647,-200,4,2,1,90,0,0
26244,882.352941176471,4,2,1,90,1,0
34749,631.978091426164,4,2,1,90,1,0
36010,-100,4,2,1,90,0,0
36562,-100,4,1,1,80,0,1
37510,-100,4,2,1,90,0,1
38142,-100,4,1,1,80,0,1
38774,-100,4,2,1,90,0,1
39406,-100,4,1,1,80,0,1
40038,-100,4,2,1,90,0,1
40670,-100,4,1,1,80,0,1
41302,-100,4,2,1,90,0,1
41934,-100,4,1,1,80,0,1
42566,-100,4,2,1,90,0,1
43198,-100,4,1,1,80,0,1
43830,-100,4,2,1,90,0,1
44462,-100,4,1,1,80,0,1
45094,-100,4,2,1,90,0,1
45726,-100,4,1,1,80,0,1
46358,-100,4,2,1,90,0,1
46990,-100,4,1,1,80,0,1
47622,-100,4,2,1,90,0,1
48254,-100,4,1,1,80,0,1
48886,-100,4,2,1,90,0,1
49518,-100,4,1,1,80,0,1
50150,-100,4,2,1,90,0,1
50782,-100,4,1,1,80,0,1
56154,-100,4,2,1,90,0,0
80169,-100,4,1,1,80,0,0
81433,-100,4,2,1,90,0,0
82065,-100,4,1,1,80,0,0
82381,-100,4,1,1,70,0,0
82697,-100,4,2,1,90,0,0
82776,-100,4,2,1,90,0,0
83329,-100,4,1,1,80,0,0
83645,-100,4,1,1,70,0,0
83961,-100,4,2,1,90,0,0
84040,-100,4,2,1,90,0,0
86489,-100,4,1,1,80,0,0
86805,-100,4,2,1,90,0,0
87121,-100,4,1,1,80,0,0
87437,-100,4,2,1,90,0,0
87753,-100,4,1,1,80,0,0
88069,-100,4,2,1,90,0,0
88385,-100,4,1,1,80,0,0
88701,-100,4,2,1,90,0,0
89017,-100,4,1,1,80,0,0
89333,-100,4,1,1,70,0,0
89649,-100,4,1,1,80,0,0
90281,-100,4,1,1,80,0,1
93125,-100,4,1,1,70,0,1
93441,-100,4,2,1,90,0,1
93756,-100,4,1,1,80,0,1
94388,-100,4,2,1,90,0,1
95020,-100,4,1,1,80,0,1
95652,-100,4,2,1,90,0,1
96600,-100,4,1,1,80,0,1
96916,-100,4,1,1,70,0,1
97232,-100,4,2,1,90,0,1
97548,-100,4,1,1,80,0,1
98180,-100,4,2,1,90,0,1
99128,-100,4,1,1,80,0,1
99444,-100,4,1,1,70,0,1
99602,-100,4,2,1,90,0,1
100076,-100,4,2,1,90,0,1
100234,-100,4,1,1,80,0,1
100708,-100,4,1,1,70,0,1
100866,-100,4,2,1,90,0,1
101340,-100,4,2,1,90,0,1
102288,-100,4,1,1,80,0,1
103236,-100,4,1,1,70,0,1
103394,-100,4,2,1,90,0,1
103868,-100,4,1,1,80,0,1
104500,-100,4,1,1,70,0,1
104658,-100,4,1,1,80,0,1
104816,-100,4,1,1,70,0,1
105132,-100,4,1,1,80,0,0
105764,-100,4,1,1,70,0,1
105922,-100,4,2,1,90,0,1
106712,-100,4,1,1,80,0,1
107028,-100,4,1,1,70,0,1
107186,-100,4,1,1,80,0,1
107344,-100,4,1,1,70,0,1
107502,-100,4,1,1,80,0,1
111847,-100,4,2,1,90,0,0
124723,-100,4,1,1,70,0,0
124881,-100,4,2,1,90,0,0
125355,-100,4,1,1,70,0,0
125513,-100,4,2,1,90,0,0
127883,-100,4,1,1,70,0,0
128041,-100,4,2,1,90,0,0
128515,-100,4,1,1,70,0,0
128673,-100,4,2,1,90,0,0
135783,-100,4,1,1,80,0,0
137047,-100,4,2,1,90,0,0
137679,-100,4,1,1,80,0,0
137995,-100,4,1,1,70,0,0
138153,-100,4,2,1,90,0,0
138390,-100,4,2,1,90,0,0
138943,-100,4,1,1,80,0,0
139259,-100,4,1,1,70,0,0
139417,-100,4,2,1,90,0,0
139654,-100,4,2,1,90,0,0
142103,-100,4,1,1,80,0,0
142419,-100,4,2,1,70,0,0
142735,-100,4,1,1,80,0,0
143051,-100,4,2,1,90,0,0
143367,-100,4,1,1,80,0,0
143683,-100,4,2,1,90,0,0
143999,-100,4,1,1,80,0,0
144315,-100,4,2,1,90,0,0
144631,-100,4,1,1,80,0,0
144947,-100,4,1,1,70,0,0
145105,-100,4,1,1,80,0,0
145895,-100,4,1,1,80,0,0
147241,-100,4,1,1,80,0,1
148739,-100,4,1,1,70,0,1
148897,-100,4,2,1,90,0,1
149687,-100,4,1,1,80,0,1
150003,-100,4,1,1,70,0,1
150319,-100,4,2,1,90,0,1
150635,-100,4,1,1,80,0,1
151267,-100,4,2,1,90,0,1
151898,-100,4,1,1,80,0,1
152530,-100,4,1,1,70,0,1
152846,-100,4,2,1,90,0,1
153478,-100,4,1,1,80,0,1
153794,-100,4,1,1,70,0,1
154110,-100,4,2,1,90,0,1
154426,-100,4,1,1,80,0,1
155058,-100,4,1,1,70,0,1
155374,-100,4,2,1,90,0,1
155690,-100,4,1,1,80,0,1
156322,-100,4,1,1,70,0,1
156638,-100,4,2,1,90,0,1
156954,-100,4,1,1,80,0,1
157586,-100,4,2,1,90,0,1
158218,-100,4,1,1,80,0,1
158850,-100,4,1,1,70,0,1
159008,-100,4,2,1,90,0,1
159798,-100,4,1,1,80,0,1
159956,-100,4,2,1,90,0,1
160430,-100,4,1,1,80,0,1
161378,-100,4,1,1,70,0,1
161694,-100,4,2,1,90,0,1
162010,-100,4,1,1,80,0,1
164380,-100,4,2,1,90,0,1
164854,-100,4,1,1,80,0,1
167461,-100,4,2,1,90,0,0
179076,-100,4,2,1,70,0,0
179392,-100,4,2,1,90,0,0
181604,-100,4,2,1,70,0,0
181920,-100,4,2,1,90,0,0
184132,-100,4,2,1,70,0,0
184448,-100,4,2,1,90,0,0
186660,-100,4,2,1,70,0,0
186976,-100,4,2,1,90,0,0
195347,-100,4,1,1,80,0,0
196216,-100,4,1,1,80,0,0
197799,-100,4,1,1,80,0,1
199297,-100,4,1,1,70,0,1
199613,-100,4,2,1,90,0,1
200245,-100,4,1,1,80,0,1
200561,-100,4,2,1,90,0,1
201193,-100,4,1,1,80,0,1
201825,-100,4,2,1,90,0,1
202457,-100,4,1,1,80,0,1
203010,-100,4,1,1,80,0,1
203168,-100,4,1,1,80,0,1
203405,-100,4,1,1,70,0,1
203405,-100,4,1,1,70,0,1
204353,-100,4,1,1,70,0,1
204669,-100,4,2,1,90,0,1
204985,-100,4,1,1,80,0,1
206881,-100,4,1,1,70,0,1
207039,-100,4,2,1,60,0,1
207197,-100,4,2,1,90,0,1
207829,-100,4,1,1,80,0,1
209408,-100,4,1,1,70,0,1
209724,-100,4,2,1,90,0,1
210040,-100,4,1,1,80,0,1
210672,-100,4,1,1,70,0,1
210830,-100,4,1,1,80,0,1
210988,-100,4,1,1,70,0,1
211304,-100,4,1,1,80,0,1
211936,-100,4,1,1,70,0,1
212252,-100,4,2,1,90,0,1
212568,-100,4,1,1,80,0,1
213042,-100,4,1,1,70,0,1
213832,-100,4,1,1,80,0,1
213990,-100,4,1,1,70,0,1
214780,-100,4,1,1,80,0,1
217387,-100,4,2,1,90,0,0

[Colours]
Combo1 : 255,0,236
Combo2 : 0,189,244
Combo3 : 159,0,244
Combo4 : 0,6,244

[HitObjects]
336,80,7181,1,0
304,112,7547,1,2
256,96,7914,1,8
224,136,8280,1,0
248,184,8647,2,0,B|280:192|304:184|320:152,1,75,2|8
472,280,10113,5,0
440,320,10480,1,2
400,296,10847,1,8
368,336,11213,1,0
328,312,11580,2,0,B|296:280|312:248|328:232,1,75,2|8
504,120,13046,5,0
472,160,13413,1,2
432,136,13779,1,8
400,176,14146,1,0
360,144,14513,2,0,B|336:136|336:96|304:88,1,75,2|8
256,88,15612,6,0,B|224:88|216:120,1,37.5,0|2
144,184,16712,1,8
112,224,17079,1,0
128,280,17445,2,0,B|152:296|176:288,1,37.5,2|0
200,248,18179,1,8
192,200,18545,1,2
136,200,18912,5,0
96,160,19278,1,2
80,104,19645,2,0,B|80:80|96:56,1,37.5,8|2
152,72,20378,1,0
168,128,20745,1,2
152,184,21111,2,0,B|144:216|136:224,1,37.5,8|2
112,272,21845,5,0
112,328,22211,1,2
128,384,22578,1,8
240,384,23311,1,0
256,328,23678,1,2
248,272,24044,2,0,B|248:248|224:232,1,37.5,8|2
200,192,24777,5,0
240,160,25144,1,2
288,144,25511,1,8
336,160,25877,1,2
376,192,26244,1,0
392,256,26685,1,2
368,320,27126,1,8
256,192,34749,12,4,36012
448,48,36644,6,0,B|360:48,1,75
376,120,37276,1,0
376,192,37592,1,8
448,192,37908,1,8
448,120,38224,1,0
448,48,38540,2,0,B|368:48,1,75,0|8
296,48,39172,6,0,B|216:48,1,75,8|0
224,120,39804,1,0
296,120,40120,1,8
296,192,40436,1,8
224,192,40752,1,0
160,232,41068,6,0,B|80:232,1,75,0|8
85,156,41700,2,0,C|165:156,1,75,8|0
160,80,42332,2,0,B|80:80,1,75,0|8
120,144,42964,1,8
72,208,43280,1,0
0,176,43596,5,0
48,120,43912,1,8
69,48,44228,1,8
144,48,44544,1,0
216,48,44860,1,0
288,48,45176,1,8
288,120,45492,1,8
216,120,45808,1,0
144,120,46124,6,0,B|144:200,1,75,0|8
216,192,46756,2,0,B|304:192,1,75,8|0
296,264,47388,2,0,B|208:264,1,75,0|8
144,264,48020,2,0,B|144:184,1,75,8|0
144,112,48652,6,0,B|224:112,1,75,0|8
296,112,49284,2,0,B|296:200,1,75,8|0
368,184,49916,2,0,B|368:96,1,75,0|8
368,32,50548,2,0,B|288:32,1,75,8|0
216,32,51180,5,4
109,138,51812,1,0
215,244,52444,1,4
321,137,53076,1,0
427,243,53708,5,4
376,296,54024,1,0
352,224,54340,1,0
304,280,54656,1,4
280,208,54972,1,4
320,352,55604,1,0
328,264,61292,6,0,B|272:264,2,37.5,2|0|8
392,304,61924,1,2
456,264,62240,2,0,B|504:264,2,37.5,8|0|2
392,224,62872,1,8
424,160,63188,1,2
392,96,63504,1,8
328,56,63819,5,2
256,32,64135,1,8
184,56,64451,1,2
128,104,64767,1,8
80,160,65083,2,0,B|48:192|80:240,1,75,2|8
104,296,65715,2,0,B|112:344|176:352,1,75,2|8
224,376,66347,2,0,B|264:392|312:376,1,75,2|8
176,288,67295,5,8
64,192,67927,1,8
200,136,68559,1,8
272,104,68875,2,8,B|352:72,1,75,2|8
480,32,69823,1,8
424,176,70455,1,8
368,312,71087,5,12
400,240,71403,1,4
320,248,71719,6,0,B|280:256|232:216,1,75,8|2
184,200,72351,2,0,B|160:192|136:200,6,37.5,8|0|2|0|8|0|2
256,224,73615,1,8
328,208,73931,5,2
392,168,74247,1,8
424,96,74563,2,0,B|424:72|400:64,2,37.5,2|0|8
352,112,75195,2,0,B|320:144|288:96|256:120,1,75,2|8
208,112,75827,2,0,B|176:144|144:96|112:120,1,75,2|8
64,112,76459,1,2
96,176,76775,1,8
168,304,77407,1,8
312,248,78039,5,8
368,200,78355,1,0
296,176,78671,1,8
240,232,78987,1,0
272,304,79303,1,8
344,320,79619,1,0
392,264,79935,1,8
368,192,80251,2,0,B|360:168|336:160,5,37.5,0|0|0|0|0|4
264,80,81515,5,4
144,168,82147,2,0,B|96:208|128:280|200:272,1,150,0|4
336,248,83411,2,0,B|384:208|352:136|280:144,1,150,0|4
144,112,84675,1,4
250,218,85307,1,4
356,324,85939,1,4
464,216,86571,5,0
400,176,86887,1,8
336,216,87203,1,0
272,176,87519,1,8
208,216,87835,1,0
144,176,88151,1,8
80,216,88467,1,0
16,176,88783,1,8
80,136,89099,6,0,B|112:88|192:88|224:160,1,150,0|4
208,134,90363,1,0
208,134,90679,1,4
208,134,90995,1,0
208,134,91311,1,4
208,56,91627,6,0,B|208:8|280:8,1,75
328,16,92259,2,0,B|376:16|376:88,1,75
376,144,92890,2,0,B|376:240|256:240,1,150,0|8
208,240,93838,5,0
136,240,94154,2,0,B|80:248|56:192,2,75,0|8|8
208,240,95102,1,0
208,240,95418,1,0
280,240,95734,1,8
280,240,96050,1,8
408,168,96682,6,0,B|408:72|288:72,1,150,0|8
240,72,97630,1,0
168,72,97946,1,0
104,40,98262,1,8
104,112,98578,1,8
104,264,99210,6,0,B|104:360|224:360,3,150,0|8|4|8
272,360,101422,1,4
272,288,101738,5,4
208,256,102054,1,8
208,184,102370,1,8
272,144,102686,1,0
272,216,103002,2,0,B|424:216,1,150,0|8
422,140,103950,5,0
488,184,104266,2,0,B|504:264|424:296,2,112.5,4|4|4
488,108,105530,2,0,B|448:24|344:48,1,150,4|8
214,44,106794,6,4,B|102:36|102:108,2,112.5
267,97,108058,1,0
320,150,108374,1,0
248,168,108690,1,4
141,274,109322,5,0
220,353,109796,1,4
299,273,110270,1,0
299,273,110586,1,4
405,166,111218,1,0
88,296,117222,6,0,B|32:296,2,37.5,8|0|2
152,248,117854,1,8
216,208,118170,2,0,B|264:208,2,37.5,2|0|8
152,168,118802,1,2
152,92,119118,1,8
205,38,119434,5,2
280,38,119750,1,8
336,88,120066,2,0,B|376:88,2,37.5,2|0|8
336,163,120698,1,2
282,216,121014,1,8
335,269,121329,1,2
281,322,121645,1,8
227,268,121961,1,2
173,321,122277,5,8
67,215,122909,1,8
176,112,123541,2,0,B|200:88|256:96,1,75,8|2
320,96,124173,1,8
392,96,124489,2,0,B|432:136|432:208|376:256,2,150,2|2|2
338,42,126069,1,8
231,148,126701,5,4
284,94,127017,1,4
312,168,127333,2,0,B|384:192|408:248|392:304|336:352,2,225,8|2|8
240,152,129545,1,2
168,176,129861,1,8
112,224,130177,1,2
88,296,130493,2,0,B|88:352,2,37.5,8|0|2
40,240,131125,5,8
64,168,131441,1,2
112,112,131757,1,8
176,72,132073,2,0,B|208:48|256:40,1,75,2|8
392,48,133021,1,8
288,160,133653,5,8
232,208,133969,1,0
216,136,134285,1,8
272,88,134601,1,0
344,112,134917,1,8
360,184,135233,1,0
304,232,135549,1,8
232,208,135865,2,0,B|208:200|200:176,5,37.5,0|0|0|0|0|4
280,104,137129,5,4
408,176,137761,2,0,B|456:216|424:288|352:280,1,150,0|4
216,256,139025,2,0,B|168:216|200:144|272:152,1,150,0|4
392,88,140289,1,4
285,194,140921,1,4
178,300,141553,1,4
48,216,142185,5,0
112,176,142501,1,8
176,216,142817,1,0
240,176,143133,1,8
304,216,143449,1,0
368,176,143765,1,8
432,216,144081,1,0
496,176,144397,1,8
432,136,144713,6,0,B|400:88|320:88|288:160,1,150,0|4
304,136,145977,1,0
304,136,146293,1,4
304,136,146609,1,0
304,136,146925,1,4
296,208,147241,5,0
232,176,147557,1,0
232,104,147873,1,0
296,64,148189,1,0
304,136,148505,2,0,B|456:136,3,150,0|8|4|8
456,208,150716,5,0
416,272,151032,1,0
344,304,151348,1,8
280,264,151664,1,8
232,208,151980,1,0
208,136,152296,2,0,B|176:80|112:80|72:152,3,150,0|8|4|8
40,192,154508,5,0
80,256,154824,2,0,B|104:304|144:328|216:328,1,150,0|8
272,352,155772,1,0
344,328,156088,2,0,B|402:328|442:304|466:256,1,150,0|8
504,192,157036,5,0
472,120,157352,1,0
416,64,157668,1,8
352,32,157984,1,8
280,40,158300,1,0
216,80,158616,2,0,B|176:104|160:168|224:208,3,150,0|8|4|4
280,248,160828,1,0
344,288,161144,2,0,B|408:352|296:328|240:336,1,150,4|8
184,336,162092,5,0
120,296,162408,1,4
80,232,162724,1,0
64,160,163040,1,4
80,232,163356,1,0
120,296,163672,1,4
184,336,163988,1,0
256,334,164304,2,0,B|296:328|408:352|344:288,1,150,4|4
288,232,165252,5,0
176,120,165884,1,0
120,64,166200,1,4
120,214,166832,1,0
256,192,172520,12,2,177576
40,288,178208,5,2
136,88,178840,1,2
248,64,179155,1,2
360,88,179471,1,2
472,288,180103,5,2
256,344,180735,1,2
88,192,181367,1,2
160,104,181683,1,2
256,40,181999,1,2
424,192,182631,5,2
224,288,183263,1,2
40,160,183895,1,2
128,88,184211,1,2
224,32,184527,1,2
408,160,185159,5,2
192,224,185791,1,2
288,24,186423,1,2
384,80,186739,1,2
464,160,187055,1,4
288,296,187687,5,2
216,296,188003,2,0,B|184:296|144:280|120:248,1,75,0|2
88,224,188635,1,0
88,148,188951,1,0
145,99,189267,2,0,B|143:91|183:75|215:75,1,75,0|6
288,76,189899,5,0
360,76,190215,1,0
432,100,190531,2,0,B|464:112|472:144|456:176,1,75,0|2
416,216,191163,1,0
352,248,191479,1,0
280,248,191795,2,0,B|240:248|224:224|216:192,1,75,0|6
192,144,192427,5,0
152,80,192743,1,0
104,24,193059,2,0,B|48:16|32:72,1,75,0|2
80,120,193691,1,0
120,184,194007,1,0
168,240,194323,2,0,B|192:280|256:264,1,75,0|6
308,268,194955,1,6
384,264,195271,6,0,B|424:264,4,37.5,0|0|0|0|4
384,336,196219,1,0
320,304,196535,1,4
320,232,196851,1,0
376,184,197167,1,4
440,216,197483,1,0
488,160,197799,6,0,B|496:128|472:88|432:88,1,75
392,128,198431,2,0,B|400:96|376:56|336:56,1,75
296,104,199063,2,0,B|272:32|224:32|200:112,2,150,0|8|4
320,176,200643,5,8
296,248,200959,1,8
248,304,201275,2,0,B|216:344|152:312,1,75
112,296,201907,1,8
72,232,202223,1,8
96,160,202539,5,0
152,104,202855,2,0,B|184:64|224:56|272:56,2,112.5
96,160,204119,2,0,B|64:192|48:224|56:256|112:296,1,150,0|8
168,328,205067,1,0
248,344,205383,1,4
136,224,206015,1,0
200,176,206331,1,0
120,144,206647,2,0,B|160:80|224:104,1,112.5,4|0
248,120,207279,1,8
400,192,207910,5,0
458,250,208226,1,0
399,308,208542,1,0
340,249,208858,1,0
400,192,209174,2,0,B|400:96|304:96,1,150,0|8
224,96,210122,5,0
144,96,210438,2,0,B|64:88|48:184,2,112.5,4|0|4
224,96,211702,2,0,B|312:88|368:168,1,150,4|8
400,224,212650,1,0
368,296,212966,2,0,B|328:360|208:360|152:296,2,225,4|4|4
456,160,215494,5,4
344,216,215968,1,0
232,160,216442,1,4
168,216,216758,1,4
16,160,217390,1,0
