osu file format v8

[General]
AudioFilename: peak of hope.mp3
AudioLeadIn: 0
PreviewTime: 91624
Countdown: 1
SampleSet: Normal
StackLeniency: 0.7
Mode: 0
LetterboxInBreaks: 1

[Editor]
DistanceSpacing: 1
BeatDivisor: 4
GridSize: 8

[Metadata]
Title:Peak of hope (Full Ver.)
Artist:Strawberry Jam
Creator:Drafura
Version:Easy
Source:Spiral
Tags:Kibouhou Cape of Hope

[Difficulty]
HPDrainRate:1
CircleSize:3
OverallDifficulty:3
ApproachRate:3
SliderMultiplier:1.5
SliderTickRate:2

[Events]
//Background and Video events
0,0,"spiral_8.jpg"
//Break Periods
2,27326,33309
2,55803,59852
//Storyboard Layer 0 (Background)
//Storyboard Layer 1 (Fail)
//Storyboard Layer 2 (Pass)
//Storyboard Layer 3 (Foreground)
//Storyboard Sound Samples
//Background Colour Transformations
3,100,163,162,255

[TimingPoints]
7181,733.207317073171,4,2,1,90,1,0
7914,-200,4,2,1,90,0,0
26244,882.352941176471,4,2,1,90,1,0
34749,631.978091426164,4,2,1,90,1,1
36010,-100,4,2,1,90,0,1
36562,-100,4,1,1,80,0,1
37194,-100,4,2,1,90,0,1
37826,-100,4,1,1,80,0,1
37984,-100,4,2,1,90,0,1
39090,-100,4,1,1,80,0,1
39722,-100,4,2,1,90,0,1
40354,-100,4,1,1,80,0,1
40512,-100,4,2,1,90,0,1
41618,-100,4,1,1,80,0,1
42250,-100,4,2,1,90,0,1
42882,-100,4,1,1,80,0,1
43514,-100,4,2,1,90,0,1
44146,-100,4,1,1,80,0,1
44304,-100,4,2,1,90,0,1
45410,-100,4,1,1,80,0,1
46042,-100,4,2,1,91,0,1
46674,-100,4,1,1,80,0,1
47306,-100,4,2,1,90,0,1
47941,-100,4,1,1,80,0,1
48573,-100,4,2,1,90,0,1
49205,-100,4,1,1,80,0,1
49363,-100,4,2,1,90,0,1
49837,-100,4,1,1,70,0,1
49995,-100,4,2,1,90,0,1
50469,-100,4,1,1,80,0,1
51101,-100,4,2,1,90,0,1
51733,-100,4,1,1,80,0,1
52365,-100,4,2,1,90,0,1
52997,-100,4,1,1,80,0,1
53155,-100,4,2,1,90,0,1
54261,-100,4,1,1,80,0,1
54419,-100,4,2,1,90,0,1
54893,-100,4,1,1,80,0,1
55051,-100,4,2,1,90,0,1
55525,-100,4,1,1,80,0,1
55604,-100,4,1,1,80,0,0
58761,-200,4,2,1,90,0,0
79540,-100,4,1,1,80,0,0
82068,-100,4,2,1,90,0,0
82700,-100,4,1,1,80,0,0
83332,-100,4,2,1,90,0,0
83964,-100,4,1,1,80,0,0
86650,-100,4,2,1,90,0,0
87124,-100,4,1,1,70,0,0
87282,-100,4,2,1,90,0,0
87756,-100,4,1,1,80,0,0
87914,-100,4,2,1,90,0,0
88388,-100,4,1,1,70,0,0
88546,-100,4,2,1,90,0,0
89020,-100,4,1,1,80,0,0
90360,-100,4,1,1,80,0,1
92180,-100,4,2,1,90,0,1
92811,-100,4,1,1,80,0,1
92969,-100,4,2,1,90,0,1
93443,-100,4,2,1,90,0,1
94075,-100,4,1,1,80,0,1
94707,-100,4,2,1,90,0,1
95339,-100,4,1,1,80,0,1
95497,-100,4,2,1,90,0,1
96603,-100,4,1,1,80,0,1
97235,-100,4,2,1,90,0,1
97867,-100,4,1,1,80,0,1
98025,-100,4,2,1,90,0,1
99131,-100,4,1,1,80,0,1
99289,-100,4,2,1,90,0,1
100079,-100,4,1,1,80,0,1
100316,-100,4,1,1,70,0,1
100632,-100,4,2,1,90,0,1
101659,-100,4,1,1,80,0,1
102291,-100,4,2,1,90,0,1
102923,-100,4,1,1,80,0,1
103555,-100,4,2,1,90,0,1
104187,-100,4,1,1,80,0,1
104345,-100,4,2,1,90,0,1
105135,-100,4,1,1,80,0,1
105451,-100,4,1,1,70,0,1
105609,-100,4,2,1,90,0,1
106715,-100,4,1,1,80,0,1
107347,-100,4,2,1,90,0,1
107979,-100,4,1,1,80,0,1
108611,-100,4,2,1,90,0,1
109243,-100,4,1,1,80,0,1
109401,-100,4,2,1,90,0,1
109875,-100,4,1,1,80,0,1
111218,-100,4,1,1,80,0,0

[Colours]
Combo1 : 255,0,236
Combo2 : 0,189,244
Combo3 : 159,0,244
Combo4 : 0,6,244

[HitObjects]
256,192,7181,1,2
296,128,7914,1,2
344,72,8647,2,0,B|376:40|424:80,1,75,2|8
480,104,10113,5,2
504,176,10847,1,2
480,248,11580,2,0,B|464:296|424:312,1,75,2|8
376,352,13046,5,2
304,328,13779,1,2
240,288,14513,2,0,B|192:272|184:224,2,75,2|8|2
304,328,16712,1,2
376,352,17445,1,2
432,304,18179,1,8
485,250,18912,6,0,B|517:218,2,37.5,2|0|8
431,196,20378,2,0,B|391:156,2,37.5,2|0|8
377,249,21845,2,0,B|345:281,2,37.5,2|0|8
323,195,23311,2,0,B|291:163,2,37.5,2|0|8
269,248,24777,2,0,B|213:328|141:248,1,150,2|2
24,168,27126,1,2
256,192,34749,12,8,36012
256,232,36644,5,0
320,192,37276,2,0,B|368:176|392:120|368:64,2,150,8|0|8
256,232,39172,1,0
192,192,39804,2,0,B|144:176|120:120|144:64,2,150,8|0|8
256,232,41700,5,0
320,272,42332,2,0,B|352:296|400:304,2,75,8|0|0
256,232,43596,1,8
192,272,44228,2,0,B|160:296|112:304,2,75,0|0|8
256,232,45492,1,4
320,192,46124,5,8
384,232,46756,1,0
448,192,47388,2,0,B|504:192|511:142|504:88|424:88,1,150,8|0
392,56,48652,1,8
328,88,49284,2,0,B|248:208|144:40|80:208,1,300,0|4
128,264,51180,5,8
192,224,51812,1,4
256,264,52444,2,0,B|288:320|328:328|392:304,2,150,8|4|8
216,200,54340,2,0,B|184:144|144:136|80:160,2,150,4|4|0
256,192,61292,5,2
320,152,61924,1,2
280,88,62556,1,8
216,128,63188,1,2
168,184,63819,2,0,B|136:216|152:264,1,75,2|2
184,320,65083,2,0,B|216:352|264:336,1,75,8|2
320,312,66347,5,2
384,272,66979,1,2
336,216,67611,1,8
272,256,68243,1,2
208,296,68875,2,0,B|176:328|128:312,1,75,2|2
72,280,70139,2,0,B|40:248|56:200,1,75,8|2
56,136,71403,5,2
96,72,72035,1,2
160,112,72667,1,8
120,176,73299,1,2
80,240,73931,2,0,B|56:280|56:328,2,75,2|2|8
120,176,75827,5,2
160,112,76459,1,2
96,72,77091,1,2
56,136,77723,1,8
120,176,78355,1,2
160,112,78987,1,2
256,192,79619,12,4,81515
256,88,82147,6,0,B|200:87|146:132|128:192,1,150,0|4
184,224,83411,2,0,B|239:224|293:179|312:120,1,150,0|4
344,80,84675,1,0
408,120,85307,1,4
448,184,85939,1,0
472,256,86571,2,0,B|424:328|352:352|256:344|160:312,2,300,0|0|4
496,184,89731,1,4
472,112,90363,2,0,B|464:72|432:40,4,75,0|0|0|0|4
496,184,92259,5,8
472,256,92890,2,0,B|440:336|344:336,1,150,0|8
280,336,94154,1,0
204,336,94786,2,0,B|119:336|87:256,2,150,8|0|8
280,336,96682,5,0
355,336,97314,2,0,B|439:336|471:256,2,150,8|0|8
280,336,99210,2,0,B|193:328|129:280|113:192,2,225,0|4|8
355,336,101738,5,0
424,304,102370,1,8
368,248,103002,1,0
440,224,103634,1,8
488,168,104266,2,0,B|456:80|376:48|272:88,2,225,0|4|8
488,243,106794,5,0
456,312,107426,1,8
392,352,108058,1,0
316,352,108690,2,0,B|260:352|196:312|164:264,2,150,8|4|4
392,352,110586,1,4
467,352,111218,1,0
