osu file format v14

[General]
AudioFilename: Strangers feat. Myles Travitz - Frightmare (Original Mix).mp3
AudioLeadIn: 2000
PreviewTime: 180454
Countdown: 0
SampleSet: Normal
StackLeniency: 0.7
Mode: 0
LetterboxInBreaks: 0
EpilepsyWarning: 1
WidescreenStoryboard: 1

[Editor]
Bookmarks: 15508,30512,45512,53008,56758,58633,60512,64258,68008,71758,75512,79258,83008,86758,90508,94258,98008,101758,105512,109264,113014,116764,120512,131758,135512,148633,150512,165512,169263,173014,176764,178639,180512,184258,187070,187539,188008,190820,191758,195512,197383,199258,202070,202539,203008,204883,206758,208633,210508,211445,213789,214258,218019,221769,223644,225519,229269,231144,232081,233019,238644,255512,270512,274269,278012
DistanceSpacing: 1.2
BeatDivisor: 4
GridSize: 4
TimelineZoom: 2.100004

[Metadata]
Title:Frightmare
TitleUnicode:Frightmare
Artist:Strangers feat. Myles Travitz
ArtistUnicode:Strangers feat. Myles Travitz
Creator:Shadren
Version:Hard
Source:
Tags:complextro electro house alexabm trigonometry bragador collaboration collab
BeatmapID:562867
BeatmapSetID:204319

[Difficulty]
HPDrainRate:5
CircleSize:4
OverallDifficulty:6
ApproachRate:7
SliderMultiplier:1.5
SliderTickRate:1

[Events]
//Background and Video events
0,0,"BG.jpg",0,0
//Break Periods
2,34464,42739
2,120720,130870
2,169463,172113
//Storyboard Layer 0 (Background)
//Storyboard Layer 1 (Fail)
//Storyboard Layer 2 (Pass)
//Storyboard Layer 3 (Foreground)
//Storyboard Sound Samples

[TimingPoints]
514,468.75,4,2,1,80,1,0
514,-125,4,2,1,80,0,0
34264,-125,4,2,1,5,0,0
45982,-125,4,2,1,80,0,0
60520,468.75,4,1,1,90,1,1
60520,-66.6666666666667,4,1,1,90,0,1
60988,-100,4,1,1,90,0,1
64270,-66.6666666666667,4,1,1,90,0,1
64738,-100,4,1,1,90,0,1
66145,-66.6666666666667,4,1,1,90,0,1
67082,-100,4,1,1,90,0,1
68020,-66.6666666666667,4,1,1,90,0,1
68488,-100,4,1,1,90,0,1
71770,-66.6666666666667,4,1,1,90,0,1
72238,-100,4,1,1,90,0,1
73645,-100,4,1,1,80,0,0
75520,-66.6666666666667,4,1,1,90,0,1
75988,-100,4,1,1,90,0,1
79270,-66.6666666666667,4,1,1,90,0,1
79738,-100,4,1,1,90,0,1
83020,-66.6666666666667,4,1,1,90,0,1
83488,-100,4,1,1,90,0,1
86770,-66.6666666666667,4,1,1,90,0,1
87238,-100,4,1,1,90,0,1
88645,-125,4,1,1,80,0,0
88879,-125,4,1,1,5,0,0
88996,-125,4,1,1,80,0,0
89230,-125,4,1,1,5,0,0
89348,-125,4,1,1,80,0,0
89582,-125,4,1,1,5,0,0
89699,-125,4,1,1,80,0,0
89934,-125,4,1,1,5,0,0
90051,-125,4,1,1,80,0,0
90402,-125,4,1,1,5,0,0
90520,-66.6666666666667,4,1,1,90,0,1
90754,-100,4,1,1,90,0,1
94270,-66.6666666666667,4,1,1,90,0,1
94504,-100,4,1,1,90,0,1
98020,-66.6666666666667,4,1,1,90,0,1
98488,-100,4,1,1,90,0,1
101770,-66.6666666666667,4,1,1,90,0,1
102238,-100,4,1,1,90,0,1
103645,-100,4,1,1,80,0,0
105520,-66.6666666666667,4,1,1,90,0,1
105754,-100,4,1,1,90,0,1
109270,-66.6666666666667,4,1,1,90,0,1
109738,-100,4,1,1,90,0,1
113020,-66.6666666666667,4,1,1,90,0,1
113254,-100,4,1,1,90,0,1
116770,-66.6666666666667,4,1,1,90,0,1
117238,-100,4,1,1,90,0,1
120520,-100,4,1,1,80,0,0
135052,-100,4,1,1,5,0,0
135520,-125,4,2,1,80,0,0
150513,468.75,4,2,1,80,1,0
150513,-100,4,2,1,80,0,0
180519,468.75,4,1,1,90,1,1
180519,-66.6666666666667,4,1,1,90,0,1
180987,-100,4,1,1,90,0,1
184269,-66.6666666666667,4,1,1,90,0,1
184737,-100,4,1,1,90,0,1
187081,-66.6666666666667,4,1,1,90,0,1
188487,-100,4,1,1,90,0,1
190831,-66.6666666666667,4,1,1,90,0,1
191769,-66.6666666666667,4,1,1,90,0,1
192237,-100,4,1,1,90,0,1
193644,-100,4,1,1,80,0,0
195519,-66.6666666666667,4,1,1,90,0,1
195987,-100,4,1,1,90,0,1
197394,-200,4,1,1,90,0,1
197862,-100,4,1,1,90,0,1
199269,-66.6666666666667,4,1,1,90,0,1
199737,-100,4,1,1,90,0,1
202081,-200,4,1,1,90,0,1
202433,-200,4,1,1,5,0,1
202550,-200,4,1,1,90,0,1
202901,-200,4,1,1,5,0,1
203019,-66.6666666666667,4,1,1,90,0,1
203487,-100,4,1,1,90,0,1
204894,-200,4,1,1,90,0,1
205362,-100,4,1,1,90,0,1
206769,-66.6666666666667,4,1,1,90,0,1
207237,-100,4,1,1,90,0,1
208644,-125,4,1,1,80,0,0
208878,-125,4,1,1,5,0,0
208995,-125,4,1,1,80,0,0
209229,-125,4,1,1,5,0,0
209347,-125,4,1,1,80,0,0
209581,-125,4,1,1,5,0,0
209698,-125,4,1,1,80,0,0
210519,-66.6666666666667,4,1,1,90,0,1
211456,-100,4,1,1,90,0,1
213800,-125,4,1,1,90,0,1
214151,-200,4,1,1,5,0,1
214269,-66.6666666666667,4,1,1,90,0,1
214737,-100,4,1,1,90,0,1
217901,-100,4,1,1,5,0,1
218019,-66.6666666666667,4,1,1,90,0,1
218487,-100,4,1,1,90,0,1
221769,-66.6666666666667,4,1,1,90,0,1
222237,-100,4,1,1,90,0,1
223644,-125,4,1,1,80,0,0
225284,-125,4,1,1,5,0,0
225519,-66.6666666666667,4,1,1,90,0,1
225987,-100,4,1,1,90,0,1
229269,-66.6666666666667,4,1,1,90,0,1
229737,-100,4,1,1,90,0,1
232081,-200,4,1,1,90,0,1
232550,-100,4,1,1,90,0,1
240519,-125,4,2,1,80,0,0
270987,-125,4,1,1,35,0,0
271456,-125,4,1,1,30,0,0
271925,-125,4,1,1,25,0,0
272394,-125,4,1,1,20,0,0
272862,-125,4,1,1,15,0,0
273331,-125,4,1,1,10,0,0
273800,-125,4,1,1,5,0,0

[Colours]
Combo1 : 206,192,149
Combo2 : 72,208,181
Combo3 : 193,132,255
Combo4 : 66,160,255
Combo5 : 175,197,187
Combo6 : 240,70,40

[HitObjects]
152,256,514,6,0,P|92:272|28:256,2,120,0|8|0,0:0|0:0|0:0,0:0:0:0:
248,148,1920,1,8,0:0:0:0:
248,148,2154,2,0,L|384:140,1,120,0|0,0:0|0:0,0:0:0:0:
420,188,2857,2,0,P|428:224|424:256,1,60,8|0,0:0|0:0,0:0:0:0:
344,340,3326,2,0,L|208:332,1,120,0|8,0:0|0:0,0:0:0:0:
92,272,4264,6,0,P|72:208|88:140,2,120,0|8|0,0:0|0:0|0:0,0:0:0:0:
184,160,5670,1,8,0:0:0:0:
252,136,5904,1,0,0:0:0:0:
276,68,6139,2,0,P|272:32|284:0,1,60,0|0,0:0|0:0,0:0:0:0:
332,116,6607,2,0,P|336:152|324:184,1,60,8|0,0:0|0:0,0:0:0:0:
304,244,7076,2,0,L|432:252,1,120,0|8,0:0|2:0,0:0:0:0:
224,304,8014,6,0,L|100:316,2,120,0|8|0,0:0|0:0|0:0,0:0:0:0:
296,180,9420,1,8,0:0:0:0:
296,180,9654,2,0,P|320:128|288:56,1,120,0|0,0:0|0:0,0:0:0:0:
215,199,10357,2,0,P|225:230|259:252,1,60,8|0,0:0|0:0,0:0:0:0:
238,121,10826,2,0,P|166:134|134:192,1,120,0|8,0:0|0:0,0:0:0:0:
296,180,11764,6,0,L|440:172,2,120,0|8|0,0:0|0:0|0:0,0:0:0:0:
444,243,13170,2,0,P|472:227|488:192,1,60,8|0,0:0|0:0,0:0:0:0:
444,92,13639,2,0,L|384:95,1,60,0|0,0:0|0:0,0:0:0:0:
324,136,14107,2,0,P|280:152|240:152,1,60,8|0,0:0|0:0,0:0:0:0:
204,116,14576,1,0,0:0:0:0:
148,164,14810,2,0,P|140:196|140:232,2,60,0|8|0,0:0|0:0|0:0,0:0:0:0:
204,264,15514,38,0,P|176:292|148:296,1,60,2|0,1:0|0:0,0:0:0:0:
228,188,15982,2,0,P|256:200|276:232,1,60,2|0,1:0|0:0,0:0:0:0:
332,264,16451,2,0,L|400:260,1,60,2|0,1:0|0:0,0:0:0:0:
492,320,16920,2,0,L|432:323,1,60,2|0,1:0|0:0,0:0:0:0:
448,212,17389,2,0,P|452:184|440:140,1,60,2|0,1:0|0:0,0:0:0:0:
396,104,17857,2,0,P|390:74|394:45,1,60,2|0,1:0|0:0,0:0:0:0:
328,16,18326,2,0,L|264:24,1,60,2|0,1:0|0:0,0:0:0:0:
316,100,18795,2,0,L|244:116,1,60,10|0,0:0|0:0,0:0:0:0:
368,168,19264,6,0,P|372:204|364:236,1,60,2|0,1:0|0:0,0:0:0:0:
248,184,19732,1,2,1:0:0:0:
181,211,19967,1,0,0:0:0:0:
112,192,20201,2,0,L|44:188,1,60,2|0,1:0|0:0,0:0:0:0:
8,104,20670,2,0,L|67:107,1,60,2|0,1:0|0:0,0:0:0:0:
124,28,21139,2,0,L|48:24,1,60,2|0,1:0|0:0,0:0:0:0:
8,104,21607,1,2,1:0:0:0:
8,104,21842,1,0,0:0:0:0:
52,164,22076,2,0,P|52:204|40:236,1,60,2|0,1:0|0:0,0:0:0:0:
20,292,22545,2,0,P|12:332|16:360,1,60,10|0,0:0|0:0,0:0:0:0:
152,280,23014,6,0,P|168:216|144:160,2,120,2|2|2,1:0|1:0|1:0,0:0:0:0:
112,340,24185,1,0,0:0:0:0:
228,288,24420,2,0,L|308:284,1,60,2|0,1:0|0:0,0:0:0:0:
384,216,24889,2,0,L|324:218,1,60,2|0,1:0|0:0,0:0:0:0:
268,172,25357,1,2,1:0:0:0:
288,104,25592,1,0,0:0:0:0:
240,52,25826,2,0,P|196:52|168:64,1,60,2|0,1:0|0:0,0:0:0:0:
116,88,26295,2,0,P|87:95|57:92,1,60,10|0,0:0|0:0,0:0:0:0:
8,148,26764,6,0,L|0:272,2,120,2|2|2,1:0|1:0|1:0,0:0:0:0:
56,92,27935,1,0,0:0:0:0:
116,132,28170,2,0,P|156:128|180:112,1,60,2|0,1:0|0:0,0:0:0:0:
272,64,28639,2,0,L|340:68,1,60,2|0,1:0|0:0,0:0:0:0:
388,112,29107,1,2,1:0:0:0:
364,180,29342,1,0,0:0:0:0:
416,228,29576,2,0,P|448:232|484:224,1,60,2|0,1:0|0:0,0:0:0:0:
364,180,30045,2,0,P|332:176|296:184,1,60,10|0,0:0|0:0,0:0:0:0:
200,240,30514,37,4,1:0:0:0:
256,192,30748,12,0,34264,0:0:0:0:
256,192,43639,12,0,45514,0:0:0:0:
88,104,45982,6,0,L|216:108,1,120,8|0,2:0|0:0,0:0:0:0:
332,180,46920,1,8,2:0:0:0:
332,180,47154,2,0,P|340:244|296:288,1,120,0|0,0:0|0:0,0:0:0:0:
236,296,47857,2,0,L|168:292,1,60,8|0,2:0|0:0,0:0:0:0:
152,212,48326,2,0,L|280:220,1,120,0|8,0:0|2:0,0:0:0:0:
332,180,49029,1,0,0:0:0:0:
332,180,49146,1,0,0:0:0:0:
332,180,49264,6,0,P|336:148|328:112,1,60,0|0,0:0|0:0,0:0:0:0:
272,84,49732,2,0,P|316:52|384:76,1,120,8|0,2:0|0:0,0:0:0:0:
460,184,50670,1,8,2:0:0:0:
460,184,50904,1,0,0:0:0:0:
404,228,51139,2,0,P|372:236|328:232,1,60,0|0,0:0|0:0,0:0:0:0:
280,208,51607,2,0,L|212:212,1,60,0|0,0:0|0:0,0:0:0:0:
312,116,52076,2,0,L|436:108,1,120,0|8,0:0|2:0,0:0:0:0:
488,168,52779,1,0,0:0:0:0:
488,168,52896,1,0,0:0:0:0:
488,168,53014,6,0,P|496:212|488:240,1,60,0|0,0:0|0:0,0:0:0:0:
432,108,53482,2,0,P|423:79|426:49,1,60,8|0,2:0|0:0,0:0:0:0:
384,168,53951,2,0,L|312:164,1,60,0|0,0:0|0:0,0:0:0:0:
200,208,54420,2,0,L|259:211,1,60,8|0,2:0|0:0,0:0:0:0:
384,168,54889,1,0,0:0:0:0:
404,236,55123,1,0,0:0:0:0:
456,116,55357,1,8,2:0:0:0:
360,52,55592,1,0,0:0:0:0:
264,104,55826,2,0,L|200:100,1,60,0|0,0:0|0:0,0:0:0:0:
92,148,56295,2,0,L|151:151,1,60,8|0,2:0|0:0,0:0:0:0:
200,208,56764,38,0,L|236:212,3,30,0|0|0|0,0:0|0:0|0:0|0:0,0:0:0:0:
224,248,57232,2,0,L|256:252,3,30,0|0|0|0,0:0|0:0|0:0|0:0,0:0:0:0:
252,288,57701,2,0,L|284:292,3,30,0|0|0|0,0:0|0:0|0:0|0:0,0:0:0:0:
280,328,58170,2,0,L|356:332,1,60,0|0,0:0|0:0,0:0:0:0:
256,192,58639,12,8,60045,3:0:0:0:
380,232,60520,54,0,P|320:256|260:232,1,112.500004291535,4|2,0:0|2:0,0:0:0:0:
200,196,60988,38,0,L|120:192,1,75,8|0,3:0|3:0,0:0:0:0:
264,132,61457,2,0,L|338:135,1,75,0|2,0:0|2:0,0:0:0:0:
456,252,61926,1,8,3:0:0:0:
508,180,62160,1,0,0:0:0:0:
380,232,62395,2,0,P|380:276|412:316,1,75,0|2,0:0|2:0,0:0:0:0:
396,144,62863,2,0,P|396:100|360:60,2,75,8|0|0,3:0|3:0|0:0,0:0:0:0:
380,232,63566,1,0,0:0:0:0:
296,204,63801,2,0,L|204:208,1,75,8|4,3:0|3:0,0:0:0:0:
72,280,64270,38,0,L|184:276,1,112.500004291535,4|2,0:0|2:0,0:0:0:0:
296,328,64738,54,0,L|376:324,1,75,8|0,3:0|3:0,0:0:0:0:
424,252,65207,1,0,0:0:0:0:
504,208,65441,1,2,2:0:0:0:
372,176,65676,1,8,3:0:0:0:
348,320,65910,1,0,0:0:0:0:
248,228,66145,22,0,P|183:221|144:184,1,112.500004291535,0|2,0:0|2:0,0:0:0:0:
80,76,66613,2,0,P|52:124|-20:140,1,112.500004291535,8|0,3:0|3:0,0:0:0:0:
160,112,67082,70,0,B|236:64|300:112|300:112|348:80|400:112,1,225,0|0,0:0|0:0,0:0:0:0:
468,192,68020,6,0,B|460:316,1,112.500004291535,4|2,0:0|2:0,0:0:0:0:
384,352,68488,22,0,P|344:356|288:328,1,75,8|0,3:0|3:0,0:0:0:0:
228,308,68957,2,0,P|192:297|155:301,1,75,0|2,0:0|2:0,0:0:0:0:
72,332,69426,1,8,3:0:0:0:
16,260,69660,1,0,0:0:0:0:
52,176,69895,2,0,P|56:136|44:96,2,75,0|2|8,0:0|2:0|3:0,0:0:0:0:
16,260,70598,1,0,3:0:0:0:
72,332,70832,2,0,L|148:336,1,75,0|0,0:0|0:0,0:0:0:0:
216,280,71301,2,0,L|296:276,1,75,8|4,3:0|3:0,0:0:0:0:
400,196,71770,54,0,P|412:140|384:76,1,112.500004291535,4|2,0:0|2:0,0:0:0:0:
312,52,72238,38,0,L|232:48,1,75,8|0,3:0|3:0,0:0:0:0:
395,89,72707,2,0,L|469:92,1,75,0|0,0:0|0:0,0:0:0:0:
332,148,73176,1,8,3:0:0:0:
244,128,73410,1,0,0:0:0:0:
256,192,73645,12,8,75051,3:0:0:0:
168,144,75520,38,0,P|120:180|124:252,1,112.500004291535,4|2,0:0|2:0,0:0:0:0:
160,308,75988,54,0,L|244:312,1,75,8|0,3:0|3:0,0:0:0:0:
316,272,76457,2,0,L|392:268,1,75,0|2,0:0|2:0,0:0:0:0:
460,140,76926,1,8,3:0:0:0:
504,220,77160,1,0,0:0:0:0:
380,172,77395,2,0,P|372:136|384:88,2,75,0|2|8,0:0|2:0|3:0,0:0:0:0:
416,256,78098,1,0,3:0:0:0:
356,324,78332,2,0,L|280:328,1,75,0|2,0:0|2:0,0:0:0:0:
144,280,78801,2,0,L|220:284,1,75,8|4,3:0|3:0,0:0:0:0:
296,160,79270,22,0,P|308:100|272:52,1,112.500004291535,4|2,0:0|2:0,0:0:0:0:
196,32,79738,22,0,L|104:36,1,75,8|0,3:0|3:0,0:0:0:0:
148,120,80207,2,0,L|72:140,1,75,0|2,0:0|2:0,0:0:0:0:
128,212,80676,2,0,L|52:260,1,75,8|0,3:0|0:0,0:0:0:0:
112,344,81145,2,0,L|156:336,3,37.5,8|0|2|0,3:0|0:0|2:0|0:0,0:0:0:0:
184,304,81613,2,0,L|228:296,3,37.5,8|0|0|0,3:0|0:0|3:0|0:0,0:0:0:0:
256,260,82082,2,0,P|284:184|416:192,1,225,8|4,3:0|0:3,0:0:0:0:
312,336,83020,54,0,P|260:356|196:332,1,112.500004291535,4|2,0:0|2:0,0:0:0:0:
192,204,83488,38,0,P|224:180|280:180,1,75,8|0,3:0|3:0,0:0:0:0:
340,212,83957,1,0,0:0:0:0:
420,168,84191,1,2,2:0:0:0:
340,212,84426,1,8,3:0:0:0:
344,123,84660,1,0,0:0:0:0:
276,64,84895,2,0,P|222:36|206:12,2,75,0|2|0,0:0|2:0|0:0,0:0:0:0:
367,44,85598,1,0,3:0:0:0:
456,72,85832,2,0,P|480:112|476:160,1,75,0|2,0:0|2:0,0:0:0:0:
428,212,86301,2,0,P|388:216|340:188,1,75,8|4,3:0|3:0,0:0:0:0:
216,156,86770,38,0,L|208:276,1,112.500004291535,4|2,0:0|2:0,0:0:0:0:
144,328,87238,70,0,P|92:336|60:328,1,75,8|0,3:0|3:0,0:0:0:0:
16,260,87707,1,0,0:0:0:0:
32,172,87941,1,2,2:0:0:0:
120,152,88176,2,0,L|208:156,1,75,8|0,3:0|0:0,0:0:0:0:
280,188,88645,22,0,P|316:196|352:188,1,60,2|0,0:0|0:0,0:0:0:0:
372,176,88996,2,0,L|384:248,1,60,2|0,0:0|0:0,0:0:0:0:
404,264,89348,2,0,L|400:336,1,60,2|0,0:0|0:0,0:0:0:0:
372,348,89699,2,0,P|336:356|304:352,1,60,2|0,0:0|0:0,0:0:0:0:
276,340,90051,2,0,P|232:328|176:344,1,90,2|0,0:0|0:0,0:0:0:0:
160,360,90520,70,0,L|156:240,1,112.500004291535,4|2,0:0|2:0,0:0:0:0:
136,228,90871,21,0,0:0:0:0:
112,212,90988,2,0,P|72:204|24:224,2,75,8|0|0,3:0|3:0|0:0,0:0:0:0:
80,296,91691,1,2,2:0:0:0:
228,224,91926,2,0,L|232:140,1,75,8|0,3:0|0:0,0:0:0:0:
312,192,92395,2,0,L|304:352,1,150,4|8,0:0|3:0,0:0:0:0:
388,376,93098,1,0,3:0:0:0:
464,324,93332,2,0,P|476:292|464:236,1,75,0|2,0:0|2:0,0:0:0:0:
444,164,93801,2,0,P|439:127|451:92,1,75,8|0,3:0|0:0,0:0:0:0:
312,56,94270,54,0,L|196:60,1,112.500004291535,4|2,0:0|2:0,0:0:0:0:
144,128,94738,37,8,3:0:0:0:
188,208,94973,1,0,3:0:0:0:
140,284,95207,2,0,L|64:288,1,75,0|2,0:0|2:0,0:0:0:0:
204,344,95676,2,0,L|284:348,1,75,8|0,3:0|0:0,0:0:0:0:
356,300,96145,2,0,P|368:224|320:168,1,150,4|8,0:0|3:0,0:0:0:0:
280,250,96848,1,0,3:0:0:0:
404,132,97082,2,0,L|412:48,1,75,0|2,0:0|2:0,0:0:0:0:
328,96,97551,2,0,L|320:8,1,75,8|0,3:0|0:0,0:0:0:0:
208,92,98020,38,0,L|200:212,1,112.500004291535,4|2,0:0|2:0,0:0:0:0:
132,260,98488,53,8,3:0:0:0:
164,344,98723,1,0,3:0:0:0:
252,352,98957,2,0,P|300:360|336:348,1,75,0|2,0:0|2:0,0:0:0:0:
404,312,99426,2,0,L|408:232,1,75,8|0,3:0|0:0,0:0:0:0:
332,120,99895,2,0,L|324:280,1,150,4|8,0:0|3:0,0:0:0:0:
244,228,100598,1,0,3:0:0:0:
172,280,100832,2,0,P|164:320|176:360,1,75,0|2,0:0|2:0,0:0:0:0:
244,228,101301,2,0,P|252:188|240:148,1,75,8|0,3:0|0:0,0:0:0:0:
336,56,101770,22,0,L|456:64,1,112.500004291535,4|2,0:0|2:0,0:0:0:0:
512,128,102238,69,8,3:0:0:0:
472,208,102473,1,0,3:0:0:0:
508,292,102707,2,0,L|512:368,1,75,0|2,0:0|2:0,0:0:0:0:
424,348,103176,2,0,L|420:273,1,75,8|4,3:0|3:0,0:0:0:0:
324,284,103645,21,8,3:0:0:0:
312,261,104113,1,8,3:0:0:0:
302,238,104582,1,8,3:0:0:0:
288,220,105051,2,0,L|277:299,1,75,8|4,3:0|3:0,0:0:0:0:
232,144,105520,70,0,P|284:124|352:152,1,112.500004291535,4|2,0:0|2:0,0:0:0:0:
404,200,105988,22,0,L|488:204,1,75,8|0,3:0|3:0,0:0:0:0:
448,288,106457,2,0,L|373:284,1,75,0|2,0:0|2:0,0:0:0:0:
408,368,106926,2,0,L|492:372,1,75,8|0,0:3|0:0,0:0:0:0:
373,284,107395,2,0,P|289:280|241:332,1,150,4|8,0:0|3:0,0:0:0:0:
168,368,108098,1,0,3:0:0:0:
104,304,108332,2,0,L|92:224,1,75,0|2,0:0|2:0,0:0:0:0:
156,164,108801,2,0,L|164:84,1,75,8|0,3:0|0:0,0:0:0:0:
316,36,109270,54,0,L|436:44,1,112.500004291535,4|2,0:0|2:0,0:0:0:0:
476,120,109738,37,8,3:0:0:0:
476,120,109973,1,0,3:0:0:0:
424,192,110207,2,0,P|420:240|436:280,1,75,0|2,0:0|2:0,0:0:0:0:
376,340,110676,2,0,L|292:336,1,75,8|0,0:3|0:0,0:0:0:0:
184,252,111145,2,0,L|348:260,1,150,0|8,0:0|3:0,0:0:0:0:
380,184,111848,1,0,3:0:0:0:
320,120,112082,2,0,P|312:76|320:40,1,75,0|2,0:0|2:0,0:0:0:0:
456,144,112551,2,0,P|464:188|456:224,1,75,8|0,3:0|0:0,0:0:0:0:
320,120,113020,38,0,L|208:112,1,112.5,4|2,0:0|2:0,0:0:0:0:
144,176,113488,53,8,3:0:0:0:
180,260,113723,1,0,3:0:0:0:
116,324,113957,2,0,L|28:332,1,75,0|2,0:0|2:0,0:0:0:0:
12,244,114426,2,0,L|88:248,1,75,8|0,3:0|0:0,0:0:0:0:
144,176,114895,2,0,P|148:100|80:64,1,150,4|8,0:0|3:0,0:0:0:0:
12,104,115598,1,0,3:0:0:0:
80,236,115832,2,0,P|116:260|156:260,1,75,0|2,0:0|2:0,0:0:0:0:
204,116,116301,2,0,P|168:92|128:92,1,75,8|0,3:0|0:0,0:0:0:0:
232,204,116770,22,0,L|356:208,1,112.500004291535,4|2,0:0|2:0,0:0:0:0:
420,156,117238,70,0,P|428:120|416:76,1,75,8|0,3:0|3:0,0:0:0:0:
344,208,117707,2,0,P|336:244|348:288,1,75,0|2,0:0|2:0,0:0:0:0:
288,352,118176,2,0,L|200:360,1,75,8|0,3:0|0:0,0:0:0:0:
152,292,118645,21,8,0:3:0:0:
144,272,119113,1,8,0:3:0:0:
136,252,119582,1,8,0:3:0:0:
128,232,120051,2,0,L|208:236,1,75,8|4,3:0|3:0,0:0:0:0:
324,172,120520,37,4,0:0:0:0:
256,192,131770,12,4,135051,2:0:0:0:
408,248,135520,54,0,P|344:268|288:256,1,120,0|2,0:0|0:0,0:0:0:0:
228,228,136223,1,0,0:0:0:0:
196,164,136457,2,0,L|200:100,2,60,0|0|2,0:0|0:0|0:0,0:0:0:0:
140,212,137160,2,0,P|52:232|0:160,1,180,0|2,0:0|0:0,0:0:0:0:
32,104,138098,1,0,0:0:0:0:
96,68,138332,2,0,L|164:76,2,60,0|0|2,0:0|0:0|0:0,0:0:0:0:
32,104,139035,6,0,P|28:200|104:240,1,180,0|2,0:0|0:0,0:0:0:0:
160,212,139973,1,0,0:0:0:0:
216,260,140207,2,0,P|224:296|216:328,1,60,0|0,0:0|0:0,0:0:0:0:
160,212,140676,2,0,P|152:176|160:144,1,60,2|0,0:0|0:0,0:0:0:0:
212,108,141145,2,0,L|284:112,2,60,0|0|2,0:0|0:0|0:0,0:0:0:0:
236,184,141848,2,0,L|368:192,1,120,0|0,0:0|0:0,0:0:0:0:
476,264,142785,6,0,P|396:348|272:296,1,240,0|0,0:0|0:0,0:0:0:0:
220,296,143957,2,0,L|148:304,2,60,0|0|2,0:0|0:0|0:0,0:0:0:0:
252,232,144660,2,0,P|256:148|168:108,1,180,0|2,0:0|0:0,0:0:0:0:
116,140,145598,1,0,0:0:0:0:
84,204,145832,2,0,L|88:268,2,60,0|0|2,0:0|0:0|0:0,0:0:0:0:
116,140,146535,6,0,B|168:112|208:136|240:160|300:124,1,180,0|2,0:0|0:0,0:0:0:0:
340,76,147473,1,0,0:0:0:0:
400,116,147707,2,0,L|408:188,1,60,0|0,0:0|0:0,0:0:0:0:
360,232,148176,2,0,L|356:308,1,60,2|0,0:0|0:0,0:0:0:0:
300,336,148645,37,8,0:0:0:0:
276,348,149113,1,8,0:0:0:0:
252,360,149582,2,0,L|128:352,1,120,8|8,0:0|0:0,0:0:0:0:
84,180,150513,6,0,L|172:168,1,75,0|0,0:0|0:0,0:0:0:0:
228,228,150981,2,0,L|304:236,1,75,2|0,0:0|0:0,0:0:0:0:
376,184,151450,2,0,L|456:172,2,75,0|0|2,0:0|0:0|0:0,0:0:0:0:
308,124,152153,1,0,0:0:0:0:
228,168,152388,2,0,P|232:248|296:292,1,150,0|2,0:0|0:0,0:0:0:0:
312,204,153091,1,0,0:0:0:0:
172,108,153325,2,0,L|96:104,1,75,0|0,0:0|0:0,0:0:0:0:
8,228,153794,2,0,L|88:216,1,75,2|0,0:0|0:0,0:0:0:0:
156,272,154263,6,0,P|228:312|292:280,1,150,0|2,0:0|0:0,0:0:0:0:
348,224,154966,1,0,0:0:0:0:
304,144,155200,2,0,L|220:140,1,75,0|0,0:0|0:0,0:0:0:0:
380,92,155669,2,0,L|454:88,1,75,2|0,0:0|0:0,0:0:0:0:
304,44,156138,2,0,L|228:40,2,75,0|0|2,0:0|0:0|0:0,0:0:0:0:
380,92,156841,1,0,0:0:0:0:
388,180,157075,2,0,P|380:220|392:260,1,75,0|0,0:0|0:0,0:0:0:0:
308,292,157544,2,0,L|228:288,1,75,2|0,0:0|0:0,0:0:0:0:
156,240,158013,6,0,P|148:160|72:116,1,150,0|2,0:0|0:0,0:0:0:0:
72,208,158716,1,0,0:0:0:0:
196,316,158950,2,0,L|272:324,1,75,0|0,0:0|0:0,0:0:0:0:
336,260,159419,2,0,L|424:252,1,75,2|0,0:0|0:0,0:0:0:0:
472,188,159888,2,0,P|496:108|448:52,1,150,0|2,0:0|0:0,0:0:0:0:
372,40,160591,1,0,0:0:0:0:
292,80,160825,2,0,P|232:88|200:76,1,75,0|0,0:0|0:0,0:0:0:0:
132,60,161294,2,0,P|80:56|44:64,1,75,2|0,0:0|0:0,0:0:0:0:
4,132,161763,38,0,L|16:292,1,150,0|2,0:0|0:0,0:0:0:0:
92,332,162466,1,0,0:0:0:0:
164,276,162700,2,0,P|180:240|228:216,1,75,0|0,0:0|0:0,0:0:0:0:
256,296,163169,2,0,P|296:284|340:292,1,75,2|0,0:0|0:0,0:0:0:0:
416,312,163638,2,0,P|456:320|496:308,2,75,0|0|2,0:0|0:0|0:0,0:0:0:0:
380,228,164341,2,0,L|392:68,1,150,0|0,0:0|0:0,0:0:0:0:
312,36,165044,2,0,P|272:32|224:36,1,75,2|0,0:0|0:0,0:0:0:0:
256,192,165513,12,0,169263,0:0:0:0:
156,128,173013,6,0,L|72:124,2,75,0|0|2,0:0|0:0|0:0,0:0:0:0:
224,184,173716,1,0,0:0:0:0:
296,240,173950,2,0,L|380:236,2,75,0|0|2,0:0|0:0|0:0,0:0:0:0:
232,304,174653,1,0,0:0:0:0:
148,272,174888,2,0,P|104:264|68:268,2,75,0|0|2,0:0|0:0|0:0,0:0:0:0:
232,304,175591,1,0,0:0:0:0:
316,336,175825,2,0,P|360:344|396:340,2,75,0|0|2,0:0|0:0|0:0,0:0:0:0:
232,304,176528,1,0,0:0:0:0:
216,216,176763,22,0,L|220:172,3,37.5,0|0|0|0,0:0|0:0|0:0|0:0,0:0:0:0:
264,180,177231,2,0,L|268:136,3,37.5,0|0|0|0,0:0|0:0|0:0|0:0,0:0:0:0:
312,152,177700,2,0,L|316:108,3,37.5,0|0|0|0,0:0|0:0|0:0|0:0,0:0:0:0:
360,120,178169,2,0,L|368:40,1,75,0|0,0:0|0:0,0:0:0:0:
256,192,178638,12,12,180044,0:0:0:0:
336,276,180519,6,0,L|212:272,1,112.500004291535,4|2,0:3|2:0,0:0:0:0:
140,308,180987,22,0,L|132:352,2,37.5,8|0|0,3:0|0:0|3:0,0:0:0:0:
80,240,181456,2,0,P|72:204|80:160,1,75,0|2,0:0|2:0,0:0:0:0:
148,112,181925,2,0,L|224:116,1,75,8|0,3:0|0:0,0:0:0:0:
328,184,182394,1,0,0:0:0:0:
392,120,182628,1,2,2:0:0:0:
392,120,182745,1,0,0:0:0:0:
392,120,182862,2,0,P|416:156|412:208,1,75,8|0,3:0|3:0,0:0:0:0:
380,268,183331,1,0,0:0:0:0:
292,268,183565,1,2,2:0:0:0:
236,196,183800,2,0,L|184:192,3,37.5,8|0|8|0,3:0|0:0|3:0|0:0,0:0:0:0:
176,212,184269,54,0,P|132:248|68:244,1,112.500004291535,4|2,0:0|2:0,0:0:0:0:
16,184,184737,37,8,3:0:0:0:
16,184,184854,1,0,0:0:0:0:
16,184,184972,2,0,L|20:104,1,75,0|0,3:0|0:0,0:0:0:0:
92,56,185440,1,2,2:0:0:0:
172,96,185675,2,0,P|208:104|252:96,1,75,8|0,0:3|0:0,0:0:0:0:
320,44,186144,2,0,L|396:40,1,75,0|2,0:0|2:0,0:0:0:0:
504,120,186612,2,0,L|429:123,1,75,8|0,3:0|3:0,0:0:0:0:
320,204,187081,38,0,P|316:264|348:312,1,112.500004291535,4|2,0:0|2:0,0:0:0:0:
208,308,187550,2,0,P|156:292|80:304,1,112.500004291535,4|8,0:0|3:0,0:0:0:0:
0,204,188019,2,0,L|128:208,1,112.500004291535,4|2,0:0|2:0,0:0:0:0:
184,152,188487,54,0,L|192:104,2,37.5,8|0|0,3:0|0:0|3:0,0:0:0:0:
164,276,188956,2,0,L|157:312,2,37.5,0|0|2,0:0|0:0|2:0,0:0:0:0:
236,220,189425,2,0,P|276:216|312:228,1,75,8|0,3:0|3:0,0:0:0:0:
392,264,189894,2,0,P|436:272|480:264,1,75,0|2,0:0|2:0,0:0:0:0:
496,184,190362,1,8,3:0:0:0:
500,168,190479,1,0,0:0:0:0:
504,152,190597,1,0,3:0:0:0:
408,56,190831,22,0,L|288:48,1,112.500004291535,4|2,0:0|2:0,0:0:0:0:
208,100,191300,69,8,3:0:0:0:
236,196,191534,1,8,3:0:0:0:
160,308,191769,6,0,P|104:328|40:304,1,112.500004291535,4|2,0:0|2:0,0:0:0:0:
12,232,192237,70,0,L|8:188,2,37.5,8|0|0,3:0|0:0|3:0,0:0:0:0:
104,240,192706,2,0,L|96:156,1,75,0|2,0:0|2:0,0:0:0:0:
184,144,193175,2,0,L|192:224,1,75,8|0,3:0|3:0,0:0:0:0:
256,192,193644,12,12,195050,3:0:0:0:
384,136,195519,6,0,P|336:156|268:144,1,112.500004291535,4|2,0:0|2:0,0:0:0:0:
200,104,195987,21,8,3:0:0:0:
200,104,196104,1,0,0:0:0:0:
200,104,196222,1,0,3:0:0:0:
128,156,196456,2,0,P|116:228|44:256,1,150,0|8,0:0|3:0,0:0:0:0:
200,340,197394,70,0,B|216:344|216:344|256:340|256:340|280:344,1,75,2|8,0:0|3:0,0:0:0:0:
288,332,197979,21,0,0:0:0:0:
300,320,198097,1,0,3:0:0:0:
352,248,198331,2,0,P|368:172|312:112,1,150,0|8,0:0|3:0,0:0:0:0:
56,132,199269,38,0,L|40:256,1,112.500004291535,4|2,0:0|2:0,0:0:0:0:
84,324,199737,54,0,L|120:332,2,37.5,8|0|0,3:0|0:0|3:0,0:0:0:0:
136,252,200206,2,0,L|176:240,2,37.5,0|0|2,0:0|0:0|2:0,0:0:0:0:
140,160,200675,2,0,L|172:136,2,37.5,8|0|8,3:0|0:0|3:0,0:0:0:0:
88,88,201144,1,0,0:0:0:0:
88,88,201261,1,0,0:0:0:0:
88,88,201378,1,2,2:0:0:0:
160,32,201612,2,0,P|196:28|236:40,1,75,8|0,3:0|3:0,0:0:0:0:
296,96,202081,38,0,P|328:108|360:108,1,56.25,2|2,0:3|0:0,0:0:0:0:
372,100,202550,2,0,L|368:164,1,56.25,10|2,0:3|0:0,0:0:0:0:
332,216,203019,70,0,P|316:276|340:328,1,112.500004291535,4|2,0:0|2:0,0:0:0:0:
420,348,203487,70,0,L|460:344,2,37.5,8|0|0,3:0|0:0|3:0,0:0:0:0:
240,324,203956,2,0,B|180:320|180:320|80:344,1,150,0|8,0:0|3:0,0:0:0:0:
48,176,204894,22,0,L|56:96,1,75,2|8,0:0|3:0,0:0:0:0:
48,88,205479,5,0,0:0:0:0:
40,76,205597,1,0,3:0:0:0:
120,36,205831,2,0,L|276:20,1,150,0|8,0:0|3:0,0:0:0:0:
484,176,206769,54,0,L|364:172,1,112.500004291535,4|2,0:0|2:0,0:0:0:0:
300,228,207237,38,0,L|296:268,2,37.5,8|0|0,3:0|0:0|3:0,0:0:0:0:
244,160,207705,1,0,0:0:0:0:
244,160,207823,1,0,0:0:0:0:
244,160,207940,1,2,2:0:0:0:
176,100,208175,2,0,L|168:48,2,37.5,8|0|8,3:0|0:0|3:0,0:0:0:0:
136,176,208644,54,0,P|104:196|72:196,1,60,2|2,0:0|0:0,0:0:0:0:
48,192,208995,2,0,L|52:264,1,60,2|2,0:0|0:0,0:0:0:0:
44,288,209347,2,0,L|108:284,1,60,2|2,0:1|0:0,0:0:0:0:
136,304,209698,2,0,L|232:296,1,90,2|8,0:0|3:0,0:0:0:0:
432,120,210519,70,0,P|372:104|316:132,1,112.500004291535,4|2,0:0|2:0,0:0:0:0:
220,204,210987,2,0,P|168:220|108:204,1,112.500004291535,4|0,0:0|3:0,0:0:0:0:
60,136,211456,54,0,L|68:52,1,75,0|2,0:0|2:0,0:0:0:0:
144,16,211925,2,0,L|192:12,2,37.5,8|0|8,3:0|0:0|3:0,0:0:0:0:
200,88,212394,2,0,L|280:80,1,75,0|2,0:0|2:0,0:0:0:0:
288,92,212745,1,0,0:0:0:0:
300,104,212862,1,8,3:0:0:0:
268,188,213097,1,0,3:0:0:0:
344,236,213331,2,0,P|384:236|420:220,1,75,0|2,0:0|2:0,0:0:0:0:
496,184,213800,38,0,B|492:280,1,90,8|2,3:0|0:0,0:0:0:0:
480,308,214269,70,0,P|416:328|368:312,1,112.500004291535,4|2,0:0|2:0,0:0:0:0:
292,284,214737,69,8,3:0:0:0:
204,312,214972,1,0,3:0:0:0:
96,208,215206,1,0,0:0:0:0:
112,120,215440,1,2,2:0:0:0:
200,128,215675,2,0,L|236:108,2,37.5,8|0|0,3:0|0:0|3:0,0:0:0:0:
304,160,216144,2,0,P|320:120|312:76,1,75,0|2,0:0|2:0,0:0:0:0:
228,200,216612,2,0,P|256:232|292:244,1,75,8|0,3:0|3:0,0:0:0:0:
272,332,217081,2,0,P|204:312|148:244,1,150,0|8,0:0|3:0,0:0:0:0:
64,272,217784,1,8,3:0:0:0:
116,132,218019,6,0,P|92:76|32:52,1,112.500004291535,4|2,0:0|2:0,0:0:0:0:
192,152,218487,22,0,P|216:120|224:80,1,75,8|0,3:0|3:0,0:0:0:0:
240,212,218956,2,0,P|276:196|303:165,1,75,0|2,0:0|2:0,0:0:0:0:
368,112,219425,2,0,L|412:108,3,37.5,8|0|8|0,3:0|0:0|3:0|0:0,0:0:0:0:
448,128,219894,2,0,P|460:172|448:216,1,75,0|2,0:0|2:0,0:0:0:0:
392,264,220362,1,8,3:0:0:0:
296,128,220597,1,0,3:0:0:0:
364,68,220831,1,0,0:0:0:0:
280,40,221065,1,2,2:0:0:0:
224,212,221300,2,0,P|216:264|232:308,1,75,8|8,3:0|3:0,0:0:0:0:
292,172,221769,54,0,P|248:136|180:148,1,112.500004291535,4|2,0:0|2:0,0:0:0:0:
128,200,222237,38,0,L|40:196,1,75,8|0,3:0|3:0,0:0:0:0:
168,284,222706,2,0,L|242:287,1,75,0|2,0:0|2:0,0:0:0:0:
320,332,223175,2,0,P|353:335|404:324,1,75,8|0,3:0|3:0,0:0:0:0:
440,256,223644,53,0,0:0:0:0:
440,256,223761,2,0,P|448:208|440:184,1,60,0|0,0:0|0:0,0:0:0:0:
420,172,224112,2,0,L|424:104,1,60,0|0,0:0|0:0,0:0:0:0:
344,68,224581,2,0,L|288:60,3,30,0|0|0|0,0:0|0:0|0:0|0:0,0:0:0:0:
280,80,225050,2,0,P|243:68|220:46,1,60,8|0,3:0|0:0,0:0:0:0:
112,128,225519,70,0,P|96:176|124:240,1,112.500004291535,4|2,0:0|2:0,0:0:0:0:
200,260,225987,54,0,L|288:252,1,75,8|0,3:0|3:0,0:0:0:0:
404,200,226456,2,0,L|316:192,1,75,0|2,0:0|2:0,0:0:0:0:
252,144,226925,2,0,P|244:104|256:64,1,75,8|4,3:0|3:0,0:0:0:0:
168,40,227394,2,0,L|84:44,1,75,0|2,0:0|2:0,0:0:0:0:
80,56,227745,1,0,0:0:0:0:
68,68,227862,1,8,3:0:0:0:
24,244,228331,2,0,L|16:280,4,37.5,0|0|2|0|8,0:0|0:0|2:0|0:0|3:0,0:0:0:0:
104,204,229034,1,0,0:0:0:0:
104,204,229151,1,0,0:0:0:0:
104,204,229269,22,0,L|228:212,1,112.500004291535,4|2,0:0|2:0,0:0:0:0:
300,180,229737,70,0,P|336:156|352:112,1,75,8|0,3:0|3:0,0:0:0:0:
288,264,230206,2,0,P|331:261|367:231,1,75,0|2,0:0|2:0,0:0:0:0:
236,332,230675,2,0,P|274:351|320:343,1,75,8|0,3:0|0:0,0:0:0:0:
168,288,231144,2,0,L|128:296,3,37.5,0|0|2|0,0:0|0:0|2:0|0:0,0:0:0:0:
88,280,231612,2,0,L|44:284,3,37.5,8|0|0|0,3:0|0:0|3:0|0:0,0:0:0:0:
32,272,232081,22,0,P|24:240|28:204,1,56.25,2|0,0:0|0:0,0:0:0:0:
44,176,232550,6,0,P|52:132|48:96,1,75,8|8,3:0|3:0,0:0:0:0:
124,52,233019,2,0,L|208:48,1,75,8|2,0:3|2:0,0:0:0:0:
352,96,233487,2,0,L|268:88,1,75,8|0,0:3|3:0,0:0:0:0:
216,152,233956,2,0,P|204:204|216:244,1,75,8|2,0:3|2:0,0:0:0:0:
280,276,234425,2,0,L|364:264,1,75,8|0,0:3|3:0,0:0:0:0:
416,332,234894,2,0,L|520:344,1,75,8|0,0:3|0:0,0:0:0:0:
440,248,235362,2,0,P|444:208|432:172,1,75,8|0,0:3|0:0,0:0:0:0:
388,100,235831,2,0,P|377:64|381:27,1,75,8|2,0:3|2:0,0:0:0:0:
292,28,236300,2,0,L|208:32,1,75,8|0,0:3|3:0,0:0:0:0:
80,88,236769,6,0,L|160:88,1,75,8|2,0:3|2:0,0:0:0:0:
116,168,237237,2,0,L|192:176,1,75,8|0,0:3|3:0,0:0:0:0:
140,252,237706,2,0,L|216:272,1,75,8|2,0:3|2:0,0:0:0:0:
156,340,238175,2,0,L|228:372,1,75,8|0,0:3|3:0,0:0:0:0:
312,344,238644,5,4,3:0:0:0:
312,344,238878,1,4,3:0:0:0:
364,272,239112,1,4,3:0:0:0:
364,272,239347,1,4,3:0:0:0:
328,188,239581,1,4,3:0:0:0:
388,120,239815,2,0,L|480:116,1,75,4|12,3:0|3:0,0:0:0:0:
292,96,240519,6,0,P|233:84|176:100,2,120,0|8|0,0:0|0:0|0:0,0:0:0:0:
404,192,241925,1,8,0:0:0:0:
372,256,242159,2,0,L|236:264,1,120,0|0,0:0|0:0,0:0:0:0:
184,236,242862,2,0,P|176:200|180:168,1,60,8|0,0:0|0:0,0:0:0:0:
188,104,243331,2,0,L|52:112,1,120,0|8,0:0|0:0,0:0:0:0:
132,304,244269,38,0,P|182:323|248:284,2,120,0|8|0,0:0|0:0|0:0,0:0:0:0:
188,164,245675,1,8,0:0:0:0:
148,104,245909,1,0,0:0:0:0:
192,48,246144,2,0,P|228:44|260:56,1,60,0|0,0:0|0:0,0:0:0:0:
312,88,246612,2,0,P|348:92|380:80,1,60,8|0,0:0|0:0,0:0:0:0:
424,40,247081,2,0,L|416:168,1,120,0|8,0:0|0:0,0:0:0:0:
308,256,248019,6,0,P|248:268|184:244,2,120,0|8|0,0:0|0:0|0:0,0:0:0:0:
416,160,249425,1,8,0:0:0:0:
380,96,249659,2,0,L|256:88,1,120,0|0,0:0|0:0,0:0:0:0:
136,124,250362,2,0,L|196:128,1,60,8|0,0:0|0:0,0:0:0:0:
236,188,250831,2,0,P|234:246|193:288,1,120,0|8,0:0|0:0,0:0:0:0:
136,124,251769,6,0,L|-8:132,2,120,0|8|0,0:0|0:0|0:0,0:0:0:0:
244,216,253175,2,0,L|304:208,1,60,8|0,0:0|0:0,0:0:0:0:
416,160,253644,2,0,L|352:156,1,60,0|0,0:0|0:0,0:0:0:0:
472,208,254112,2,0,P|472:244|460:272,1,60,8|0,0:0|0:0,0:0:0:0:
396,288,254581,1,0,0:0:0:0:
328,260,254815,2,0,P|296:252|260:252,2,60,0|8|0,0:0|0:0|0:0,0:0:0:0:
200,292,255519,6,0,P|172:320|144:324,1,60,2|0,1:0|0:0,0:0:0:0:
224,216,255987,2,0,P|252:228|272:260,1,60,2|0,1:0|0:0,0:0:0:0:
328,292,256456,2,0,L|396:288,1,60,2|0,1:0|0:0,0:0:0:0:
488,348,256925,2,0,L|428:351,1,60,2|0,1:0|0:0,0:0:0:0:
444,240,257394,2,0,P|448:212|436:168,1,60,2|0,1:0|0:0,0:0:0:0:
392,132,257862,2,0,P|386:102|390:73,1,60,2|0,1:0|0:0,0:0:0:0:
324,44,258331,2,0,L|260:52,1,60,2|0,1:0|0:0,0:0:0:0:
312,128,258800,2,0,L|244:148,1,60,10|0,0:0|0:0,0:0:0:0:
128,112,259269,38,0,L|196:120,1,60,2|0,1:0|0:0,0:0:0:0:
255,144,259737,1,2,1:0:0:0:
236,212,259972,1,0,0:0:0:0:
288,260,260206,2,0,L|356:264,1,60,2|0,1:0|0:0,0:0:0:0:
464,216,260675,2,0,L|405:213,1,60,2|0,1:0|0:0,0:0:0:0:
352,164,261144,2,0,P|348:132|360:88,1,60,2|0,1:0|0:0,0:0:0:0:
408,60,261612,1,2,1:0:0:0:
408,60,261847,1,0,0:0:0:0:
348,20,262081,2,0,L|288:16,1,60,2|0,1:0|0:0,0:0:0:0:
232,60,262550,2,0,P|224:100|228:128,1,60,10|0,0:0|0:0,0:0:0:0:
180,176,263019,6,0,P|116:192|60:168,2,120,2|2|2,1:0|1:0|1:0,0:0:0:0:
240,216,264190,1,0,0:0:0:0:
300,176,264425,2,0,L|380:180,1,60,2|0,1:0|0:0,0:0:0:0:
456,248,264894,2,0,L|396:246,1,60,2|0,1:0|0:0,0:0:0:0:
340,292,265362,1,2,1:0:0:0:
340,292,265597,1,0,0:0:0:0:
288,344,265831,2,0,P|244:344|216:332,1,60,2|0,1:0|0:0,0:0:0:0:
164,308,266300,2,0,P|135:301|105:304,1,60,10|0,0:0|0:0,0:0:0:0:
34,320,266769,6,0,L|38:196,2,120,2|2|2,1:0|1:0|1:0,0:0:0:0:
102,344,267940,1,0,0:0:0:0:
164,308,268175,2,0,P|190:295|220:294,1,60,2|0,1:0|0:0,0:0:0:0:
292,304,268644,2,0,L|300:232,1,60,2|0,1:0|0:0,0:0:0:0:
240,204,269112,1,2,1:0:0:0:
264,136,269347,1,0,0:0:0:0:
208,88,269581,2,0,P|176:84|140:92,1,60,2|0,1:0|0:0,0:0:0:0:
32,136,270050,2,0,P|64:140|100:132,1,60,10|0,0:0|0:0,0:0:0:0:
104,24,270519,5,4,1:0:0:0:
256,192,270636,12,0,274269,0:0:0:0:
