osu file format v14

[General]
AudioFilename: Strangers feat. Myles Travitz - Frightmare (Original Mix).mp3
AudioLeadIn: 2000
PreviewTime: 180454
Countdown: 0
SampleSet: Normal
StackLeniency: 0.7
Mode: 0
LetterboxInBreaks: 0
EpilepsyWarning: 1
WidescreenStoryboard: 1

[Editor]
Bookmarks: 15508,30512,45512,53008,56758,58633,60512,64258,68008,71758,75512,79258,83008,86758,90508,94258,98008,101758,105512,109264,113014,116764,120512,131758,135512,148633,150512,165512,173014,176764,178639,180512,184258,187070,187539,188008,190820,191758,195512,197383,199258,202070,202539,203008,204883,206758,208633,210508,211445,213789,214258,218019,221769,223644,225519,229269,231144,232081,233019,238644,255512,270512,274269,278012
DistanceSpacing: 1.2
BeatDivisor: 4
GridSize: 4
TimelineZoom: 1.400004

[Metadata]
Title:Frightmare
TitleUnicode:Frightmare
Artist:Strangers feat. Myles Travitz
ArtistUnicode:Strangers feat. Myles Travitz
Creator:Shadren
Version:Collab Hard+
Source:
Tags:complextro electro house alexabm trigonometry bragador collaboration collab
BeatmapID:486220
BeatmapSetID:204319

[Difficulty]
HPDrainRate:6
CircleSize:4
OverallDifficulty:7
ApproachRate:8
SliderMultiplier:1.6
SliderTickRate:1

[Events]
//Background and Video events
0,0,"BG.jpg",0,0
//Break Periods
2,34464,42889
2,120720,131020
//Storyboard Layer 0 (Background)
//Storyboard Layer 1 (Fail)
//Storyboard Layer 2 (Pass)
//Storyboard Layer 3 (Foreground)
Sprite,Foreground,Centre,"SB\Shadren.png",320,240 F,0,-423,8014,1 M,0,-423,15514,510,439,488,439 F,0,8014,15045,1 F,0,15045,15514,1,0
Sprite,Foreground,Centre,"SB\TrigonometrY.png",320,240 F,0,15279,15514,0,1 M,0,15279,34732,470,435,490,435 F,0,15514,34264,1 F,0,34264,34732,1,0
Sprite,Foreground,Centre,"SB\Shadren.png",320,240 F,0,43639,44107,0,1 M,0,43639,59107,540,442,523,442 F,0,44107,58639,1 F,0,58639,59107,1,0
Sprite,Foreground,Centre,"SB\TrigonometrY.png",320,240 M,0,60514,,445,435 F,0,60514,,1 F,0,60514,75051,1,0.9829424 M,0,60514,75285,445,435,464,435 F,0,75051,75285,0.9829424,0
Sprite,Foreground,Centre,"SB\Shadren.png",320,240 F,0,75285,75520,0,1 M,0,75285,90402,489,441,515,441 F,0,75520,90051,1 F,0,90051,90402,1,0
Sprite,Foreground,Centre,"SB\TrigonometrY.png",320,240 F,0,90520,105051,1 M,0,90520,105520,497,437,476,436 F,0,105051,105520,1,0
Sprite,Foreground,Centre,"SB\Shadren.png",320,240 F,0,105520,120520,1 M,0,105520,120988,474,437,497,436 F,0,120520,120988,1,0
Sprite,Foreground,Centre,"SB\TrigonometrY.png",320,240 F,0,135051,135520,0,1 M,0,135051,150520,496,437,471,436 F,0,135520,150051,1 F,0,150051,150520,1,0
Sprite,Foreground,Centre,"SB\Shadren.png",320,240 F,0,150285,150520,0,1 M,0,150285,165513,481,439,508,439 F,0,150520,165044,1 F,0,165044,165513,1,0
Sprite,Foreground,Centre,"SB\TrigonometrY.png",320,240 F,0,165278,165513,0,1 M,0,165278,180513,498,439,474,438 F,0,165513,180044,1 F,0,180044,180513,1,0
Sprite,Foreground,Centre,"SB\Shadren.png",320,240 M,0,180513,180519,523,441,512,440 F,0,180513,193644,1 M,0,180519,195050,512,440,485,439 F,0,193644,195050,1,0
Sprite,Foreground,Centre,"SB\TrigonometrY.png",320,240 F,0,195519,210050,1 M,0,195519,210519,459,438,490,437 F,0,210050,210519,1,0
Sprite,Foreground,Centre,"SB\Shadren.png",320,240 F,0,210519,225050,1 M,0,210519,225519,524,439,500,439 F,0,225050,225519,1,0
Sprite,Foreground,Centre,"SB\TrigonometrY.png",320,240 F,0,225519,240050,1 M,0,225519,240519,461,434,486,434 F,0,240050,240519,1,0
Sprite,Foreground,Centre,"SB\Shadren.png",320,240 F,0,240284,240519,0,1 M,0,240284,255519,534,439,512,438 F,0,240519,255050,1 F,0,255050,255519,1,0
Sprite,Foreground,Centre,"SB\TrigonometrY.png",320,240 F,0,255284,255519,0,1 M,0,255284,274269,493,439,459,439 F,0,255519,270519,1 F,0,270519,274269,1,0
//Storyboard Sound Samples

[TimingPoints]
514,468.75,4,2,1,80,1,0
514,-125,4,2,1,80,0,0
34264,-125,4,2,1,5,0,0
45982,-125,4,2,1,80,0,0
60520,468.75,4,1,1,90,1,1
60520,-62.5,4,1,1,90,0,1
60988,-100,4,1,1,90,0,1
64270,-62.5,4,1,1,90,0,1
64738,-100,4,1,1,90,0,1
66145,-62.5,4,1,1,90,0,1
68020,-62.5,4,1,1,90,0,1
68488,-100,4,1,1,90,0,1
71770,-62.5,4,1,1,90,0,1
72238,-100,4,1,1,90,0,1
73645,-100,4,1,1,80,0,0
75520,-71.4285714285714,4,1,1,90,0,1
75988,-100,4,1,1,90,0,1
79270,-71.4285714285714,4,1,1,90,0,1
79738,-100,4,1,1,90,0,1
83020,-71.4285714285714,4,1,1,90,0,1
83488,-100,4,1,1,90,0,1
86770,-71.4285714285714,4,1,1,90,0,1
87238,-100,4,1,1,90,0,1
88645,-125,4,1,1,80,0,0
88879,-125,4,1,1,5,0,0
88996,-125,4,1,1,80,0,0
89230,-125,4,1,1,5,0,0
89348,-125,4,1,1,80,0,0
89582,-125,4,1,1,5,0,0
89699,-125,4,1,1,80,0,0
89934,-125,4,1,1,5,0,0
90051,-125,4,1,1,80,0,0
90402,-125,4,1,1,5,0,0
90520,-62.5,4,1,1,90,0,1
90754,-100,4,1,1,90,0,1
94270,-62.5,4,1,1,90,0,1
94504,-100,4,1,1,90,0,1
98020,-62.5,4,1,1,90,0,1
98488,-100,4,1,1,90,0,1
101770,-62.5,4,1,1,90,0,1
102238,-100,4,1,1,90,0,1
103645,-100,4,1,1,80,0,0
105520,-71.4285714285714,4,1,1,90,0,1
105754,-100,4,1,1,90,0,1
109270,-71.4285714285714,4,1,1,90,0,1
109738,-100,4,1,1,90,0,1
113020,-71.4285714285714,4,1,1,90,0,1
113254,-100,4,1,1,90,0,1
116770,-71.4285714285714,4,1,1,90,0,1
117238,-100,4,1,1,90,0,1
120520,-100,4,1,1,80,0,0
135052,-100,4,1,1,5,0,0
135520,-125,4,2,1,80,0,0
150513,468.75,4,2,1,80,1,0
150513,-125,4,2,1,80,0,0
173013,-100,4,2,1,80,0,0
180519,468.75,4,1,1,90,1,1
180519,-71.4285714285714,4,1,1,90,0,1
180987,-100,4,1,1,90,0,1
184269,-62.5,4,1,1,90,0,1
184737,-100,4,1,1,90,0,1
187081,-71.4285714285714,4,1,1,90,0,1
188487,-100,4,1,1,90,0,1
190831,-71.4285714285714,4,1,1,90,0,1
191769,-62.5,4,1,1,90,0,1
192237,-100,4,1,1,90,0,1
193644,-100,4,1,1,80,0,0
195519,-62.5,4,1,1,90,0,1
195987,-100,4,1,1,90,0,1
197394,-200,4,1,1,90,0,1
197862,-100,4,1,1,90,0,1
199269,-62.5,4,1,1,90,0,1
199737,-100,4,1,1,90,0,1
202081,-200,4,1,1,90,0,1
202433,-200,4,1,1,5,0,1
202550,-200,4,1,1,90,0,1
202901,-200,4,1,1,5,0,1
203019,-62.5,4,1,1,90,0,1
203487,-100,4,1,1,90,0,1
204894,-200,4,1,1,90,0,1
205362,-100,4,1,1,90,0,1
206769,-62.5,4,1,1,90,0,1
207237,-100,4,1,1,90,0,1
208644,-125,4,1,1,80,0,0
208878,-125,4,1,1,5,0,0
208995,-125,4,1,1,80,0,0
209229,-125,4,1,1,5,0,0
209347,-125,4,1,1,80,0,0
209581,-125,4,1,1,5,0,0
209698,-125,4,1,1,80,0,0
210519,-71.4285714285714,4,1,1,90,0,1
211456,-100,4,1,1,90,0,1
213800,-125,4,1,1,90,0,1
214151,-200,4,1,1,5,0,1
214269,-71.4285714285714,4,1,1,90,0,1
214737,-100,4,1,1,90,0,1
217901,-100,4,1,1,5,0,1
218019,-71.4285714285714,4,1,1,90,0,1
218487,-100,4,1,1,90,0,1
221769,-71.4285714285714,4,1,1,90,0,1
222237,-100,4,1,1,90,0,1
223644,-125,4,1,1,80,0,0
225519,-62.5,4,1,1,90,0,1
225987,-100,4,1,1,90,0,1
229269,-62.5,4,1,1,90,0,1
229737,-100,4,1,1,90,0,1
232081,-200,4,1,1,90,0,1
232550,-100,4,1,1,90,0,1
240519,-125,4,2,1,80,0,0
270987,-125,4,1,1,35,0,0
271456,-125,4,1,1,30,0,0
271925,-125,4,1,1,25,0,0
272394,-125,4,1,1,20,0,0
272862,-125,4,1,1,15,0,0
273331,-125,4,1,1,10,0,0
273800,-125,4,1,1,5,0,0

[Colours]
Combo1 : 206,192,149
Combo2 : 72,208,181
Combo3 : 193,132,255
Combo4 : 66,160,255
Combo5 : 175,197,187
Combo6 : 240,70,40

[HitObjects]
216,160,514,6,0,P|216:224|152:264,1,128,0|8,0:0|0:0,0:0:0:0:
144,188,1217,1,0,0:0:0:0:
264,96,1451,1,0,0:0:0:0:
341,108,1685,1,0,0:0:0:0:
408,148,1920,2,0,P|416:184|408:228,1,64,8|0,0:0|0:0,0:0:0:0:
360,268,2389,2,0,L|352:340,1,64,0|0,0:0|0:0,0:0:0:0:
288,372,2857,1,8,0:0:0:0:
288,372,3092,1,0,0:0:0:0:
224,328,3326,2,0,L|88:312,1,128,0|8,0:0|0:0,0:0:0:0:
288,280,4264,6,0,P|312:220|284:152,1,128,0|8,0:0|0:0,0:0:0:0:
228,124,4967,1,0,0:0:0:0:
216,48,5201,1,0,0:0:0:0:
288,76,5435,2,0,L|356:68,2,64,0|8|0,0:0|0:0|0:0,0:0:0:0:
228,124,6139,1,0,0:0:0:0:
172,176,6373,2,0,L|108:183,2,64,0|8|0,0:0|0:0|0:0,0:0:0:0:
228,124,7076,2,0,P|252:180|216:240,1,128,0|8,0:0|2:0,0:0:0:0:
136,64,8014,102,0,L|0:72,1,128,0|8,0:0|0:0,0:0:0:0:
12,148,8717,1,0,0:0:0:0:
72,200,8951,1,0,0:0:0:0:
148,216,9185,2,0,P|160:252|148:292,1,64,0|8,0:0|0:0,0:0:0:0:
96,328,9654,1,0,0:0:0:0:
96,328,9889,1,0,0:0:0:0:
160,372,10123,2,0,L|232:364,1,64,0|8,0:0|0:0,0:0:0:0:
276,308,10592,1,0,0:0:0:0:
308,240,10826,2,0,P|316:172|267:117,1,128,0|8,0:0|0:0,0:0:0:0:
204,264,11764,6,0,L|60:280,2,128,0|8|0,0:0|0:0|0:0,0:0:0:0:
223,188,12935,1,0,0:0:0:0:
248,116,13170,2,0,L|316:107,1,64,8|0,0:0|0:0,0:0:0:0:
376,152,13639,2,0,P|384:188|372:228,1,64,0|0,0:0|0:0,0:0:0:0:
320,260,14107,2,0,B|312:336,2,64,8|0|0,0:0|0:0|0:0,0:0:0:0:
284,176,14810,2,0,B|290:112,2,64,0|8|0,0:0|0:0|0:0,0:0:0:0:
192,148,15514,38,0,L|112:152,1,64,2|0,1:0|0:0,0:0:0:0:
176,64,15982,2,0,L|239:60,1,64,2|0,1:0|0:0,0:0:0:0:
192,148,16451,1,2,1:0:0:0:
208,236,16685,1,0,0:0:0:0:
276,292,16920,2,0,P|344:272|420:272,1,128,2|2,1:0|1:0,0:0:0:0:
416,360,17623,5,0,0:0:0:0:
484,304,17857,2,0,P|492:271|477:229,2,64,2|0|2,1:0|0:0|1:0,0:0:0:0:
416,360,18560,1,0,0:0:0:0:
328,340,18795,2,0,P|312:288|316:204,1,128,10|2,0:0|1:0,0:0:0:0:
328,128,19498,5,0,0:0:0:0:
240,136,19732,2,0,L|176:140,1,64,2|0,1:0|0:0,0:0:0:0:
88,148,20201,1,2,1:0:0:0:
88,148,20435,1,0,0:0:0:0:
144,216,20670,2,0,B|148:264|148:264|128:288|128:288|136:348,1,128,2|2,1:0|1:0,0:0:0:0:
220,360,21373,5,0,0:0:0:0:
292,308,21607,2,0,B|368:304|412:344|412:344|452:200,1,256,2|10,1:0|0:0,0:0:0:0:
468,136,22779,1,0,0:0:0:0:
380,140,23014,38,0,L|316:76,1,64,2|0,1:0|0:0,0:0:0:0:
228,188,23482,2,0,L|289:171,1,64,2|0,1:0|0:0,0:0:0:0:
268,32,23951,2,0,L|251:93,1,64,2|0,1:0|0:0,0:0:0:0:
160,120,24420,1,2,1:0:0:0:
160,120,24654,1,0,0:0:0:0:
132,204,24889,6,0,P|168:264|228:284,1,128,2|2,1:0|1:0,0:0:0:0:
308,284,25592,1,0,0:0:0:0:
396,268,25826,2,0,L|400:348,1,64,2|0,1:0|0:0,0:0:0:0:
484,300,26295,2,0,L|488:380,2,64,10|0|2,0:0|0:0|1:0,0:0:0:0:
468,212,26998,5,0,0:0:0:0:
396,268,27232,1,2,1:0:0:0:
484,300,27467,1,0,0:0:0:0:
468,212,27701,2,0,L|464:148,1,64,2|0,1:0|0:0,0:0:0:0:
376,160,28170,2,0,L|312:163,1,64,2|0,1:0|0:0,0:0:0:0:
188,128,28639,5,2,1:0:0:0:
188,128,28873,1,0,0:0:0:0:
68,60,29107,1,2,1:0:0:0:
68,60,29342,1,0,0:0:0:0:
188,128,29576,2,0,L|176:64,1,64,2|0,1:0|0:0,0:0:0:0:
68,60,30045,2,0,L|79:122,1,64,10|0,0:0|0:0,0:0:0:0:
152,240,30514,37,4,1:0:0:0:
256,192,30748,12,0,34264,0:0:0:0:
256,192,43639,12,0,45514,0:0:0:0:
230,264,45982,6,0,L|104:284,2,128,8|0|8,2:0|0:0|2:0,0:0:0:0:
272,200,47154,2,0,P|272:164|244:128,1,64,0|0,0:0|0:0,0:0:0:0:
204,84,47623,1,0,0:0:0:0:
280,64,47857,2,0,L|352:68,1,64,8|0,2:0|0:0,0:0:0:0:
408,112,48326,2,0,P|432:176|396:240,1,128,0|8,0:0|2:0,0:0:0:0:
344,268,49029,5,0,0:0:0:0:
344,268,49146,1,0,0:0:0:0:
344,268,49264,2,0,L|216:284,2,128,0|8|0,0:0|2:0|0:0,0:0:0:0:
412,228,50435,1,0,0:0:0:0:
436,156,50670,2,0,P|440:120|424:80,1,64,8|0,2:0|0:0,0:0:0:0:
360,68,51139,2,0,L|348:0,2,64,0|0|0,0:0|0:0|0:0,0:0:0:0:
324,136,51842,1,0,0:0:0:0:
280,200,52076,2,0,P|220:224|156:196,1,128,0|8,0:0|2:0,0:0:0:0:
100,156,52779,5,0,0:0:0:0:
100,156,52896,1,0,0:0:0:0:
100,156,53014,2,0,L|12:148,2,64,0|0|8,0:0|0:0|2:0,0:0:0:0:
164,112,53717,2,0,L|227:117,1,64,0|0,0:0|0:0,0:0:0:0:
280,176,54185,2,0,P|288:216|272:256,1,64,0|8,0:0|2:0,0:0:0:0:
224,288,54654,1,0,0:0:0:0:
224,288,54889,1,0,0:0:0:0:
148,304,55123,37,0,0:0:0:0:
148,304,55357,1,8,2:0:0:0:
80,264,55592,2,0,L|64:188,2,64,0|0|0,0:0|0:0|0:0,0:0:0:0:
148,304,56295,2,0,P|180:312|220:300,1,64,8|0,2:0|0:0,0:0:0:0:
268,256,56764,6,0,L|272:216,3,32,0|0|0|0,0:0|0:0|0:0|0:0,0:0:0:0:
300,200,57232,2,0,L|304:160,3,32,0|0|0|0,0:0|0:0|0:0|0:0,0:0:0:0:
328,140,57701,2,0,L|332:100,3,32,0|0|0|0,0:0|0:0|0:0|0:0,0:0:0:0:
360,80,58170,2,0,L|364:52,7,16,0|0|0|0|0|0|0|0,0:0|0:0|0:0|0:0|0:0|0:0|0:0|0:0,0:0:0:0:
256,192,58639,12,8,60045,3:0:0:0:
320,92,60520,38,0,P|359:137|360:232,1,128,4|2,0:0|2:0,0:0:0:0:
356,312,60988,54,0,L|277:296,1,80,8|0,3:0|3:0,0:0:0:0:
180,236,61457,2,0,L|260:216,1,80,0|2,0:0|2:0,0:0:0:0:
356,164,61926,1,8,3:0:0:0:
260,104,62160,1,0,0:0:0:0:
180,236,62395,5,0,0:0:0:0:
76,276,62629,2,0,P|75:310|52:368,2,80,2|8|0,2:0|3:0|3:0,0:0:0:0:
16,184,63332,2,0,P|16:149|40:92,1,80,0|0,0:0|0:0,0:0:0:0:
136,72,63801,2,0,P|135:106|112:164,1,80,8|4,3:0|3:0,0:0:0:0:
76,276,64270,6,0,B|121:284|121:284|164:272|164:272|208:280,1,128,4|2,0:0|2:0,0:0:0:0:
312,296,64738,21,8,3:0:0:0:
332,304,64973,1,0,3:0:0:0:
452,244,65207,1,0,0:0:0:0:
432,236,65441,1,2,2:0:0:0:
480,136,65676,2,0,L|372:92,1,80,8|0,3:0|0:0,0:0:0:0:
296,52,66145,6,0,B|287:58|287:58|280:50|280:50|270:60|270:60|264:48|264:48|254:59|254:59|248:46|248:46|238:57|238:57|232:44|232:44|225:51|225:51|217:45,1,128,0|2,0:0|2:0,0:0:0:0:
96,124,66613,2,0,B|104:130|104:130|113:123|113:123|119:136|119:136|128:125|128:125|135:138|135:138|144:127|144:127|151:140|151:140|160:129|160:129|166:139|166:139|174:136,1,128,8|0,3:0|3:0,0:0:0:0:
301,182,67082,54,0,P|348:276|448:208,1,256,0|8,0:0|3:0,0:0:0:0:
228,120,68020,70,0,P|179:145|124:92,1,128,4|2,0:0|2:0,0:0:0:0:
40,40,68488,37,8,3:0:0:0:
40,40,68723,1,0,3:0:0:0:
16,148,68957,1,0,0:0:0:0:
16,148,69191,1,2,2:0:0:0:
124,116,69426,2,0,L|220:72,1,80,8|0,3:0|0:0,0:0:0:0:
304,48,69895,6,0,P|340:76|380:76,1,80,0|2,0:0|2:0,0:0:0:0:
476,36,70363,1,8,3:0:0:0:
476,36,70598,1,0,3:0:0:0:
408,124,70832,2,0,P|369:133|320:124,2,80,0|0|8,0:0|0:0|3:0,0:0:0:0:
476,36,71535,1,4,3:0:0:0:
496,160,71770,22,0,L|516:320,1,128,4|2,0:0|2:0,0:0:0:0:
420,352,72238,70,0,L|504:376,2,80,8|0|0,3:0|3:0|0:0,0:0:0:0:
364,256,72941,2,0,L|287:234,1,80,0|8,0:0|3:0,0:0:0:0:
264,124,73410,1,0,0:0:0:0:
148,40,73645,38,0,B|124:57|124:57|132:81|132:81|111:94|111:94|119:118|119:118|97:132|97:132|104:160|104:160|84:176|84:176|92:204|92:204|60:228|60:228|97:264|97:264|49:292|49:292|94:338|94:338|45:373,1,480,0|8,0:0|3:0,0:0:0:0:
372,220,75520,54,0,L|248:232,1,111.999996582031,4|2,0:0|2:0,0:0:0:0:
172,192,75988,38,0,P|160:152|172:104,1,80,8|0,3:0|3:0,0:0:0:0:
260,144,76457,1,0,0:0:0:0:
88,244,76691,2,0,L|8:252,2,80,2|8|0,2:0|3:0|0:0,0:0:0:0:
208,272,77395,2,0,P|220:316|208:360,1,80,0|2,0:0|2:0,0:0:0:0:
88,244,77863,2,0,P|76:200|88:156,2,80,8|0|0,3:0|3:0|0:0,0:0:0:0:
208,272,78566,1,2,2:0:0:0:
192,147,78801,2,0,P|174:106|121:83,1,80,8|4,3:0|3:0,0:0:0:0:
208,272,79270,38,0,L|344:272,1,111.999996582031,4|2,0:0|2:0,0:0:0:0:
396,204,79738,53,8,3:0:0:0:
304,180,79973,1,0,3:0:0:0:
412,284,80207,2,0,L|396:204,1,80,0|2,0:0|2:0,0:0:0:0:
304,180,80676,2,0,P|288:140|304:88,1,80,8|0,3:0|0:0,0:0:0:0:
212,56,81145,86,0,L|168:64,3,40,8|0|2|0,3:0|0:0|2:0|0:0,0:0:0:0:
152,104,81613,2,0,L|112:112,3,40,8|0|0|0,3:0|0:0|3:0|0:0,0:0:0:0:
84,148,82082,2,0,P|68:236|112:292,1,160,8|8,3:0|3:0,0:0:0:0:
160,208,82785,1,4,3:0:0:0:
176,76,83020,22,0,B|212:72|212:72|232:56|232:56|264:56|264:56|300:40,1,111.999996582031,4|2,0:0|2:0,0:0:0:0:
356,112,83488,70,0,P|368:152|356:192,1,80,8|0,3:0|3:0,0:0:0:0:
292,260,83957,1,0,0:0:0:0:
292,260,84191,1,2,2:0:0:0:
204,296,84426,2,0,L|124:304,1,80,8|0,3:0|0:0,0:0:0:0:
56,248,84895,37,0,0:0:0:0:
56,248,85129,2,0,P|44:204|56:160,1,80,2|0,2:0|0:0,0:0:0:0:
124,108,85598,1,0,3:0:0:0:
204,160,85832,2,0,L|296:168,1,80,0|2,0:0|2:0,0:0:0:0:
364,216,86301,1,8,3:0:0:0:
280,264,86535,1,4,3:0:0:0:
232,92,86770,54,0,P|168:96|136:136,1,111.999996582031,4|2,0:0|2:0,0:0:0:0:
128,244,87238,38,0,L|136:324,1,80,8|0,3:0|3:0,0:0:0:0:
216,200,87707,2,0,P|264:188|304:200,1,80,0|2,0:0|2:0,0:0:0:0:
460,212,88176,2,0,P|412:224|372:212,1,80,8|0,3:0|0:0,0:0:0:0:
340,144,88645,6,0,L|328:72,1,64,2|0,0:0|0:0,0:0:0:0:
304,52,88996,2,0,P|268:48|228:64,1,64,2|0,0:0|0:0,0:0:0:0:
220,88,89348,2,0,L|144:100,1,64,2|0,0:0|0:0,0:0:0:0:
128,124,89699,2,0,P|128:160|144:192,1,64,2|0,0:0|0:0,0:0:0:0:
172,208,90051,2,0,B|188:232|188:232|192:268|192:268|212:308,1,96,2|0,0:0|0:0,0:0:0:0:
288,332,90520,22,0,L|416:328,1,128,4|2,0:0|2:0,0:0:0:0:
496,248,90988,70,0,L|492:196,3,40,8|0|0|0,3:0|0:0|3:0|0:0,0:0:0:0:
492,168,91457,1,0,0:0:0:0:
308,192,91691,1,2,2:0:0:0:
400,180,91926,2,0,L|392:84,1,80,8|0,3:0|0:0,0:0:0:0:
404,60,92277,1,4,3:0:0:0:
364,68,92395,38,0,L|256:64,1,80,4|2,0:0|2:0,0:0:0:0:
172,52,92863,2,0,L|124:48,3,40,8|0|0|0,3:0|0:0|3:0|0:0,0:0:0:0:
91,36,93332,2,0,P|58:56|41:92,1,80,0|2,0:0|2:0,0:0:0:0:
64,128,93684,1,0,0:0:0:0:
88,160,93801,2,0,P|71:195|37:216,1,80,8|0,3:0|0:0,0:0:0:0:
120,316,94270,54,0,P|169:275|200:216,1,128,4|2,0:0|2:0,0:0:0:0:
308,200,94738,38,0,L|376:232,1,40,8|0,3:0|0:0,0:0:0:0:
336,272,94973,2,0,L|404:304,1,40,0|0,3:0|0:0,0:0:0:0:
376,344,95207,2,0,L|472:384,1,80,0|2,0:0|2:0,0:0:0:0:
504,360,95559,1,0,0:0:0:0:
484,308,95676,2,0,P|466:273|468:212,1,80,8|0,3:0|0:0,0:0:0:0:
400,140,96145,6,0,L|420:48,1,80,4|2,0:0|2:0,0:0:0:0:
376,24,96496,1,0,0:0:0:0:
328,52,96613,2,0,L|250:34,1,80,8|0,3:0|3:0,0:0:0:0:
132,64,97082,2,0,L|80:52,1,40,0|0,0:0|0:0,0:0:0:0:
92,112,97316,2,0,L|40:100,1,40,2|0,2:0|0:0,0:0:0:0:
52,160,97551,2,0,L|0:148,2,40,8|0|0,3:0|0:0|0:0,0:0:0:0:
212,76,98020,22,0,P|272:84|344:64,1,128,4|2,0:0|2:0,0:0:0:0:
444,36,98488,70,0,L|460:72,3,40,8|0|0|0,3:0|0:0|3:0|0:0,0:0:0:0:
456,112,98957,1,0,0:0:0:0:
324,200,99191,1,2,2:0:0:0:
392,156,99426,1,8,3:0:0:0:
396,236,99660,1,0,0:0:0:0:
252,164,99895,38,0,L|172:160,1,80,4|2,0:0|2:0,0:0:0:0:
48,136,100363,1,8,3:0:0:0:
52,176,100480,1,0,0:0:0:0:
56,216,100598,1,0,3:0:0:0:
60,256,100715,1,0,0:0:0:0:
64,296,100832,2,0,B|84:332|84:332|132:360,2,80,0|2|8,0:0|2:0|3:0,0:0:0:0:
52,176,101535,1,0,0:0:0:0:
36,40,101770,54,0,L|192:48,1,128,4|2,0:0|2:0,0:0:0:0:
244,124,102238,38,0,L|292:128,1,40,8|0,3:0|0:0,0:0:0:0:
324,88,102473,2,0,L|372:92,1,40,0|0,3:0|0:0,0:0:0:0:
416,108,102707,2,0,P|399:146|424:208,1,80,0|2,0:0|2:0,0:0:0:0:
428,216,103059,1,0,0:0:0:0:
460,240,103176,2,0,L|368:256,1,80,8|4,3:0|3:0,0:0:0:0:
212,280,103645,5,8,3:0:0:0:
100,216,103879,1,0,0:0:0:0:
100,216,103996,1,0,0:0:0:0:
100,216,104113,2,0,L|56:224,2,40,8|0|0,3:0|0:0|0:0,0:0:0:0:
132,180,104465,1,0,0:0:0:0:
164,144,104582,2,0,L|203:136,2,40,8|0|0,3:0|0:0|0:0,0:0:0:0:
44,104,105051,1,8,3:0:0:0:
100,216,105285,1,4,3:0:0:0:
224,272,105520,22,0,L|336:244,1,111.999996582031,4|2,0:0|2:0,0:0:0:0:
364,220,105871,69,0,0:0:0:0:
384,184,105988,2,0,P|384:136|356:100,1,80,8|0,3:0|3:0,0:0:0:0:
264,188,106457,2,0,P|264:236|292:272,1,80,0|2,0:0|2:0,0:0:0:0:
364,312,106926,2,0,L|452:316,1,80,8|0,0:3|0:0,0:0:0:0:
280,356,107395,38,0,L|188:352,1,80,4|2,0:0|2:0,0:0:0:0:
164,332,107746,1,0,0:0:0:0:
132,308,107863,2,0,B|108:304|108:304|84:304,1,40,8|0,3:0|0:0,0:0:0:0:
52,296,108097,2,0,P|36:276|24:244,1,40,0|0,3:0|0:0,0:0:0:0:
20,224,108332,2,0,P|12:180|36:132,1,80,0|2,0:0|2:0,0:0:0:0:
100,88,108801,2,0,L|188:80,1,80,8|0,3:0|0:0,0:0:0:0:
304,132,109270,54,0,P|368:152|432:120,1,111.999996582031,4|2,0:0|2:0,0:0:0:0:
464,200,109738,38,0,L|456:248,1,40,8|0,3:0|0:0,0:0:0:0:
424,260,109973,2,0,L|416:308,1,40,0|0,3:0|0:0,0:0:0:0:
388,324,110207,2,0,L|304:328,1,80,0|2,0:0|2:0,0:0:0:0:
232,268,110676,2,0,P|220:224|240:176,1,80,8|0,0:3|0:0,0:0:0:0:
304,132,111145,6,0,P|312:93|300:55,1,80,0|2,0:0|2:0,0:0:0:0:
264,44,111496,1,0,0:0:0:0:
224,36,111613,2,0,L|144:44,1,80,8|0,3:0|3:0,0:0:0:0:
112,68,111965,1,0,0:0:0:0:
80,88,112082,2,0,L|0:96,2,80,0|2|8,0:0|2:0|3:0,0:0:0:0:
136,168,112785,1,0,0:0:0:0:
292,96,113020,22,0,L|404:84,1,111.999996582031,4|2,0:0|2:0,0:0:0:0:
440,100,113371,69,0,0:0:0:0:
472,124,113488,2,0,P|488:164|476:212,1,80,8|0,3:0|3:0,0:0:0:0:
424,264,113957,2,0,L|416:352,1,80,0|2,0:0|2:0,0:0:0:0:
344,224,114426,2,0,P|304:212|256:220,1,80,8|0,3:0|0:0,0:0:0:0:
192,276,114895,38,0,L|108:284,1,80,4|2,0:0|2:0,0:0:0:0:
84,256,115246,1,0,0:0:0:0:
76,216,115363,2,0,L|68:168,1,40,8|0,3:0|0:0,0:0:0:0:
88,140,115597,2,0,L|80:92,1,40,0|0,3:0|0:0,0:0:0:0:
116,80,115832,2,0,P|148:64|208:72,1,80,0|2,0:0|2:0,0:0:0:0:
264,132,116301,2,0,L|276:224,1,80,8|0,3:0|0:0,0:0:0:0:
400,260,116770,54,0,L|380:136,1,111.999996582031,4|2,0:0|2:0,0:0:0:0:
316,80,117238,38,0,L|320:40,3,40,8|0|0|0,3:0|0:0|3:0|0:0,0:0:0:0:
220,88,117707,2,0,L|212:152,3,40,0|0|2|0,0:0|0:0|2:0|0:0,0:0:0:0:
212,168,118176,2,0,P|212:209|178:254,1,80,8|0,3:0|0:0,0:0:0:0:
104,276,118645,6,0,L|12:268,1,80,8|0,0:3|0:0,0:0:0:0:
192,312,119113,2,0,L|271:300,1,80,8|0,0:3|0:0,0:0:0:0:
328,224,119582,2,0,P|328:180|296:140,1,80,8|0,0:3|0:0,0:0:0:0:
236,212,120051,1,8,3:0:0:0:
400,148,120285,1,4,3:0:0:0:
364,320,120520,5,4,0:0:0:0:
256,192,131770,12,4,135051,2:0:0:0:
132,48,135520,38,0,L|124:184,1,128,0|2,0:0|0:0,0:0:0:0:
147,251,136223,1,0,0:0:0:0:
219,219,136457,1,0,0:0:0:0:
212,296,136691,1,0,0:0:0:0:
143,332,136926,1,2,0:0:0:0:
212,296,137160,6,0,P|334:268|368:148,1,256,0|0,0:0|0:0,0:0:0:0:
300,186,138332,2,0,P|288:211|250:228,2,64,0|0|2,0:0|0:0|0:0,0:0:0:0:
268,116,139035,6,0,B|148:44|148:192|24:116,1,256,0|0,0:0|0:0,0:0:0:0:
88,57,140207,2,0,P|115:42|144:28,1,64,0|0,0:0|0:0,0:0:0:0:
207,179,140676,2,0,P|179:194|150:208,1,64,2|0,0:0|0:0,0:0:0:0:
76,220,141145,6,0,P|48:200|4:184,2,64,0|0|2,0:0|0:0|0:0,0:0:0:0:
104,292,141848,2,0,L|231:299,1,128,0|0,0:0|0:0,0:0:0:0:
308,320,142551,1,2,0:0:0:0:
384,340,142785,38,0,B|392:264|324:240|324:240|288:168|396:112|436:196,1,320,0|0,0:0|0:0,0:0:0:0:
472,284,144191,1,0,0:0:0:0:
384,340,144426,1,2,0:0:0:0:
284,332,144660,6,0,P|165:342|126:230,1,256,0|0,0:0|0:0,0:0:0:0:
196,196,145832,2,0,P|200:160|184:124,1,64,0|0,0:0|0:0,0:0:0:0:
152,68,146301,1,2,0:0:0:0:
196,196,146535,6,0,P|318:197|384:84,1,256,0|0,0:0|0:0,0:0:0:0:
260,88,147707,2,0,P|224:84|192:56,1,64,0|0,0:0|0:0,0:0:0:0:
80,40,148176,2,0,P|77:71|88:112,1,64,2|0,0:0|0:0,0:0:0:0:
112,188,148645,5,8,0:0:0:0:
212,304,149113,1,8,0:0:0:0:
364,284,149582,1,8,0:0:0:0:
364,284,149816,2,0,L|392:344,2,64,0|8|0,0:0|0:0|0:0,0:0:0:0:
296,256,150513,38,0,P|264:196|296:128,1,128,0|2,0:0|0:0,0:0:0:0:
344,192,151216,1,0,0:0:0:0:
192,140,151450,2,0,L|112:136,1,64,0|0,0:0|0:0,0:0:0:0:
60,176,151919,2,0,P|52:212|64:248,1,64,2|0,0:0|0:0,0:0:0:0:
116,288,152388,6,0,L|128:360,2,64,0|0|2,0:0|0:0|0:0,0:0:0:0:
204,376,153091,2,0,P|236:380|284:356,1,64,0|0,0:0|0:0,0:0:0:0:
316,312,153559,1,0,0:0:0:0:
316,312,153794,1,2,0:0:0:0:
240,296,154028,1,0,0:0:0:0:
240,296,154263,6,0,L|251:232,1,64,0|0,0:0|0:0,0:0:0:0:
316,192,154731,1,2,0:0:0:0:
308,116,154966,2,0,P|302:83|265:47,1,64,0|0,0:0|0:0,0:0:0:0:
208,56,155434,1,0,0:0:0:0:
140,92,155669,2,0,L|64:104,1,64,2|0,0:0|0:0,0:0:0:0:
208,56,156138,6,0,L|280:44,2,64,0|0|2,0:0|0:0|0:0,0:0:0:0:
140,92,156841,2,0,P|128:156|176:208,1,128,0|0,0:0|0:0,0:0:0:0:
204,136,157544,1,2,0:0:0:0:
104,252,157778,1,0,0:0:0:0:
164,204,158013,37,0,0:0:0:0:
164,204,158247,2,0,P|195:200|226:208,1,64,0|2,0:0|0:0,0:0:0:0:
300,188,158716,1,0,0:0:0:0:
300,188,158950,2,0,P|304:144|292:116,1,64,0|0,0:0|0:0,0:0:0:0:
344,64,159419,2,0,L|412:56,1,64,2|0,0:0|0:0,0:0:0:0:
476,92,159888,6,0,P|500:152|472:220,1,128,0|2,0:0|0:0,0:0:0:0:
424,264,160591,1,0,0:0:0:0:
352,236,160825,2,0,L|268:232,1,64,0|0,0:0|0:0,0:0:0:0:
220,272,161294,2,0,P|212:312|220:344,1,64,2|0,0:0|0:0,0:0:0:0:
288,308,161763,5,0,0:0:0:0:
220,192,161997,1,0,0:0:0:0:
164,136,162231,2,0,L|88:128,1,64,2|0,0:0|0:0,0:0:0:0:
236,88,162700,2,0,L|300:80,1,64,0|0,0:0|0:0,0:0:0:0:
376,92,163169,1,2,0:0:0:0:
420,156,163403,1,0,0:0:0:0:
380,224,163638,6,0,L|372:296,2,64,0|0|2,0:0|0:0|0:0,0:0:0:0:
320,176,164341,2,0,P|288:168|244:180,1,64,0|0,0:0|0:0,0:0:0:0:
232,244,164809,2,0,P|184:200|192:136,1,128,0|0,0:0|0:0,0:0:0:0:
104,64,165513,38,0,L|0:68,2,96,0|0|0,0:0|0:0|0:0,0:0:0:0:
220,72,166567,1,0,0:0:0:0:
328,28,166919,1,0,0:0:0:0:
328,28,167388,6,0,L|348:132,1,96,0|0,0:0|0:0,0:0:0:0:
404,220,168091,1,0,0:0:0:0:
308,284,168442,1,0,0:0:0:0:
248,184,168794,1,0,0:0:0:0:
248,184,169263,6,0,P|200:195|144:192,1,96,0|0,0:0|0:0,0:0:0:0:
52,136,169966,2,0,P|48:90|29:37,2,96,0|0|0,0:0|0:0|0:0,0:0:0:0:
52,136,171138,5,0,0:0:0:0:
112,236,171489,1,0,0:0:0:0:
60,340,171841,1,0,0:0:0:0:
112,236,172192,2,0,L|207:239,1,96,0|0,0:0|0:0,0:0:0:0:
208,239,173013,38,0,P|207:277|216:328,1,80,0|0,0:0|0:0,0:0:0:0:
316,176,173481,2,0,P|316:137|308:87,1,80,2|0,0:0|0:0,0:0:0:0:
228,152,173950,2,0,P|190:151|139:160,1,80,0|0,0:0|0:0,0:0:0:0:
291,260,174418,2,0,P|330:260|380:252,1,80,2|0,0:0|0:0,0:0:0:0:
488,216,174888,5,0,0:0:0:0:
484,208,175122,1,0,0:0:0:0:
428,92,175356,1,2,0:0:0:0:
424,100,175591,1,0,0:0:0:0:
324,180,175825,1,0,0:0:0:0:
320,172,176059,1,0,0:0:0:0:
244,72,176294,1,2,0:0:0:0:
240,80,176528,1,0,0:0:0:0:
124,132,176763,6,0,L|64:116,3,40,0|0|0|0,0:0|0:0|0:0|0:0,0:0:0:0:
56,160,177231,2,0,L|16:160,3,40,0|0|0|0,0:0|0:0|0:0|0:0,0:0:0:0:
8,208,177700,1,0,0:0:0:0:
28,244,177817,1,0,0:0:0:0:
48,280,177934,1,0,0:0:0:0:
68,316,178052,1,0,0:0:0:0:
88,352,178169,2,0,L|104:376,7,20,0|0|0|0|0|0|0|0,0:0|0:0|0:0|0:0|0:0|0:0|0:0|0:0,0:0:0:0:
120,364,178638,6,0,L|198:350,1,80,0|0,0:0|0:0,0:0:0:0:
320,220,179106,2,0,L|241:233,1,80,0|0,0:0|0:0,0:0:0:0:
148,252,179575,1,0,0:0:0:0:
288,140,179809,2,0,L|366:126,1,80,0|12,0:0|0:0,0:0:0:0:
180,236,180519,6,0,L|68:260,1,111.999996582031,4|2,0:3|2:0,0:0:0:0:
32,172,180987,54,0,L|88:160,3,40,8|0|0|0,3:0|0:0|3:0|0:0,0:0:0:0:
88,128,181456,2,0,L|132:120,3,40,0|0|2|0,0:0|0:0|2:0|0:0,0:0:0:0:
164,136,181925,2,0,P|184:168|176:220,1,80,8|0,3:0|0:0,0:0:0:0:
76,324,182394,2,0,P|56:292|64:240,1,80,0|2,0:0|2:0,0:0:0:0:
104,184,182862,6,0,L|88:100,1,80,8|0,3:0|3:0,0:0:0:0:
108,68,183214,1,0,0:0:0:0:
140,44,183331,2,0,P|180:32|232:52,1,80,0|2,0:0|2:0,0:0:0:0:
248,68,183683,1,0,0:0:0:0:
280,104,183800,2,0,L|288:156,1,40,8|0,3:0|0:0,0:0:0:0:
252,176,184034,2,0,L|248:232,1,40,8|0,3:0|0:0,0:0:0:0:
216,244,184269,6,0,L|84:264,1,128,4|2,0:0|2:0,0:0:0:0:
36,184,184737,22,0,L|32:132,1,40,8|0,3:0|0:0,0:0:0:0:
60,112,184972,2,0,L|56:60,1,40,0|0,3:0|0:0,0:0:0:0:
76,36,185206,2,0,L|168:48,1,80,0|2,0:0|2:0,0:0:0:0:
232,104,185675,6,0,P|244:148|224:200,1,80,8|0,0:3|0:0,0:0:0:0:
172,252,186144,1,0,0:0:0:0:
172,252,186261,1,0,0:0:0:0:
172,252,186378,2,0,L|156:344,1,80,2|8,2:0|3:0,0:0:0:0:
128,356,186729,1,0,0:0:0:0:
88,364,186847,1,0,3:0:0:0:
52,356,186964,1,0,0:0:0:0:
28,328,187081,38,2,L|48:200,1,111.999996582031,4|2,0:0|2:0,0:0:0:0:
152,136,187550,2,2,B|184:136|184:136|204:128|204:128|232:136|232:136|268:136,1,111.999996582031,4|8,0:0|3:0,0:0:0:0:
240,268,188019,2,0,B|272:252|272:252|312:256|312:256|360:236,1,111.999996582031,4|2,0:0|2:0,0:0:0:0:
428,192,188487,70,0,L|436:144,3,40,8|0|0|0,3:0|0:0|3:0|0:0,0:0:0:0:
408,120,188956,2,0,L|416:72,3,40,0|0|2|0,0:0|0:0|2:0|0:0,0:0:0:0:
396,44,189425,2,0,P|356:32|300:44,1,80,8|0,3:0|3:0,0:0:0:0:
236,88,189894,2,0,P|196:91|158:80,1,80,0|2,0:0|2:0,0:0:0:0:
124,60,190245,1,0,0:0:0:0:
92,40,190362,2,0,L|80:124,1,80,8|0,3:0|3:0,0:0:0:0:
68,252,190831,6,0,P|124:268|200:216,1,111.999996582031,4|2,0:0|2:0,0:0:0:0:
248,140,191300,2,0,P|304:124|364:148,1,111.999996582031,8|8,3:0|3:0,0:0:0:0:
464,288,191769,2,0,L|472:160,1,128,4|2,0:0|2:0,0:0:0:0:
428,80,192237,22,0,L|384:76,1,40,8|0,3:0|0:0,0:0:0:0:
344,140,192472,2,0,L|300:136,1,40,0|0,3:0|0:0,0:0:0:0:
256,204,192706,2,0,L|212:200,1,40,0|0,0:0|0:0,0:0:0:0:
172,264,192940,2,0,L|128:260,1,40,2|0,2:0|0:0,0:0:0:0:
96,240,193175,85,8,3:0:0:0:
80,204,193292,1,0,0:0:0:0:
84,164,193409,1,0,3:0:0:0:
104,128,193526,1,0,0:0:0:0:
256,192,193644,12,12,195050,3:0:0:0:
430,174,195519,54,0,P|374:206|282:194,1,128,4|2,0:0|2:0,0:0:0:0:
228,160,195987,22,0,L|164:176,3,40,8|0|0|0,3:0|0:0|3:0|0:0,0:0:0:0:
144,184,196456,2,0,L|113:109,1,80,0|2,0:0|2:0,0:0:0:0:
40,172,196925,2,0,L|70:245,1,80,8|0,3:0|0:0,0:0:0:0:
56,356,197394,70,2,L|104:352,1,40,2|0,0:0|0:0,0:0:0:0:
180,304,197862,22,0,L|228:312,3,40,8|0|0|0,3:0|0:0|3:0|0:0,0:0:0:0:
240,352,198331,2,0,P|275:368|344:368,1,80,0|2,0:0|2:0,0:0:0:0:
392,316,198800,2,0,P|356:299|288:300,1,80,8|0,3:0|0:0,0:0:0:0:
468,344,199269,38,0,P|483:282|476:220,1,128,4|2,0:0|2:0,0:0:0:0:
372,132,199737,53,8,3:0:0:0:
345,140,199854,1,0,0:0:0:0:
317,133,199972,1,0,3:0:0:0:
296,113,200089,1,0,0:0:0:0:
289,85,200206,2,0,L|209:96,1,80,0|2,0:0|2:0,0:0:0:0:
64,100,200675,2,0,L|72:160,3,40,8|0|8|0,3:0|0:0|3:0|0:0,0:0:0:0:
140,180,201144,2,0,L|148:240,3,40,0|0|2|0,0:0|0:0|2:0|0:0,0:0:0:0:
88,276,201612,2,0,L|96:336,3,40,8|0|0|0,3:0|0:0|3:0|0:0,0:0:0:0:
124,340,202081,38,2,L|163:336,1,40,2|0,0:3|0:0,0:0:0:0:
296,288,202550,2,2,L|335:284,1,40,10|0,0:3|0:0,0:0:0:0:
408,168,203019,70,0,L|280:179,1,128,4|2,0:0|2:0,0:0:0:0:
216,272,203487,70,0,L|160:276,3,40,8|0|0|0,3:0|0:0|3:0|0:0,0:0:0:0:
108,316,203956,2,0,L|48:304,1,40,0|0,0:0|0:0,0:0:0:0:
96,232,204190,2,0,L|43:200,1,40,2|0,2:0|0:0,0:0:0:0:
112,148,204425,2,0,L|73:100,1,40,8|0,3:0|0:0,0:0:0:0:
156,75,204659,2,0,L|136:17,1,40,0|0,3:0|0:0,0:0:0:0:
220,20,204894,22,2,L|260:24,1,40,2|0,0:0|0:0,0:0:0:0:
380,60,205362,5,8,3:0:0:0:
376,88,205479,1,0,0:0:0:0:
372,116,205597,1,0,3:0:0:0:
368,144,205714,1,0,0:0:0:0:
364,172,205831,2,0,L|304:180,1,40,0|0,0:0|0:0,0:0:0:0:
296,260,206065,2,0,L|335:254,1,40,2|0,2:0|0:0,0:0:0:0:
416,264,206300,2,0,L|356:272,1,40,8|0,3:0|0:0,0:0:0:0:
348,352,206534,2,0,L|387:346,1,40,8|0,3:0|0:0,0:0:0:0:
476,328,206769,54,0,P|504:268|484:208,1,128,4|2,0:0|2:0,0:0:0:0:
464,96,207237,38,0,P|433:103|364:84,1,80,8|0,3:0|3:0,0:0:0:0:
352,80,207589,1,0,0:0:0:0:
328,56,207706,2,0,P|304:84|260:104,1,80,0|2,0:0|2:0,0:0:0:0:
232,108,208058,1,0,0:0:0:0:
196,96,208175,2,0,P|160:112|133:142,1,80,8|8,3:0|3:0,0:0:0:0:
120,176,208526,1,0,0:0:0:0:
124,212,208644,6,0,L|48:168,1,64,2|2,0:0|0:0,0:0:0:0:
64,272,208995,2,0,L|119:304,1,64,2|2,0:0|0:0,0:0:0:0:
196,256,209347,2,0,L|251:288,1,64,2|2,0:1|0:0,0:0:0:0:
344,292,209698,2,0,P|332:240|300:208,1,96,2|8,0:0|3:0,0:0:0:0:
303,210,210519,22,0,L|176:200,1,111.999996582031,4|2,0:0|2:0,0:0:0:0:
244,64,210987,2,0,L|368:72,1,111.999996582031,4|0,0:0|3:0,0:0:0:0:
436,144,211456,22,0,P|444:184|428:224,1,80,0|2,0:0|2:0,0:0:0:0:
348,268,211925,1,8,3:0:0:0:
348,268,212042,1,0,0:0:0:0:
348,268,212159,2,0,L|264:280,1,80,8|0,3:0|0:0,0:0:0:0:
180,240,212628,1,2,2:0:0:0:
180,240,212745,1,0,0:0:0:0:
180,240,212862,2,0,P|140:224|100:232,1,80,8|0,3:0|3:0,0:0:0:0:
20,276,213331,2,0,L|32:176,1,80,0|2,0:0|2:0,0:0:0:0:
44,120,213800,70,2,L|148:112,1,96,8|2,3:0|0:0,0:0:0:0:
164,140,214269,70,0,L|292:132,1,111.999996582031,4|2,0:0|2:0,0:0:0:0:
372,184,214737,38,0,P|384:224|372:268,1,80,8|0,3:0|3:0,0:0:0:0:
292,132,215206,2,0,L|280:48,1,80,0|2,0:0|2:0,0:0:0:0:
232,204,215675,1,8,3:0:0:0:
232,204,215792,1,0,0:0:0:0:
232,204,215909,1,0,3:0:0:0:
164,272,216144,2,0,L|176:364,1,80,0|2,0:0|2:0,0:0:0:0:
92,232,216612,2,0,P|72:192|84:136,1,80,8|0,3:0|3:0,0:0:0:0:
136,84,217081,2,0,B|232:72|232:72|296:140|408:112,1,280,0|0,0:0|0:0,0:0:0:0:
432,128,218019,38,0,P|448:188|416:256,1,111.999996582031,4|2,0:0|2:0,0:0:0:0:
352,288,218487,54,0,L|268:280,1,80,8|0,3:0|3:0,0:0:0:0:
224,132,218956,2,0,P|208:168|216:216,1,80,0|2,0:0|2:0,0:0:0:0:
288,240,219425,2,0,L|296:288,1,40,8|0,3:0|0:0,0:0:0:0:
248,348,219659,1,8,3:0:0:0:
248,348,219776,1,0,0:0:0:0:
248,348,219894,6,0,L|152:356,2,80,0|2|8,0:0|2:0|3:0,0:0:0:0:
344,328,220597,2,0,P|360:284|344:236,1,80,0|0,3:0|0:0,0:0:0:0:
292,180,221065,1,2,2:0:0:0:
328,92,221300,1,8,3:0:0:0:
424,76,221534,1,8,3:0:0:0:
292,180,221769,6,0,L|168:204,1,111.999996582031,4|2,0:0|2:0,0:0:0:0:
96,140,222237,21,8,3:0:0:0:
182,201,222472,1,0,3:0:0:0:
232,276,222706,2,0,P|244:316|224:364,1,80,0|2,0:0|2:0,0:0:0:0:
182,201,223175,2,0,L|184:116,1,80,8|0,3:0|3:0,0:0:0:0:
248,60,223644,5,0,0:0:0:0:
248,60,223761,2,0,L|312:56,1,64,0|0,0:0|0:0,0:0:0:0:
340,76,224112,2,0,P|352:120|340:160,1,64,0|0,0:0|0:0,0:0:0:0:
308,204,224581,2,0,L|260:208,1,32,0|0,0:0|0:0,0:0:0:0:
244,224,224815,2,0,L|200:220,1,32,0|0,0:0|0:0,0:0:0:0:
176,232,225050,1,8,3:0:0:0:
20,80,225519,38,0,P|92:92|156:84,1,128,4|2,0:0|2:0,0:0:0:0:
248,44,225987,21,8,3:0:0:0:
248,44,226222,1,0,3:0:0:0:
360,52,226456,2,0,P|363:90|376:132,1,80,0|2,0:0|2:0,0:0:0:0:
480,232,226925,2,0,P|476:193|464:152,1,80,8|4,3:0|3:0,0:0:0:0:
359,52,227394,6,0,P|349:90|320:128,1,80,0|2,0:0|2:0,0:0:0:0:
276,148,227745,1,0,0:0:0:0:
224,132,227862,2,0,L|168:144,1,40,8|0,3:0|0:0,0:0:0:0:
128,132,228097,2,0,P|136:176|128:224,1,80,0|0,3:0|0:0,0:0:0:0:
104,256,228448,2,0,L|64:244,2,40,0|2|0,0:0|2:0|0:0,0:0:0:0:
140,300,228800,2,0,L|228:328,1,80,8|0,3:0|0:0,0:0:0:0:
268,340,229151,1,0,0:0:0:0:
320,356,229269,38,0,L|320:228,1,128,4|2,0:0|2:0,0:0:0:0:
400,108,229737,54,0,L|400:196,1,80,8|0,3:0|3:0,0:0:0:0:
488,280,230206,2,0,L|488:200,1,80,0|2,0:0|2:0,0:0:0:0:
400,108,230675,1,8,3:0:0:0:
488,200,230909,1,0,0:0:0:0:
344,204,231144,6,0,P|328:215|304:224,1,40,0|0,0:0|0:0,0:0:0:0:
180,192,231378,2,0,P|195:179|214:172,1,40,2|0,2:0|0:0,0:0:0:0:
268,115,231612,2,0,P|280:131|287:150,1,40,8|0,3:0|0:0,0:0:0:0:
255,279,231847,2,0,P|243:264|236:245,1,40,0|0,3:0|0:0,0:0:0:0:
180,192,232081,22,2,L|116:204,1,60,2|0,0:0|0:0,0:0:0:0:
72,140,232550,6,0,L|150:124,1,80,8|8,3:0|3:0,0:0:0:0:
268,116,233019,2,0,P|312:124|352:116,1,80,8|2,0:3|2:0,0:0:0:0:
392,100,233370,1,0,0:0:0:0:
420,64,233487,2,0,P|440:97|440:137,1,80,8|0,0:3|3:0,0:0:0:0:
420,180,233839,1,0,0:0:0:0:
392,220,233956,2,0,P|392:259|412:293,1,80,8|2,0:3|2:0,0:0:0:0:
444,328,234308,1,0,0:0:0:0:
424,372,234425,2,0,L|332:368,1,80,8|0,0:3|3:0,0:0:0:0:
268,336,234894,6,0,P|246:347|212:352,3,40,8|0|0|0,0:3|0:0|0:0|0:0,0:0:0:0:
171,295,235362,2,0,P|159:280|143:268,3,40,8|0|0|0,0:3|0:0|0:0|0:0,0:0:0:0:
68,296,235831,2,0,P|52:283|39:268,3,40,8|0|2|0,0:3|0:0|2:0|0:0,0:0:0:0:
68,192,236300,2,0,P|80:172|84:152,3,40,8|0|0|0,0:3|0:0|3:0|0:0,0:0:0:0:
92,76,236769,6,0,L|144:68,1,40,8|0,0:3|0:0,0:0:0:0:
196,116,237003,2,0,L|248:108,1,40,2|0,2:0|0:0,0:0:0:0:
276,44,237237,2,0,L|328:36,1,40,8|0,0:3|0:0,0:0:0:0:
384,80,237472,2,0,L|436:72,1,40,0|0,3:0|0:0,0:0:0:0:
496,108,237706,2,0,P|496:128|488:156,3,40,8|0|2|0,0:3|0:0|2:0|0:0,0:0:0:0:
483,186,238175,1,8,0:3:0:0:
462,220,238292,1,0,0:0:0:0:
434,248,238409,1,0,3:0:0:0:
400,269,238526,1,0,0:0:0:0:
361,281,238644,5,4,3:0:0:0:
204,260,238878,1,4,3:0:0:0:
293,191,239112,1,4,3:0:0:0:
272,348,239347,1,4,3:0:0:0:
292,192,239581,1,4,3:0:0:0:
129,234,239815,2,0,P|164:253|204:260,1,80,4|12,3:0|3:0,0:0:0:0:
352,224,240519,38,0,P|372:160|332:104,1,128,0|8,0:0|0:0,0:0:0:0:
296,172,241222,1,0,0:0:0:0:
388,48,241456,2,0,L|464:40,2,64,0|0|8,0:0|0:0|0:0,0:0:0:0:
344,112,242159,2,0,L|280:118,1,64,0|0,0:0|0:0,0:0:0:0:
216,164,242628,1,0,0:0:0:0:
204,240,242862,1,8,0:0:0:0:
264,288,243097,1,0,0:0:0:0:
332,256,243331,2,0,L|456:228,1,128,0|8,0:0|0:0,0:0:0:0:
276,200,244269,6,0,P|212:188|156:248,1,128,0|8,0:0|0:0,0:0:0:0:
232,264,244972,1,0,0:0:0:0:
88,208,245206,2,0,L|0:200,1,64,0|0,0:0|0:0,0:0:0:0:
140,148,245675,2,0,L|228:140,1,64,8|0,0:0|0:0,0:0:0:0:
268,188,246144,2,0,P|280:224|268:268,2,64,0|0|8,0:0|0:0|0:0,0:0:0:0:
272,112,246847,1,0,0:0:0:0:
272,112,247081,2,0,L|400:88,1,128,0|8,0:0|0:0,0:0:0:0:
400,88,248019,6,0,P|424:144|392:224,1,128,0|8,0:0|0:0,0:0:0:0:
340,244,248722,1,0,0:0:0:0:
268,224,248956,2,0,L|180:220,1,64,0|0,0:0|0:0,0:0:0:0:
144,172,249425,2,0,B|128:136|160:96,1,64,8|0,0:0|0:0,0:0:0:0:
204,220,249894,2,0,B|220:256|188:296,1,64,0|0,0:0|0:0,0:0:0:0:
132,316,250362,1,8,0:0:0:0:
64,284,250597,1,0,0:0:0:0:
40,212,250831,2,0,L|68:76,1,128,0|8,0:0|0:0,0:0:0:0:
120,236,251769,6,0,P|184:252|212:320,1,128,0|8,0:0|0:0,0:0:0:0:
132,316,252472,1,0,0:0:0:0:
288,280,252706,2,0,L|364:272,1,64,0|0,0:0|0:0,0:0:0:0:
400,212,253175,2,0,P|400:176|384:144,1,64,8|0,0:0|0:0,0:0:0:0:
328,104,253644,1,0,0:0:0:0:
328,104,253878,1,0,0:0:0:0:
256,72,254112,2,0,L|176:68,1,64,8|0,0:0|0:0,0:0:0:0:
136,120,254581,1,0,0:0:0:0:
84,176,254815,2,0,L|72:252,2,64,0|8|0,0:0|0:0|0:0,0:0:0:0:
192,68,255519,38,0,L|256:72,1,64,2|0,1:0|0:0,0:0:0:0:
376,128,255987,2,0,L|313:132,1,64,2|0,1:0|0:0,0:0:0:0:
184,184,256456,2,0,L|247:187,1,64,2|0,1:0|0:0,0:0:0:0:
324,208,256925,2,0,P|288:256|224:264,1,128,2|2,1:0|1:0,0:0:0:0:
148,256,257628,5,0,0:0:0:0:
72,248,257862,2,0,P|74:279|92:312,1,64,2|0,1:0|0:0,0:0:0:0:
160,340,258331,1,2,1:0:0:0:
160,340,258565,1,0,0:0:0:0:
236,320,258800,2,0,P|288:304|372:308,1,128,10|2,0:0|1:0,0:0:0:0:
436,324,259503,5,0,0:0:0:0:
415,247,259737,2,0,P|392:232|352:224,2,64,2|0|2,1:0|0:0|1:0,0:0:0:0:
436,324,260440,1,0,0:0:0:0:
360,316,260675,2,0,B|340:304|312:304|312:304|272:332|228:308,1,128,2|2,1:0|1:0,0:0:0:0:
172,276,261378,5,0,0:0:0:0:
100,248,261612,2,0,P|100:304|160:352,2,128,2|2|10,1:0|1:0|0:0,0:0:0:0:
172,276,262784,1,0,0:0:0:0:
48,188,263019,38,0,P|32:208|24:252,1,64,2|0,1:0|0:0,0:0:0:0:
140,188,263487,2,0,P|158:162|164:131,1,64,2|0,1:0|0:0,0:0:0:0:
136,60,263956,1,2,1:0:0:0:
136,60,264190,1,0,0:0:0:0:
212,68,264425,2,0,P|235:89|266:96,1,64,2|0,1:0|0:0,0:0:0:0:
344,84,264894,6,0,P|372:139|433:154,1,128,2|2,1:0|1:0,0:0:0:0:
420,79,265597,1,0,0:0:0:0:
446,229,265831,2,0,L|460:313,1,64,2|0,1:0|0:0,0:0:0:0:
360,360,266300,2,0,L|349:296,1,64,10|0,0:0|0:0,0:0:0:0:
268,260,266769,5,2,1:0:0:0:
268,260,267003,1,0,0:0:0:0:
168,276,267237,1,2,1:0:0:0:
168,276,267472,1,0,0:0:0:0:
268,260,267706,2,0,L|284:192,1,64,2|0,1:0|0:0,0:0:0:0:
168,276,268175,2,0,L|153:338,1,64,2|0,1:0|0:0,0:0:0:0:
252,368,268644,5,2,1:0:0:0:
328,372,268878,1,0,0:0:0:0:
404,340,269112,1,2,1:0:0:0:
448,260,269347,1,0,0:0:0:0:
428,168,269581,1,2,1:0:0:0:
384,76,269815,2,0,P|412:60|452:52,2,64,0|10|0,0:0|0:0|0:0,0:0:0:0:
256,192,270519,37,4,1:0:0:0:
256,192,270636,12,0,274269,0:0:0:0:
