osu file format v14

[General]
AudioFilename: Shadow of a Flower.mp3
AudioLeadIn: 0
PreviewTime: 128197
Countdown: 0
SampleSet: None
StackLeniency: 0.4
Mode: 0
LetterboxInBreaks: 1
WidescreenStoryboard: 1

[Editor]
Bookmarks: 12642,28642,42864,57086,85531,99753,128197,142419,170864,185086,213531,227753,241975,256197,270419,284642
DistanceSpacing: 1.2
BeatDivisor: 4
GridSize: 4
TimelineZoom: 1

[Metadata]
Title:Shadow of a Flower
TitleUnicode:Shadow of a Flower
Artist:StormWolf
ArtistUnicode:StormWolf
Creator:Firmatorenio
Version:Normal
Source:
Tags:pony mlp cheerilee flooooooooower
BeatmapID:1303648
BeatmapSetID:618436

[Difficulty]
HPDrainRate:4
CircleSize:3.5
OverallDifficulty:4
ApproachRate:5
SliderMultiplier:1.25
SliderTickRate:1

[Events]
//Background and Video events
0,0,"maxresdefault.jpg",0,0
//Break Periods
2,85730,94997
//Storyboard Layer 0 (Background)
//Storyboard Layer 1 (Fail)
//Storyboard Layer 2 (Pass)
//Storyboard Layer 3 (Foreground)
//Storyboard Sound Samples

[TimingPoints]
14420,444.444444444444,4,2,0,60,1,0
28642,-100,4,1,0,60,0,1
57086,-100,4,2,0,60,0,0
99753,-100,4,1,0,60,0,1
142419,-100,4,2,0,60,0,0
185086,-100,4,1,0,60,0,1
227753,-100,4,2,0,60,0,0
241975,-100,4,1,0,60,0,1
270419,-100,4,2,0,60,0,0

[HitObjects]
296,226,14420,5,4,0:0:0:0:
223,246,14642,2,0,P|162:246|135:230,1,62.5
98,205,15086,1,0,0:0:0:0:
44,152,15308,2,0,P|78:131|111:131,1,62.5
164,170,15753,1,0,0:0:0:0:
280,75,16197,2,0,P|348:92|371:155,1,125
389,210,16864,2,0,P|329:199|297:147,1,125
225,128,17531,2,0,P|208:97|207:59,1,62.5
167,6,17975,5,0,0:0:0:0:
131,72,18197,2,0,P|88:98|51:100,1,62.5
2,89,18642,1,0,0:0:0:0:
28,158,18864,2,0,P|55:224|44:282,1,125
11,341,19531,1,0,0:0:0:0:
85,340,19753,2,0,P|128:329|159:336,1,62.5
218,349,20197,2,0,P|249:350|278:340,1,62.5
345,306,20642,2,0,P|292:266|226:285,2,125
396,360,21753,5,0,0:0:0:0:
419,288,21975,2,0,P|417:224|392:196,1,62.5
382,161,22419,2,0,P|326:116|255:121,1,125
140,179,23308,2,0,P|196:219|239:217,2,93.75
101,114,24197,2,0,P|77:73|37:60,1,62.5
29,132,24642,2,0,P|52:172|92:185,1,62.5
102,244,25086,6,0,P|150:297|173:302,2,93.75
139,179,25975,1,0,0:0:0:0:
201,137,26197,2,0,P|248:131|277:144,2,62.5
133,104,26864,2,0,P|175:67|203:64,1,62.5
254,59,27308,1,0,0:0:0:0:
328,66,27531,2,0,P|385:112|401:169,1,125
387,233,28197,2,0,P|348:255|311:258,1,62.5,8|2,0:0|0:0,0:0:0:0:
329,183,28642,6,0,P|282:200|260:283,1,125,4|8,0:0|0:0,0:0:0:0:
300,327,29308,2,0,P|250:342|221:331,1,62.5,2|0,0:0|0:0,0:0:0:0:
196,280,29753,2,0,P|246:265|275:276,1,62.5,2|8,0:0|0:0,0:0:0:0:
328,257,30197,1,2,0:0:0:0:
373,316,30419,2,0,P|399:233|371:197,1,125,0|8,0:0|0:0,0:0:0:0:
311,183,31086,1,2,0:0:0:0:
367,133,31308,2,0,P|294:109|242:154,1,125,0|8,0:0|0:0,0:0:0:0:
238,204,31975,1,2,0:0:0:0:
292,255,32197,6,0,P|207:273|170:234,1,125,0|8,0:0|0:0,0:0:0:0:
166,180,32864,2,0,P|125:204|110:234,1,62.5,2|0,0:0|0:0,0:0:0:0:
117,290,33308,1,0,0:0:0:0:
52,251,33531,2,0,P|42:207|51:182,1,62.5,8|2,0:0|0:0,0:0:0:0:
79,123,33975,2,0,P|128:75|203:82,1,125,0|8,0:0|0:0,0:0:0:0:
256,82,34642,1,2,0:0:0:0:
212,142,34864,2,0,P|259:157|291:147,1,62.5,0|2,0:0|0:0,0:0:0:0:
328,106,35308,2,0,P|346:153|341:185,1,62.5,8|2,0:0|0:0,0:0:0:0:
299,224,35753,6,0,P|379:231|414:195,1,125,0|8,0:0|0:0,0:0:0:0:
411,129,36419,2,0,P|452:142|474:166,1,62.5,2|0,0:0|0:0,0:0:0:0:
415,296,37086,2,0,P|388:324|340:330,1,62.5,8|2,0:0|0:0,0:0:0:0:
291,330,37531,1,0,0:0:0:0:
224,295,37753,2,0,P|185:280|143:283,1,62.5,2|8,0:0|0:0,0:0:0:0:
93,301,38197,1,2,0:0:0:0:
111,228,38419,2,0,P|130:166|116:110,1,125,0|8,0:0|0:0,0:0:0:0:
73,46,39086,1,2,0:0:0:0:
147,41,39308,6,0,P|223:50|279:24,1,125,0|8,0:0|0:0,0:0:0:0:
335,2,39975,2,0,P|370:14|392:42,2,62.5,2|0|2,0:0|0:0|0:0,0:0:0:0:
327,76,40642,2,0,P|358:146|341:198,1,125,8|0,0:0|0:0,0:0:0:0:
294,244,41308,2,0,P|245:251|214:230,1,62.5,2|8,0:0|0:0,0:0:0:0:
168,210,41753,1,2,0:0:0:0:
139,140,41975,2,0,P|136:83|149:55,2,62.5,0|2|8,0:0|0:0|0:0,0:0:0:0:
384,311,43308,6,0,P|417:336|450:337,1,62.5,8|2,0:0|0:0,0:0:0:0:
444,264,43753,2,0,P|376:235|317:275,1,125,0|8,0:0|0:0,0:0:0:0:
311,326,44419,1,2,0:0:0:0:
237,344,44642,2,0,P|207:325|185:284,1,62.5,0|2,0:0|0:0,0:0:0:0:
215,231,45086,2,0,P|244:249|266:290,1,62.5,8|2,0:0|0:0,0:0:0:0:
192,304,45531,2,0,P|139:247|150:191,1,125,0|8,0:0|0:0,0:0:0:0:
200,156,46197,1,2,0:0:0:0:
271,179,46419,6,0,P|326:192|369:167,2,93.75,0|2|2,0:0|0:0|0:0,0:0:0:0:
255,105,47308,2,0,P|286:105|321:123,2,62.5,0|2|8,0:0|0:0|0:0,0:0:0:0:
183,82,47975,1,2,0:0:0:0:
110,63,48197,2,0,P|68:91|57:120,1,62.5,0|2,0:0|0:0,0:0:0:0:
129,135,48642,2,0,P|106:180|111:210,1,62.5,8|2,0:0|0:0,0:0:0:0:
181,189,49086,2,0,P|184:239|203:263,2,62.5,0|2|8,0:0|0:0|0:0,0:0:0:0:
202,117,49753,1,2,0:0:0:0:
254,169,49975,6,0,P|313:160|349:86,1,125,0|8,0:0|0:0,0:0:0:0:
323,39,50642,1,2,0:0:0:0:
248,42,50864,2,0,P|255:72|275:96,1,62.5,0|2,0:0|0:0,0:0:0:0:
347,112,51308,2,0,P|381:87|397:58,1,62.5,8|2,0:0|0:0,0:0:0:0:
323,39,51753,1,0,0:0:0:0:
273,94,51975,2,0,P|281:146|300:169,1,62.5,2|8,0:0|0:0,0:0:0:0:
352,188,52419,1,2,0:0:0:0:
414,146,52642,2,0,P|423:212|372:260,1,125,0|8,0:0|0:0,0:0:0:0:
312,252,53308,1,2,0:0:0:0:
276,185,53531,6,0,P|301:131|376:117,1,125,0|8,0:0|0:0,0:0:0:0:
352,188,54197,1,2,0:0:0:0:
313,252,54419,2,0,P|281:260|236:251,2,62.5,0|2|8,0:0|0:0|0:0,0:0:0:0:
388,254,55086,1,2,0:0:0:0:
426,189,55308,2,0,P|406:137|383:122,2,62.5,0|2|8,0:0|0:0|0:0,0:0:0:0:
463,254,55975,1,2,0:0:0:0:
426,319,56197,2,0,P|359:323|319:283,1,125,0|8,0:0|0:0,0:0:0:0:
327,210,56864,1,2,0:0:0:0:
259,242,57086,6,0,P|210:219|193:148,1,125,4|8,0:0|0:0,0:0:0:0:
265,167,57753,1,2,0:0:0:0:
327,210,57975,2,0,P|329:267|302:299,1,62.5,0|2,0:0|0:0,0:0:0:0:
268,316,58419,2,0,P|235:313|192:277,1,62.5,8|2,0:0|0:0,0:0:0:0:
185,227,58864,2,0,P|125:169|68:181,1,125,0|8,0:0|0:0,0:0:0:0:
111,244,59531,2,0,P|162:297|211:296,1,125,2|2,0:0|0:0,0:0:0:0:
259,242,60197,2,0,P|254:194|234:168,1,62.5,8|2,0:0|0:0,0:0:0:0:
178,152,60642,6,0,P|199:123|247:109,1,62.5
295,125,61086,2,0,P|289:77|263:51,1,62.5,8|2,0:0|0:0,0:0:0:0:
211,39,61531,2,0,P|261:-6|328:8,1,125,0|8,0:0|0:0,0:0:0:0:
355,62,62197,1,2,0:0:0:0:
428,77,62419,2,0,P|477:84|504:72,1,62.5,0|2,0:0|0:0,0:0:0:0:
464,10,62864,2,0,P|414:2|387:14,1,62.5,8|2,0:0|0:0,0:0:0:0:
355,62,63308,2,0,P|379:134|423:151,2,125,0|8|0,0:0|0:0|0:0,0:0:0:0:
428,76,64419,5,2,0:0:0:0:
488,120,64642,2,0,P|488:182|455:220,2,62.5,8|2|0,0:0|0:0|0:0,0:0:0:0:
419,151,65308,1,2,0:0:0:0:
344,163,65531,2,0,P|345:132|359:105,1,62.5,8|2,0:0|0:0,0:0:0:0:
428,76,65975,2,0,P|390:36|334:35,2,93.75,0|2|2,0:0|0:0|0:0,0:0:0:0:
419,151,66864,2,0,P|410:202|397:219,1,62.5,0|2,0:0|0:0,0:0:0:0:
330,223,67308,2,0,P|339:172|352:155,1,62.5,8|2,0:0|0:0,0:0:0:0:
369,92,67753,6,0,P|308:97|278:130,2,93.75,0|2|2,0:0|0:0|0:0,0:0:0:0:
419,151,68642,2,0,P|410:202|397:219,1,62.5,0|2,0:0|0:0,0:0:0:0:
330,223,69086,2,0,P|339:172|352:155,1,62.5,8|2,0:0|0:0,0:0:0:0:
404,209,69531,2,0,P|395:260|382:277,1,62.5,0|2,0:0|0:0,0:0:0:0:
320,298,69975,1,8,0:0:0:0:
261,251,70197,2,0,P|255:209|278:173,2,62.5,0|0|2,0:0|0:0|0:0,0:0:0:0:
249,325,70864,1,8,0:0:0:0:
148,213,71308,5,0,0:0:0:0:
100,154,71531,2,0,P|105:106|120:91,1,62.5,2|8,0:0|0:0,0:0:0:0:
172,142,71975,1,2,0:0:0:0:
246,142,72197,2,0,P|232:186|198:210,1,62.5,0|2,0:0|0:0,0:0:0:0:
148,214,72642,1,8,0:0:0:0:
74,225,72864,2,0,P|25:167|42:103,2,125,2|2|2,0:0|0:0|0:0,0:0:0:0:
119,285,73975,1,0,0:0:0:0:
193,275,74197,2,0,P|224:223|221:205,1,62.5,2|8,0:0|0:0,0:0:0:0:
364,171,74864,5,0,0:0:0:0:
412,230,75087,2,0,P|406:277|391:292,1,62.5,2|8,0:0|0:0,0:0:0:0:
340,242,75531,1,2,0:0:0:0:
266,242,75753,2,0,P|279:197|313:173,1,62.5,0|2,0:0|0:0,0:0:0:0:
364,170,76198,1,8,0:0:0:0:
438,159,76420,2,0,P|487:217|470:281,2,125,2|2|2,0:0|0:0|0:0,0:0:0:0:
393,99,77531,1,0,0:0:0:0:
319,109,77753,2,0,P|288:161|291:179,1,62.5,2|8,0:0|0:0,0:0:0:0:
228,297,78419,5,0,0:0:0:0:
158,326,78642,2,0,P|124:349|96:354,1,62.5,2|8,0:0|0:0,0:0:0:0:
99,279,79086,1,2,0:0:0:0:
168,252,79308,2,0,P|201:226|237:224,1,62.5,0|2,0:0|0:0,0:0:0:0:
289,252,79753,2,0,P|318:243|341:222,1,62.5,8|2,0:0|0:0,0:0:0:0:
281,177,80197,2,0,P|241:149|176:162,2,93.75,0|2|2,0:0|0:0|0:0,0:0:0:0:
221,222,81086,2,0,P|141:201|123:147,1,125,0|8,0:0|0:0,0:0:0:0:
147,96,81753,1,2,0:0:0:0:
219,78,81975,6,0,P|301:61|325:26,1,125,0|8,0:0|0:0,0:0:0:0:
394,8,82642,1,2,0:0:0:0:
450,57,82864,2,0,P|436:125|409:146,2,93.75,0|2|2,0:0|0:0|0:0,0:0:0:0:
378,78,83753,2,0,P|349:117|348:161,2,93.75,0|2|2,0:0|0:0|0:0,0:0:0:0:
420,141,84642,2,0,P|393:220|350:235,2,125,0|8|4,0:0|0:0|0:0,0:0:0:0:
256,192,96197,12,0,98864,0:0:0:0:
200,182,99753,6,0,P|246:137|243:75,1,125,4|8,0:0|0:0,0:0:0:0:
183,36,100419,1,2,0:0:0:0:
123,80,100642,2,0,P|146:101|176:110,2,62.5,0|2|8,0:0|0:0|0:0,0:0:0:0:
113,6,101308,1,2,0:0:0:0:
182,35,101531,2,0,P|243:78|242:144,1,125,0|8,0:0|0:0,0:0:0:0:
189,169,102197,2,0,P|174:120|184:88,2,62.5,2|0|2,0:0|0:0|0:0,0:0:0:0:
258,198,102864,2,0,P|296:182|314:161,1,62.5,8|2,0:0|0:0,0:0:0:0:
315,92,103308,6,0,P|363:60|406:68,2,93.75,0|2|2,0:0|0:0|0:0,0:0:0:0:
248,126,104197,1,0,0:0:0:0:
245,200,104419,2,0,P|283:235|323:238,1,62.5,2|8,0:0|0:0,0:0:0:0:
365,220,104864,1,2,0:0:0:0:
369,144,105086,2,0,P|332:152|297:187,1,62.5,0|2,0:0|0:0,0:0:0:0:
292,238,105531,2,0,P|328:284|350:288,1,62.5,8|2,0:0|0:0,0:0:0:0:
404,284,105975,2,0,P|432:253|439:226,2,62.5,0|2|8,0:0|0:0|0:0,0:0:0:0:
365,220,106642,1,2,0:0:0:0:
413,162,106864,6,0,P|479:170|512:227,1,125,0|8,0:0|0:0,0:0:0:0:
491,287,107531,2,0,P|447:309|416:303,1,62.5,2|0,0:0|0:0,0:0:0:0:
371,269,107975,2,0,P|330:278|303:315,2,62.5,2|8|2,0:0|0:0|0:0,0:0:0:0:
438,234,108642,2,0,P|496:176|489:122,1,125,0|8,0:0|0:0,0:0:0:0:
424,159,109308,2,0,P|386:178|372:198,1,62.5,2|0,0:0|0:0,0:0:0:0:
370,268,109753,2,0,P|332:298|301:302,1,62.5,2|8,0:0|0:0,0:0:0:0:
249,273,110197,1,2,0:0:0:0:
237,198,110419,6,0,P|295:152|336:158,2,93.75,0|2|2,0:0|0:0|0:0,0:0:0:0:
179,246,111308,1,0,0:0:0:0:
115,204,111531,2,0,P|137:182|166:171,1,62.5,2|8,0:0|0:0,0:0:0:0:
224,124,111975,1,2,0:0:0:0:
294,149,112197,2,0,P|310:210|291:249,2,93.75,0|2|2,0:0|0:0|0:0,0:0:0:0:
280,74,113086,2,0,P|313:33|336:28,1,62.5,0|2,0:0|0:0,0:0:0:0:
390,54,113531,2,0,P|375:81|350:99,1,62.5,8|2,0:0|0:0,0:0:0:0:
279,74,113975,6,0,P|223:49|159:87,2,125,4|8|0,0:0|0:0|0:0,0:0:0:0:
224,126,115086,1,2,0:0:0:0:
152,147,115308,2,0,P|116:129|96:96,1,62.5,8|2,0:0|0:0,0:0:0:0:
103,36,115753,2,0,P|162:-1|189:2,2,93.75,0|2|2,0:0|0:0|0:0,0:0:0:0:
38,74,116642,1,0,0:0:0:0:
55,146,116864,2,0,P|83:133|103:110,1,62.5,2|8,0:0|0:0,0:0:0:0:
169,74,117308,1,2,0:0:0:0:
241,52,117531,6,0,P|286:81|298:106,1,62.5,0|2,0:0|0:0,0:0:0:0:
274,160,117975,2,0,P|229:131|217:106,1,62.5,8|2,0:0|0:0,0:0:0:0:
240,51,118419,2,0,P|191:2|115:22,1,125,0|8,0:0|0:0,0:0:0:0:
94,65,119086,1,2,0:0:0:0:
138,125,119308,2,0,P|159:102|168:73,2,62.5,0|2|8,0:0|0:0|0:0,0:0:0:0:
64,134,119975,2,0,P|32:198|63:253,1,125,2|2,0:0|0:0,0:0:0:0:
126,251,120642,2,0,P|125:223|105:193,1,62.5,8|2,0:0|0:0,0:0:0:0:
64,133,121086,6,0,P|85:73|118:55,2,93.75,0|2|2,0:0|0:0|0:0,0:0:0:0:
139,127,121975,2,0,P|189:140|221:127,1,62.5,0|2,0:0|0:0,0:0:0:0:
183,66,122419,2,0,P|224:67|255:94,1,62.5,8|2,0:0|0:0,0:0:0:0:
273,145,122864,2,0,P|233:205|175:209,1,125,0|8,0:0|0:0,0:0:0:0:
140,152,123531,2,0,P|167:137|198:138,1,62.5,2|0,0:0|0:0,0:0:0:0:
273,145,123975,2,0,P|263:97|236:76,1,62.5,2|8,0:0|0:0,0:0:0:0:
183,64,124419,1,2,0:0:0:0:
239,14,124642,6,0,P|309:35|325:66,2,93.75,0|2|2,0:0|0:0|0:0,0:0:0:0:
254,87,125531,2,0,P|295:120|327:120,1,62.5,0|2,0:0|0:0,0:0:0:0:
374,99,125975,2,0,P|419:129|430:151,1,62.5,8|2,0:0|0:0,0:0:0:0:
358,173,126419,2,0,P|296:196|261:184,2,93.75,0|2|2,0:0|0:0|0:0,0:0:0:0:
374,99,127308,2,0,P|348:62|304:51,2,62.5,0|2|8,0:0|0:0|0:0,0:0:0:0:
428,150,127975,1,2,0:0:0:0:
414,223,128197,6,0,P|381:244|322:232,1,62.5,4|2,0:0|0:0,0:0:0:0:
293,208,128642,2,0,P|250:175|191:182,2,93.75,8|2|2,0:0|0:0|0:0,0:0:0:0:
295,284,129531,2,0,P|263:315|230:321,1,62.5,8|2,0:0|0:0,0:0:0:0:
181,283,129975,2,0,P|213:252|246:246,1,62.5,0|2,0:0|0:0,0:0:0:0:
294,284,130419,2,0,P|341:266|365:224,2,93.75,8|2|2,0:0|0:0|0:0,0:0:0:0:
292,208,131308,2,0,P|328:164|359:158,1,62.5,8|2,0:0|0:0,0:0:0:0:
406,167,131753,6,0,P|439:136|445:99,1,62.5,0|2,0:0|0:0,0:0:0:0:
440,45,132197,2,0,P|397:61|372:100,2,93.75,0|2|2,0:0|0:0|0:0,0:0:0:0:
508,79,133086,2,0,P|519:125|513:149,1,62.5,8|2,0:0|0:0,0:0:0:0:
474,201,133531,2,0,P|476:231|460:267,1,62.5,0|2,0:0|0:0,0:0:0:0:
402,219,133975,2,0,P|371:273|326:290,2,93.75,0|2|2,0:0|0:0|0:0,0:0:0:0:
326,214,134864,2,0,P|290:226|242:218,1,62.5,8|2,0:0|0:0,0:0:0:0:
282,151,135308,6,0,P|230:158|206:176,1,62.5,0|2,0:0|0:0,0:0:0:0:
191,231,135753,2,0,P|233:293|256:299,2,93.75,8|2|2,0:0|0:0|0:0,0:0:0:0:
148,169,136642,2,0,P|119:144|108:113,1,62.5,8|2,0:0|0:0,0:0:0:0:
181,101,137086,2,0,P|168:64|174:32,1,62.5,0|2,0:0|0:0,0:0:0:0:
244,59,137531,2,0,P|251:21|272:-3,1,62.5,8|2,0:0|0:0,0:0:0:0:
319,54,137975,2,0,P|344:25|375:14,1,62.5,0|2,0:0|0:0,0:0:0:0:
387,87,138419,2,0,P|423:74|455:80,1,62.5,0|2,0:0|0:0,0:0:0:0:
429,150,138864,6,0,P|363:158|337:143,2,93.75,0|2|2,0:0|0:0|0:0,0:0:0:0:
501,129,139753,2,0,P|492:193|478:209,1,62.5,0|2,0:0|0:0,0:0:0:0:
474,260,140197,2,0,P|446:248|427:224,1,62.5,8|2,0:0|0:0,0:0:0:0:
427,148,140642,2,0,P|447:73|510:55,1,125,0|8,0:0|0:0,0:0:0:0:
500,128,141308,1,2,0:0:0:0:
482,201,141531,2,0,P|426:223|376:204,2,93.75,0|2|2,0:0|0:0|0:0,0:0:0:0:
428,148,142419,6,0,P|381:142|346:158,1,62.5,4|2,0:0|0:0,0:0:0:0:
