osu file format v13

[General]
AudioFilename: BBBFF - StormWolf Remix.mp3
AudioLeadIn: 0
PreviewTime: 29527
Countdown: 0
SampleSet: Soft
StackLeniency: 0.7
Mode: 0
LetterboxInBreaks: 0
WidescreenStoryboard: 1

[Editor]
DistanceSpacing: 1
BeatDivisor: 4
GridSize: 4
TimelineZoom: 2.2

[Metadata]
Title:BBBFF - StormWolf Remix
TitleUnicode:BBBFF - StormWolf Remix
Artist:StormWolf
ArtistUnicode:StormWolf
Creator:Player X
Version:Insane
Source:
Tags:MLP My Little Pony Twilight Sparkle Shining Armor
BeatmapID:439027
BeatmapSetID:183224

[Difficulty]
HPDrainRate:7
CircleSize:4
OverallDifficulty:7
ApproachRate:8
SliderMultiplier:2.79999990463257
SliderTickRate:4

[Events]
//Background and Video events
0,0,"BBBFF - StormWolf Remix.jpg",0,0
Video,0,"BBBFF - StormWolf Remix.avi"
//Break Periods
2,6443,12658
2,29727,43105
2,60175,62807
2,95996,109374
2,126444,129076
2,190921,204299
2,237488,250867
//Storyboard Layer 0 (Background)
//Storyboard Layer 1 (Fail)
//Storyboard Layer 2 (Pass)
//Storyboard Layer 3 (Foreground)
//Storyboard Sound Samples
Sample,15646,0,"soft-hitclap.wav",100
Sample,26393,0,"soft-hitclap.wav",100
Sample,27288,0,"soft-hitclap.wav",100
Sample,48781,0,"soft-hitclap.wav",100
Sample,58632,0,"soft-hitclap.wav",100
Sample,65796,0,"soft-hitclap.wav",100
Sample,66691,0,"soft-hitclap.wav",100
Sample,74751,0,"soft-hitclap.wav",100
Sample,75423,0,"soft-hitwhistle.wav",100
Sample,75646,0,"soft-hitclap.wav",100
Sample,78333,0,"soft-hitclap.wav",100
Sample,111915,0,"soft-hitfinish.wav",100
Sample,112363,0,"soft-hitclap.wav",100
Sample,113258,0,"soft-hitclap.wav",100
Sample,114154,0,"soft-hitclap.wav",100
Sample,117736,0,"soft-hitclap.wav",100
Sample,124900,0,"soft-hitclap.wav",100
Sample,137438,0,"soft-hitclap.wav",100
Sample,172363,0,"soft-hitclap.wav",100
Sample,211542,0,"soft-hitwhistle.wav",100
Sample,215124,0,"soft-hitwhistle.wav",100

[TimingPoints]
6244,447.761194029851,4,2,0,100,1,8
29528,447.761194029851,4,2,0,100,1,8
45647,447.761194029851,4,2,0,100,1,8
65348,447.761194029851,4,2,0,100,1,9
79676,-100,4,2,0,100,0,8
95796,447.761194029851,4,2,0,100,1,8
111916,447.761194029851,4,2,0,100,1,8
131617,447.761194029851,4,2,0,100,1,9
145945,-100,4,2,0,100,0,8
162065,447.761194029851,4,2,0,100,1,8
187139,-185.185185185185,4,2,0,5,0,8
190721,-100,4,2,0,100,0,8
206841,447.761194029851,4,2,0,100,1,9
221169,-100,4,2,0,100,0,8
237289,447.761194029851,4,2,0,100,1,8
253408,447.761194029851,4,2,0,100,1,8

[Colours]
Combo1 : 255,255,255
Combo2 : 255,0,255
Combo3 : 128,0,255
Combo4 : 0,0,255
Combo5 : 0,128,255
Combo6 : 0,255,255

[HitObjects]
256,192,6243,5,4,0:0:0:0:
408,312,13408,6,0,P|336:284|312:216,3,139.999995231629,4|0|8|0,0:0|0:0|0:0|0:0,0:0:0:0:
432,156,14303,1,0,0:0:0:0:
336,56,14527,1,0,0:0:0:0:
220,136,14751,1,8,0:0:0:0:
304,248,14975,1,0,0:0:0:0:
184,324,15199,6,0,P|140:128|428:124,1,559.999980926514
452,248,16318,5,0,0:0:0:0:
312,228,16542,1,8,0:0:0:0:
408,124,16766,1,0,0:0:0:0:
404,264,16990,2,0,P|360:320|292:320,3,139.999995231629,0|0|8|0,0:0|0:0|0:0|0:0,0:0:0:0:
196,220,17885,2,0,L|292:116,3,139.999995231629,0|0|8|0,0:0|0:0|0:0|0:0,0:0:0:0:
424,76,18781,5,0,0:0:0:0:
288,44,19005,1,0,0:0:0:0:
160,100,19229,1,8,0:0:0:0:
276,176,19452,1,0,0:0:0:0:
416,188,19676,2,0,P|432:272|360:336,2,139.999995231629,0|0|8,0:0|0:0|0:0,0:0:0:0:
308,100,20348,5,0,0:0:0:0:
304,240,20572,2,0,P|212:308|64:244,3,279.999990463257,4|8|0|8,0:0|0:0|0:0|0:0,0:0:0:0:
96,116,22139,1,0,0:0:0:0:
216,48,22363,2,0,P|268:152|176:276,3,279.999990463257,0|8|0|8,0:0|0:0|0:0|0:0,0:0:0:0:
304,204,23930,5,0,0:0:0:0:
396,100,24154,2,0,L|376:244,3,139.999995231629,0|0|8|0,0:0|0:0|0:0|0:0,0:0:0:0:
256,308,25049,2,0,L|128:224,2,139.999995231629,0|0|8,0:0|0:0|0:0,0:0:0:0:
396,304,25721,1,0,0:0:0:0:
448,172,25945,2,0,B|300:88|188:72|188:72|216:216|368:308,2,559.999980926514
256,192,27848,12,4,29527,0:0:0:0:
256,192,43855,12,0,45199,0:0:0:0:
92,312,45423,6,0,P|152:244|208:220,1,139.999995231628,0|4,0:0|0:0,0:0:0:0:
320,288,45870,1,0,0:0:0:0:
384,256,45982,1,0,0:0:0:0:
256,208,46094,2,0,P|312:156|384:124,2,139.999995231628,8|0|0,0:0|0:0|0:0,0:0:0:0:
116,184,46766,5,0,0:0:0:0:
128,116,46878,1,0,0:0:0:0:
184,76,46990,2,0,L|320:108,3,139.999995231629,8|0|0|0,0:0|0:0|0:0|0:0,0:0:0:0:
224,208,47885,5,8,0:0:0:0:
348,140,48109,1,0,0:0:0:0:
364,208,48221,1,0,0:0:0:0:
348,276,48333,2,0,B|280:248|212:276|212:276|240:208|212:140|212:140|280:168|348:140,1,419.999985694885
300,88,49117,5,0,0:0:0:0:
236,116,49229,2,0,P|296:172|376:160,3,139.999995231629,0|0|8|0,0:0|0:0|0:0|0:0,0:0:0:0:
396,224,50012,1,0,0:0:0:0:
368,288,50124,2,0,L|224:328,3,139.999995231629,0|0|8|0,0:0|0:0|0:0|0:0,0:0:0:0:
124,244,50908,5,0,0:0:0:0:
184,204,51020,2,0,P|224:136|296:148,4,139.999995231629,0|0|8|0|0,0:0|0:0|0:0|0:0|0:0,0:0:0:0:
188,208,52027,1,0,0:0:0:0:
192,212,52139,1,0,0:0:0:0:
196,216,52251,1,0,0:0:0:0:
200,220,52363,1,8,0:0:0:0:
204,224,52475,1,0,0:0:0:0:
208,228,52587,1,0,0:0:0:0:
212,232,52699,1,0,0:0:0:0:
216,236,52811,2,0,P|288:204|300:140,2,139.999995231629,0|0|8,0:0|0:0|0:0,0:0:0:0:
88,184,53482,5,0,0:0:0:0:
136,132,53594,1,0,0:0:0:0:
200,104,53706,2,0,P|336:116|456:208,1,279.999990463257,0|8,0:0|0:0,0:0:0:0:
444,340,54378,2,0,L|308:308,1,139.999995231629
168,324,54826,5,0,0:0:0:0:
144,256,54938,1,0,0:0:0:0:
200,212,55049,2,0,P|268:192|304:132,2,139.999995231629,8|0|0,0:0|0:0|0:0,0:0:0:0:
268,336,55721,5,0,0:0:0:0:
208,304,55833,1,0,0:0:0:0:
164,252,55945,2,0,B|212:156|244:124|244:124|304:188|336:268,2,279.999990463257,8|0|8,0:0|0:0|0:0,0:0:0:0:
304,244,57064,5,0,0:0:0:0:
364,280,57176,1,0,0:0:0:0:
432,272,57288,2,0,L|396:136,1,139.999995231629
336,100,57624,1,0,0:0:0:0:
268,88,57736,1,8,0:0:0:0:
132,60,57960,6,0,P|136:160|92:216,1,139.999995231629
64,324,58408,2,0,P|360:264|440:36,1,559.999980926514
156,72,59527,1,8,0:0:0:0:
388,180,59751,1,0,0:0:0:0:
176,284,59975,1,4,0:0:0:0:
256,192,63557,12,4,65348,0:0:0:0:
368,60,65572,6,0,P|240:132|148:60,1,279.999990463257
88,188,66244,1,0,0:0:0:0:
148,316,66467,2,0,P|276:244|367:316,1,279.999990463257,2|0,0:0|0:0,0:0:0:0:
428,188,67139,1,0,0:0:0:0:
324,96,67363,6,0,L|416:68,9,69.9999976158143,0|0|8|0|0|0|0|0|2|0,0:0|0:0|0:0|0:0|0:0|0:0|0:0|0:0|0:0|0:0,0:0:0:0:
464,200,68482,1,8,0:0:0:0:
368,304,68706,5,0,0:0:0:0:
312,348,68818,1,0,0:0:0:0:
244,340,68930,2,0,P|288:272|252:220,1,139.999995231629
124,236,69378,1,8,0:0:0:0:
152,100,69602,5,0,0:0:0:0:
204,52,69714,1,0,0:0:0:0:
272,76,69826,2,0,B|288:164|200:208,1,139.999995231629,0|2,0:0|0:0,0:0:0:0:
324,292,70273,1,8,0:0:0:0:
368,160,70497,5,0,0:0:0:0:
388,92,70609,1,0,0:0:0:0:
320,80,70721,2,0,P|320:144|256:132,3,139.999995231629,0|0|8|0,0:0|0:0|0:0|0:0,0:0:0:0:
120,116,71617,5,0,0:0:0:0:
124,120,71729,1,0,0:0:0:0:
128,124,71841,1,2,0:0:0:0:
132,128,71952,1,0,0:0:0:0:
136,132,72064,1,8,0:0:0:0:
140,136,72176,1,0,0:0:0:0:
144,140,72288,1,0,0:0:0:0:
148,144,72400,1,0,0:0:0:0:
152,148,72512,2,0,B|252:48|252:48|352:148,2,279.999990463257,4|8|0,0:0|0:0|0:0,0:0:0:0:
156,296,73632,5,2,0:0:0:0:
384,240,73855,1,8,0:0:0:0:
172,120,74079,1,0,0:0:0:0:
428,56,74303,2,0,P|352:280|48:328,2,559.999980926514
292,88,76318,6,0,L|424:188,2,139.999995231629,0|8|0,0:0|0:0|0:0,0:0:0:0:
236,216,76990,2,0,P|192:280|128:272,3,139.999995231629,0|2|8|0,0:0|0:0|0:0|0:0,0:0:0:0:
88,144,77885,1,0,0:0:0:0:
180,36,78109,2,0,P|232:200|452:200,1,419.999985694885
372,84,79005,5,2,0:0:0:0:
376,88,79117,1,0,0:0:0:0:
380,92,79229,1,8,0:0:0:0:
384,96,79341,1,0,0:0:0:0:
388,100,79452,1,0,0:0:0:0:
392,104,79564,1,0,0:0:0:0:
396,108,79676,2,0,P|392:192|220:244,2,279.999990463257,4|8|0,0:0|0:0|0:0,0:0:0:0:
256,92,80796,5,0,0:0:0:0:
328,212,81020,1,8,0:0:0:0:
260,232,81132,1,0,0:0:0:0:
192,216,81244,1,0,0:0:0:0:
140,168,81355,1,0,0:0:0:0:
116,100,81467,2,0,P|256:96|376:160,2,279.999990463257,0|8|0,0:0|0:0|0:0,0:0:0:0:
148,236,82587,5,0,0:0:0:0:
296,260,82811,1,8,0:0:0:0:
280,192,82923,1,0,0:0:0:0:
232,140,83035,1,0,0:0:0:0:
164,120,83146,1,0,0:0:0:0:
96,132,83258,2,0,P|128:64|192:60,3,139.999995231629,0|0|8|0,0:0|0:0|0:0|0:0,0:0:0:0:
328,64,84154,2,0,B|376:196|376:196|244:244,1,279.999990463257,0|8,0:0|0:0,0:0:0:0:
364,316,84826,5,0,0:0:0:0:
428,284,84938,1,0,0:0:0:0:
452,220,85049,2,0,P|464:104|324:48,3,279.999990463257,0|8|0|8,0:0|0:0|0:0|0:0,0:0:0:0:
192,40,86505,5,0,0:0:0:0:
204,108,86617,1,0,0:0:0:0:
252,160,86729,1,0,0:0:0:0:
320,184,86841,2,0,B|272:316|272:316|140:268,1,279.999990463257,0|8,0:0|0:0,0:0:0:0:
92,136,87512,5,0,0:0:0:0:
220,80,87736,2,0,P|352:108|388:248,1,279.999990463257,0|8,0:0|0:0,0:0:0:0:
264,296,88408,1,0,0:0:0:0:
128,264,88632,2,0,P|188:164|104:36,3,279.999990463257,0|8|0|8,0:0|0:0|0:0|0:0,0:0:0:0:
248,64,90199,5,0,0:0:0:0:
284,124,90311,1,0,0:0:0:0:
336,76,90423,2,0,L|472:44,3,139.999995231629,0|0|8|0,0:0|0:0|0:0|0:0,0:0:0:0:
452,184,91318,2,0,P|380:188|344:260,2,139.999995231629,0|0|8,0:0|0:0|0:0,0:0:0:0:
412,320,91990,1,0,0:0:0:0:
276,284,92214,6,0,B|196:284|196:192|196:192|196:100|116:100,3,279.999990463257,0|8|0|8,0:0|0:0|0:0|0:0,0:0:0:0:
68,148,93669,1,0,0:0:0:0:
116,196,93781,1,0,0:0:0:0:
164,148,93893,1,0,0:0:0:0:
116,100,94005,1,0,0:0:0:0:
256,192,94117,12,4,95796,0:0:0:0:
256,192,110124,12,0,111467,0:0:0:0:
312,24,111691,6,0,B|200:108|200:108|312:192|312:192|200:276|200:276|312:360,2,559.999980926514
424,108,113706,1,0,0:0:0:0:
424,248,113930,6,0,B|340:136|340:136|256:248|256:248|172:136|172:136|88:248,1,559.999980926514
124,308,114938,1,0,0:0:0:0:
192,328,115049,1,8,0:0:0:0:
260,320,115161,1,0,0:0:0:0:
320,288,115273,2,0,P|296:216|232:200,3,139.999995231629,0|0|0|8,0:0|0:0|0:0|0:0,0:0:0:0:
124,120,116169,6,0,B|184:56|244:120|244:120|180:180|244:240|244:240|304:176|364:240,1,419.999985694885,0|8,0:0|0:0,0:0:0:0:
260,332,117064,2,0,P|176:220|260:144,2,279.999990463257
340,216,118184,5,0,0:0:0:0:
344,220,118296,1,0,0:0:0:0:
348,224,118408,1,0,0:0:0:0:
352,228,118520,1,0,0:0:0:0:
356,232,118632,1,8,0:0:0:0:
360,236,118744,1,0,0:0:0:0:
364,240,118855,2,0,P|296:192|292:124,1,139.999995231629
420,192,119303,5,0,0:0:0:0:
332,300,119527,1,8,0:0:0:0:
224,212,119751,2,0,P|268:136|224:72,2,139.999995231629
96,156,120423,5,8,0:0:0:0:
76,224,120535,1,0,0:0:0:0:
124,276,120646,2,0,P|184:280|256:240,3,139.999995231629,0|0|0|8,0:0|0:0|0:0|0:0,0:0:0:0:
184,120,121542,1,0,0:0:0:0:
376,264,121766,1,0,0:0:0:0:
204,44,122214,6,0,B|208:184|180:220|256:220|256:64|256:172|68:140|68:248|68:92|148:92|116:128|120:268,1,419.999985694885,8|0,0:0|0:0,0:0:0:0:
252,316,123109,1,8,0:0:0:0:
312,188,123333,2,0,P|264:112|168:116,3,139.999995231629,0|0|0|8,0:0|0:0|0:0|0:0,0:0:0:0:
84,132,124229,2,0,P|180:280|312:248,2,279.999990463257
196,48,125348,5,0,0:0:0:0:
200,52,125460,1,0,0:0:0:0:
204,56,125572,1,0,0:0:0:0:
360,120,125796,1,8,0:0:0:0:
112,192,126020,1,0,0:0:0:0:
288,312,126244,1,4,0:0:0:0:
256,192,129826,12,4,131617,0:0:0:0:
424,72,131841,5,0,0:0:0:0:
284,88,132064,1,8,0:0:0:0:
344,156,132176,1,0,0:0:0:0:
252,180,132288,1,0,0:0:0:0:
200,104,132400,1,0,0:0:0:0:
124,56,132512,2,0,P|84:112|108:192,3,139.999995231629,0|2|8|0,0:0|0:0|0:0|0:0,0:0:0:0:
124,316,133408,5,0,0:0:0:0:
248,248,133632,1,0,0:0:0:0:
252,252,133744,1,0,0:0:0:0:
256,256,133855,1,8,0:0:0:0:
260,260,133967,1,0,0:0:0:0:
264,264,134079,1,0,0:0:0:0:
268,268,134191,1,0,0:0:0:0:
272,272,134303,2,0,L|332:236,3,69.9999976158143,0|0|2|0,0:0|0:0|0:0|0:0,0:0:0:0:
336,240,134751,1,8,0:0:0:0:
436,144,134975,5,0,0:0:0:0:
328,52,135199,2,0,P|284:144|120:148,2,279.999990463257,0|8|0,0:0|0:0|0:0,0:0:0:0:
196,100,136318,1,2,0:0:0:0:
264,224,136542,1,8,0:0:0:0:
124,204,136766,1,0,0:0:0:0:
220,304,136990,1,0,0:0:0:0:
352,256,137214,6,0,B|464:172|464:172|352:88,2,279.999990463257,0|0|2,0:0|0:0|0:0,0:0:0:0:
356,260,138221,1,0,0:0:0:0:
360,264,138333,1,8,0:0:0:0:
364,268,138445,1,0,0:0:0:0:
368,272,138557,1,0,0:0:0:0:
372,276,138669,1,0,0:0:0:0:
376,280,138781,6,0,P|400:216|352:176,3,139.999995231629,4|0|8|0,0:0|0:0|0:0|0:0,0:0:0:0:
216,216,139676,2,0,P|128:212|84:148,4,139.999995231629,0|2|8|0|0,0:0|0:0|0:0|0:0|0:0,0:0:0:0:
276,180,140684,6,0,L|312:120,3,69.9999976158143,0|0|0|8,0:0|0:0|0:0|0:0,0:0:0:0:
312,84,141132,2,0,L|252:48,3,69.9999976158143,0|0|0|0,0:0|0:0|0:0|0:0,0:0:0:0:
248,52,141579,1,0,0:0:0:0:
244,56,141691,1,2,0:0:0:0:
240,60,141803,1,0,0:0:0:0:
236,64,141915,1,8,0:0:0:0:
372,92,142139,6,0,B|312:128|312:128|372:164|372:164|252:236,1,279.999990463257
128,168,142811,2,0,P|116:244|184:296,2,139.999995231629,8|0|0,0:0|0:0|0:0,0:0:0:0:
152,32,143482,5,2,0:0:0:0:
220,52,143594,1,0,0:0:0:0:
276,96,143706,2,0,L|152:160,1,139.999995231629,8|0,0:0|0:0,0:0:0:0:
108,292,144154,2,0,P|180:296|224:232,3,139.999995231629,0|0|8|0,0:0|0:0|0:0|0:0,0:0:0:0:
152,128,145049,1,0,0:0:0:0:
280,76,145273,5,2,0:0:0:0:
284,80,145385,1,0,0:0:0:0:
288,84,145497,1,8,0:0:0:0:
292,88,145609,1,0,0:0:0:0:
296,92,145721,1,0,0:0:0:0:
300,96,145833,1,0,0:0:0:0:
304,100,145945,2,0,P|176:112|184:240,3,279.999990463257,4|8|0|8,0:0|0:0|0:0|0:0,0:0:0:0:
312,288,147512,5,0,0:0:0:0:
392,176,147736,2,0,P|348:48|216:72,2,279.999990463257,0|8|0,0:0|0:0|0:0,0:0:0:0:
428,312,148855,1,0,0:0:0:0:
288,304,149079,1,8,0:0:0:0:
356,180,149303,1,0,0:0:0:0:
216,184,149527,6,0,L|340:252,3,139.999995231629,0|0|8|0,0:0|0:0|0:0|0:0,0:0:0:0:
456,172,150423,2,0,L|384:52,2,139.999995231629,0|0|8,0:0|0:0|0:0,0:0:0:0:
416,304,151094,5,0,0:0:0:0:
348,320,151206,1,0,0:0:0:0:
280,300,151318,2,0,B|184:160|376:188|280:48,2,279.999990463257,0|8|0,0:0|0:0|0:0,0:0:0:0:
224,256,152326,5,0,0:0:0:0:
160,232,152438,1,0,0:0:0:0:
112,180,152549,1,0,0:0:0:0:
112,108,152661,2,0,B|184:108|184:108|184:176|184:176|256:176|256:176|256:244,1,279.999990463257,8|0,0:0|0:0,0:0:0:0:
368,332,153333,5,0,0:0:0:0:
436,340,153445,1,0,0:0:0:0:
440,272,153557,2,0,P|296:248|208:348,2,279.999990463257,8|0|8,0:0|0:0|0:0,0:0:0:0:
448,132,154676,5,0,0:0:0:0:
332,56,154900,2,0,P|304:200|144:196,3,279.999990463257,0|8|0|8,0:0|0:0|0:0|0:0,0:0:0:0:
136,96,156467,5,0,0:0:0:0:
272,72,156691,2,0,P|336:48|408:72,3,139.999995231629,0|0|8|0,0:0|0:0|0:0|0:0,0:0:0:0:
432,204,157587,2,0,P|444:272|384:324,2,139.999995231629,0|0|8,0:0|0:0|0:0,0:0:0:0:
296,168,158258,5,0,0:0:0:0:
228,48,158482,2,0,L|384:124,3,139.999995231629,0|0|8|0,0:0|0:0|0:0|0:0,0:0:0:0:
416,236,159378,1,0,0:0:0:0:
292,304,159602,5,0,0:0:0:0:
224,300,159714,1,0,0:0:0:0:
164,264,159826,2,0,L|208:208,4,69.9999976158143,8|0|0|0|0,0:0|0:0|0:0|0:0|0:0,0:0:0:0:
256,192,160385,12,0,161841,0:0:0:0:
48,48,162064,6,0,L|188:48,1,139.999995231629,4|0,0:0|0:0,0:0:0:0:
328,48,162512,2,0,L|468:48,1,139.999995231629,8|0,0:0|0:0,0:0:0:0:
468,188,162960,2,0,L|328:188,1,139.999995231629
188,188,163408,2,0,L|48:188,1,139.999995231629,8|0,0:0|0:0,0:0:0:0:
48,48,163855,6,0,L|48:328,2,279.999990463257,0|8|0,0:0|0:0|0:0,0:0:0:0:
48,120,164863,1,0,0:0:0:0:
48,192,164975,1,0,0:0:0:0:
48,264,165087,1,0,0:0:0:0:
48,336,165199,1,8,0:0:0:0:
188,336,165423,1,0,0:0:0:0:
468,336,165646,6,0,L|328:336,1,139.999995231629
188,336,166094,2,0,L|48:336,1,139.999995231629,8|0,0:0|0:0,0:0:0:0:
48,196,166542,2,0,L|188:196,1,139.999995231629
328,196,166990,2,0,L|468:196,1,139.999995231629,8|0,0:0|0:0,0:0:0:0:
468,336,167438,6,0,L|464:56,1,279.999990463257,0|8,0:0|0:0,0:0:0:0:
324,56,168109,1,0,0:0:0:0:
184,56,168333,2,0,B|184:128|184:128|252:128|252:128|252:200|252:200|320:200,2,279.999990463257,0|8|4,0:0|0:0|0:0,0:0:0:0:
44,56,169452,5,0,0:0:0:0:
44,196,169676,1,8,0:0:0:0:
184,196,169900,1,0,0:0:0:0:
184,336,170124,1,0,0:0:0:0:
324,336,170348,1,0,0:0:0:0:
324,196,170572,1,8,0:0:0:0:
184,196,170796,1,0,0:0:0:0:
184,56,171020,6,0,L|464:56,1,279.999990463257,0|8,0:0|0:0,0:0:0:0:
464,128,171579,1,0,0:0:0:0:
464,200,171691,1,0,0:0:0:0:
464,272,171803,1,0,0:0:0:0:
464,344,171915,2,0,B|360:344|360:344|360:236,2,209.999992847443
396,192,172811,6,0,L|256:192,3,139.999995231629,0|0|8|0,0:0|0:0|0:0|0:0,0:0:0:0:
116,192,173706,2,0,L|256:192,3,139.999995231629,0|0|8|0,0:0|0:0|0:0|0:0,0:0:0:0:
256,52,174602,2,0,L|256:192,3,139.999995231629,0|0|8|0,0:0|0:0|0:0|0:0,0:0:0:0:
256,264,175385,1,0,0:0:0:0:
256,336,175497,2,0,L|256:264,3,69.9999976158143
256,196,175945,2,0,L|256:268,3,69.9999976158143,8|0|0|0,0:0|0:0|0:0|0:0,0:0:0:0:
256,336,176393,6,0,L|116:336,1,139.999995231629,4|0,0:0|0:0,0:0:0:0:
116,196,176841,2,0,L|116:56,1,139.999995231629,8|0,0:0|0:0,0:0:0:0:
256,56,177288,2,0,L|396:56,1,139.999995231629
396,196,177736,2,0,L|396:336,1,139.999995231629,8|0,0:0|0:0,0:0:0:0:
256,336,178184,2,0,L|256:196,1,139.999995231629
116,196,178632,2,0,L|256:196,1,139.999995231629,8|0,0:0|0:0,0:0:0:0:
256,56,179079,2,0,L|256:196,1,139.999995231629
396,196,179527,2,0,L|256:196,1,139.999995231629,8|0,0:0|0:0,0:0:0:0:
256,336,179975,5,0,0:0:0:0:
116,336,180199,1,0,0:0:0:0:
116,196,180423,1,8,0:0:0:0:
116,56,180646,1,0,0:0:0:0:
256,56,180870,1,0,0:0:0:0:
396,56,181094,1,0,0:0:0:0:
396,196,181318,1,8,0:0:0:0:
396,336,181542,1,0,0:0:0:0:
256,336,181766,1,0,0:0:0:0:
256,196,181990,1,0,0:0:0:0:
116,196,182214,1,8,0:0:0:0:
256,196,182438,1,0,0:0:0:0:
256,56,182661,1,0,0:0:0:0:
256,196,182885,1,0,0:0:0:0:
396,196,183109,1,8,0:0:0:0:
256,196,183333,1,0,0:0:0:0:
256,336,183557,6,0,L|396:336,1,139.999995231629,4|0,0:0|0:0,0:0:0:0:
396,196,184005,2,0,L|396:56,1,139.999995231629,8|0,0:0|0:0,0:0:0:0:
256,56,184452,2,0,L|116:56,1,139.999995231629
116,196,184900,2,0,L|116:336,1,139.999995231629,8|0,0:0|0:0,0:0:0:0:
256,336,185348,2,0,L|256:196,1,139.999995231629
396,196,185796,2,0,L|256:196,1,139.999995231629,8|0,0:0|0:0,0:0:0:0:
256,56,186244,2,0,L|256:196,1,139.999995231629
116,196,186691,2,0,L|256:196,1,139.999995231629,8|0,0:0|0:0,0:0:0:0:
256,56,187139,6,0,P|404:196|256:332,1,453.599995624695
256,56,188930,2,0,P|108:196|256:332,1,453.599995624695
256,194,190721,1,4,0:0:0:0:
256,192,205049,12,4,206841,0:0:0:0:
116,76,207064,5,0,0:0:0:0:
228,160,207288,2,0,P|248:80|300:52,2,139.999995231629,8|0|0,0:0|0:0|0:0,0:0:0:0:
364,196,207960,5,2,0:0:0:0:
364,124,208072,1,0,0:0:0:0:
336,60,208184,2,0,P|264:108|200:116,3,139.999995231629,8|0|0|0,0:0|0:0|0:0|0:0,0:0:0:0:
216,120,208967,1,0,0:0:0:0:
220,124,209079,1,8,0:0:0:0:
224,128,209191,1,0,0:0:0:0:
228,132,209303,1,0,0:0:0:0:
232,136,209415,1,0,0:0:0:0:
236,140,209527,1,0,0:0:0:0:
240,144,209639,1,0,0:0:0:0:
244,148,209751,1,2,0:0:0:0:
248,152,209863,1,0,0:0:0:0:
252,156,209975,2,0,P|228:224|168:252,1,139.999995231629,8|0,0:0|0:0,0:0:0:0:
92,136,210423,6,0,P|196:176|300:304,1,279.999990463257,0|8,0:0|0:0,0:0:0:0:
396,204,211094,1,0,0:0:0:0:
412,64,211318,2,0,P|380:224|256:288,1,279.999990463257,0|8,0:0|0:0,0:0:0:0:
256,148,211990,1,0,0:0:0:0:
148,60,212214,6,0,L|72:192,4,139.999995231629,0|0|8|0|0,0:0|0:0|0:0|0:0|0:0,0:0:0:0:
152,64,213221,1,0,0:0:0:0:
156,68,213333,1,2,0:0:0:0:
160,72,213445,1,0,0:0:0:0:
164,76,213557,1,8,0:0:0:0:
168,80,213669,1,0,0:0:0:0:
172,84,213781,1,0,0:0:0:0:
176,88,213893,1,0,0:0:0:0:
180,92,214005,1,4,0:0:0:0:
124,220,214229,5,0,0:0:0:0:
232,308,214452,1,8,0:0:0:0:
308,192,214676,1,0,0:0:0:0:
228,80,214900,2,0,B|360:32|360:32|408:164,2,279.999990463257,0|8|0,0:0|0:0|0:0,0:0:0:0:
208,148,215908,6,0,L|136:132,11,69.9999976158143,0|0|0|8|0|0|0|0|0|2|0|8,0:0|0:0|0:0|0:0|0:0|0:0|0:0|0:0|0:0|0:0|0:0|0:0,0:0:0:0:
116,272,217363,1,0,0:0:0:0:
176,308,217475,1,0,0:0:0:0:
232,268,217587,2,0,P|252:188|304:152,1,139.999995231629
408,236,218035,5,8,0:0:0:0:
436,100,218258,1,0,0:0:0:0:
300,76,218482,2,0,P|244:116|228:188,1,139.999995231629,0|2,0:0|0:0,0:0:0:0:
368,192,218930,2,0,P|332:136|260:112,1,139.999995231629,8|0,0:0|0:0,0:0:0:0:
124,132,219378,5,0,0:0:0:0:
84,264,219602,1,0,0:0:0:0:
216,312,219826,1,8,0:0:0:0:
348,264,220049,1,0,0:0:0:0:
340,124,220273,2,0,L|212:180,1,139.999995231629,0|2,0:0|0:0,0:0:0:0:
216,184,220609,1,0,0:0:0:0:
220,188,220721,1,8,0:0:0:0:
224,192,220833,1,0,0:0:0:0:
228,196,220945,1,0,0:0:0:0:
232,200,221057,1,0,0:0:0:0:
236,204,221169,6,0,P|284:72|416:60,2,279.999990463257,4|8|0,0:0|0:0|0:0,0:0:0:0:
348,288,222288,1,0,0:0:0:0:
440,180,222512,1,8,0:0:0:0:
348,76,222736,1,0,0:0:0:0:
208,68,222960,6,0,P|240:184|384:200,2,279.999990463257,0|8|0,0:0|0:0|0:0,0:0:0:0:
332,132,224079,1,0,0:0:0:0:
248,244,224303,1,8,0:0:0:0:
120,184,224527,1,0,0:0:0:0:
76,52,224751,6,0,L|208:96,3,139.999995231629,0|0|8|0,0:0|0:0|0:0|0:0,0:0:0:0:
344,64,225646,2,0,L|300:196,2,139.999995231629,0|0|8,0:0|0:0|0:0,0:0:0:0:
412,188,226318,1,0,0:0:0:0:
352,316,226542,6,0,P|220:268|176:140,3,279.999990463257,0|8|0|8,0:0|0:0|0:0|0:0,0:0:0:0:
244,144,227997,1,0,0:0:0:0:
292,96,228109,1,0,0:0:0:0:
280,28,228221,1,0,0:0:0:0:
216,56,228333,2,0,P|104:124|96:272,2,279.999990463257,4|8|0,0:0|0:0|0:0,0:0:0:0:
356,56,229452,5,0,0:0:0:0:
420,80,229564,1,0,0:0:0:0:
460,136,229676,1,8,0:0:0:0:
472,204,229788,1,0,0:0:0:0:
460,272,229900,1,0,0:0:0:0:
412,324,230012,1,0,0:0:0:0:
376,264,230124,2,0,P|252:208|132:284,3,279.999990463257,0|8|0|8,0:0|0:0|0:0|0:0,0:0:0:0:
272,308,231691,1,0,0:0:0:0:
264,168,231915,6,0,B|280:100|280:100|348:116,3,139.999995231629,0|0|8|0,0:0|0:0|0:0|0:0,0:0:0:0:
468,188,232811,2,0,B|452:256|452:256|384:240,2,139.999995231629,0|0|8,0:0|0:0|0:0,0:0:0:0:
404,64,233482,1,0,0:0:0:0:
264,80,233706,6,0,P|316:208|436:272,3,279.999990463257,0|8|0|8,0:0|0:0|0:0|0:0,0:0:0:0:
368,272,235161,1,0,0:0:0:0:
296,272,235273,1,0,0:0:0:0:
224,272,235385,1,0,0:0:0:0:
224,200,235497,1,0,0:0:0:0:
256,192,235609,12,4,237288,0:0:0:0:
256,192,251617,12,4,253408,0:0:0:0:
