osu file format v13

[General]
AudioFilename: BBBFF - StormWolf Remix.mp3
AudioLeadIn: 0
PreviewTime: 29527
Countdown: 0
SampleSet: Soft
StackLeniency: 0.7
Mode: 0
LetterboxInBreaks: 0
WidescreenStoryboard: 1

[Editor]
DistanceSpacing: 1
BeatDivisor: 4
GridSize: 4
TimelineZoom: 0.9

[Metadata]
Title:BBBFF - StormWolf Remix
TitleUnicode:BBBFF - StormWolf Remix
Artist:StormWolf
ArtistUnicode:StormWolf
Creator:Player X
Version:Easy
Source:
Tags:MLP My Little Pony Twilight Sparkle Shining Armor
BeatmapID:439026
BeatmapSetID:183224

[Difficulty]
HPDrainRate:2
CircleSize:3
OverallDifficulty:2
ApproachRate:3
SliderMultiplier:0.699999904632566
SliderTickRate:1

[Events]
//Background and Video events
0,0,"BBBFF - StormWolf Remix.jpg",0,0
Video,0,"BBBFF - StormWolf Remix.avi"
//Break Periods
2,6443,12415
2,190921,203609
//Storyboard Layer 0 (Background)
//Storyboard Layer 1 (Fail)
//Storyboard Layer 2 (Pass)
//Storyboard Layer 3 (Foreground)
//Storyboard Sound Samples
Sample,13408,0,"soft-hitfinish.wav",100
Sample,20572,0,"soft-hitfinish.wav",100
Sample,29975,0,"soft-hitclap.wav",100
Sample,46094,0,"soft-hitclap.wav",100
Sample,46990,0,"soft-hitclap.wav",100
Sample,47885,0,"soft-hitclap.wav",100
Sample,48781,0,"soft-hitclap.wav",100
Sample,49676,0,"soft-hitclap.wav",100
Sample,50572,0,"soft-hitclap.wav",100
Sample,51467,0,"soft-hitclap.wav",100
Sample,52363,0,"soft-hitclap.wav",100
Sample,53258,0,"soft-hitclap.wav",100
Sample,54154,0,"soft-hitclap.wav",100
Sample,55049,0,"soft-hitclap.wav",100
Sample,55945,0,"soft-hitclap.wav",100
Sample,56841,0,"soft-hitclap.wav",100
Sample,57736,0,"soft-hitclap.wav",100
Sample,58632,0,"soft-hitclap.wav",100
Sample,59527,0,"soft-hitclap.wav",100
Sample,65796,0,"soft-hitclap.wav",100
Sample,72512,0,"soft-hitfinish.wav",100
Sample,79676,0,"soft-hitfinish.wav",100
Sample,91766,0,"soft-hitclap.wav",100
Sample,92661,0,"soft-hitclap.wav",100
Sample,96244,0,"soft-hitclap.wav",100
Sample,100721,0,"soft-hitclap.wav",100
Sample,101617,0,"soft-hitclap.wav",100
Sample,107885,0,"soft-hitclap.wav",100
Sample,108781,0,"soft-hitclap.wav",100
Sample,112363,0,"soft-hitclap.wav",100
Sample,113258,0,"soft-hitclap.wav",100
Sample,115049,0,"soft-hitclap.wav",100
Sample,115945,0,"soft-hitclap.wav",100
Sample,116841,0,"soft-hitclap.wav",100
Sample,117736,0,"soft-hitclap.wav",100
Sample,118632,0,"soft-hitclap.wav",100
Sample,120423,0,"soft-hitclap.wav",100
Sample,122214,0,"soft-hitclap.wav",100
Sample,123109,0,"soft-hitclap.wav",100
Sample,124005,0,"soft-hitclap.wav",100
Sample,124900,0,"soft-hitclap.wav",100
Sample,125796,0,"soft-hitclap.wav",100
Sample,132064,0,"soft-hitclap.wav",100
Sample,138781,0,"soft-hitfinish.wav",100
Sample,145945,0,"soft-hitfinish.wav",100
Sample,158035,0,"soft-hitclap.wav",100
Sample,158930,0,"soft-hitclap.wav",100
Sample,162512,0,"soft-hitclap.wav",100
Sample,163408,0,"soft-hitclap.wav",100
Sample,169676,0,"soft-hitclap.wav",100
Sample,171467,0,"soft-hitclap.wav",100
Sample,173258,0,"soft-hitclap.wav",100
Sample,175049,0,"soft-hitclap.wav",100
Sample,207288,0,"soft-hitclap.wav",100
Sample,214005,0,"soft-hitfinish.wav",100
Sample,228781,0,"soft-hitclap.wav",100
Sample,230572,0,"soft-hitclap.wav",100
Sample,232363,0,"soft-hitclap.wav",100
Sample,233258,0,"soft-hitclap.wav",100
Sample,234154,0,"soft-hitclap.wav",100
Sample,235049,0,"soft-hitclap.wav",100
Sample,248482,0,"soft-hitclap.wav",100
Sample,249378,0,"soft-hitclap.wav",100
Sample,250273,0,"soft-hitclap.wav",100
Sample,251169,0,"soft-hitclap.wav",100

[TimingPoints]
6244,447.761194029851,4,2,0,100,1,8
29528,447.761194029851,4,2,0,100,1,8
45647,447.761194029851,4,2,0,100,1,8
60423,-100,4,2,0,5,0,8
63557,-100,4,2,0,100,0,8
65348,447.761194029851,4,2,0,100,1,9
79676,-100,4,2,0,100,0,8
95796,447.761194029851,4,2,0,100,1,8
111916,447.761194029851,4,2,0,100,1,8
126692,-100,4,2,0,5,0,8
129826,-100,4,2,0,100,0,8
131617,447.761194029851,4,2,0,100,1,9
145945,-100,4,2,0,100,0,8
162065,447.761194029851,4,2,0,100,1,8
187139,-100,4,2,0,5,0,8
190721,-100,4,2,0,100,0,8
206841,447.761194029851,4,2,0,100,1,9
221169,-100,4,2,0,100,0,8
228333,-66.6666666666667,4,2,0,100,0,8
237289,447.761194029851,4,2,0,100,1,8
237736,-66.6666666666667,4,2,0,100,0,8
253408,447.761194029851,4,2,0,100,1,8

[Colours]
Combo1 : 255,255,255
Combo2 : 255,0,255
Combo3 : 128,0,255
Combo4 : 0,0,255
Combo5 : 0,128,255
Combo6 : 0,255,255

[HitObjects]
256,192,6243,5,4,0:0:0:0:
256,52,13855,5,8,0:0:0:0:
400,88,14751,1,8,0:0:0:0:
432,216,15646,1,8,0:0:0:0:
360,312,16542,1,8,0:0:0:0:
220,312,17438,2,8,P|184:252|176:176,3,139.999980926513
64,56,21020,5,8,0:0:0:0:
192,92,21915,1,8,0:0:0:0:
344,72,22811,1,8,0:0:0:0:
416,192,23706,1,8,0:0:0:0:
416,320,24602,2,8,B|376:312|352:224|308:224,3,139.999980926513
256,192,27736,12,4,29527,0:0:0:0:
392,84,30870,5,8,0:0:0:0:
256,56,31766,1,8,0:0:0:0:
120,84,32661,1,8,0:0:0:0:
136,224,33557,2,0,P|212:224|264:268,3,139.999980926513,8|8|8|8,0:0|0:0|0:0|0:0,0:0:0:0:
400,272,37139,5,8,0:0:0:0:
264,308,38035,1,8,0:0:0:0:
288,172,38930,1,8,0:0:0:0:
400,88,39826,1,8,0:0:0:0:
264,60,40721,2,0,P|232:124|160:136,3,139.999980926513,8|8|8|8,0:0|0:0|0:0|0:0,0:0:0:0:
256,192,43855,12,4,45646,0:0:0:0:
392,300,47438,5,0,0:0:0:0:
380,160,48333,1,0,0:0:0:0:
296,48,49229,2,0,P|168:104|152:236,2,279.999961853026
256,184,53706,5,0,0:0:0:0:
244,324,54602,1,0,0:0:0:0:
368,256,55497,1,0,0:0:0:0:
388,116,56393,2,0,B|300:16|232:232|144:132,2,279.999961853026,0|0|4,0:0|0:0|0:0,0:0:0:0:
408,184,60423,5,0,0:0:0:0:
348,312,61318,1,0,0:0:0:0:
272,196,62214,1,0,0:0:0:0:
164,284,63109,1,0,0:0:0:0:
256,192,63557,12,4,65348,0:0:0:0:
424,208,66691,5,8,0:0:0:0:
336,100,67587,2,8,P|276:128|212:100,1,139.999980926513
80,144,69378,1,8,0:0:0:0:
124,276,70273,1,8,0:0:0:0:
260,312,71169,2,8,B|336:284|368:220,1,139.999980926513
396,88,72960,6,8,B|328:88|348:144|264:144,3,139.999980926513
172,48,76542,2,8,P|104:108|112:160,3,139.999980926513
100,288,80124,5,8,0:0:0:0:
236,320,81020,1,8,0:0:0:0:
308,200,81915,1,8,0:0:0:0:
392,312,82811,1,8,0:0:0:0:
428,176,83706,1,8,0:0:0:0:
348,60,84602,1,8,0:0:0:0:
276,180,85497,1,8,0:0:0:0:
188,72,86393,1,8,0:0:0:0:
80,160,87288,6,8,B|144:192|80:236|176:272,1,139.999980926513
296,308,89079,2,8,B|320:248|384:300|400:220,1,139.999980926513
432,92,90870,2,0,B|380:16|308:48|340:152|224:136|224:44|224:44|212:116|184:140|136:128,1,419.99994277954,8|8,0:0|0:0,0:0:0:0:
256,192,94005,12,4,95796,0:0:0:0:
104,64,97139,5,8,0:0:0:0:
244,84,98035,2,0,L|224:164,2,69.9999904632566,8|0|8,0:0|0:0|0:0,0:0:0:0:
384,80,99826,2,0,P|388:204|324:268,2,209.99997138977,8|0|8,0:0|0:0|0:0,0:0:0:0:
284,180,103408,5,8,0:0:0:0:
408,244,104303,1,8,0:0:0:0:
284,308,105199,2,0,P|204:288|176:236,1,139.999980926513,8|8,0:0|0:0,0:0:0:0:
112,116,106990,2,0,B|164:32|300:60|300:60|272:196|356:248,1,419.99994277954,8|8,0:0|0:0,0:0:0:0:
256,192,110124,12,4,111915,0:0:0:0:
128,292,113706,5,0,0:0:0:0:
184,252,114154,1,8,0:0:0:0:
232,304,114602,1,0,0:0:0:0:
368,328,115497,2,0,B|400:324|424:308|424:276|404:244|388:244|364:248|344:272|316:272|296:248|288:220|308:184|328:184|372:188,2,279.999961853026
300,312,119527,5,8,0:0:0:0:
228,312,119975,1,0,0:0:0:0:
100,260,120870,1,0,0:0:0:0:
88,192,121318,1,8,0:0:0:0:
136,140,121766,1,0,0:0:0:0:
276,124,122661,2,0,P|396:184|364:304,2,279.999961853026,0|0|4,0:0|0:0|0:0,0:0:0:0:
216,88,126691,5,0,0:0:0:0:
140,208,127587,1,0,0:0:0:0:
280,208,128482,1,0,0:0:0:0:
356,88,129378,1,0,0:0:0:0:
256,192,129826,12,4,131617,0:0:0:0:
188,296,132960,5,8,0:0:0:0:
328,300,133855,2,8,P|400:288|424:220,1,139.999980926513
384,100,135646,1,8,0:0:0:0:
244,88,136542,1,8,0:0:0:0:
108,64,137438,2,8,B|36:108|76:192,1,139.999980926513
132,312,139229,5,8,0:0:0:0:
192,272,139676,1,0,0:0:0:0:
224,208,140124,1,8,0:0:0:0:
324,304,141020,2,0,L|388:340,2,69.9999904632566,8|0|8,0:0|0:0|0:0,0:0:0:0:
364,172,142811,1,8,0:0:0:0:
412,124,143258,1,0,0:0:0:0:
364,76,143706,1,8,0:0:0:0:
224,76,144602,2,0,L|152:76,2,69.9999904632566,8|0|8,0:0|0:0|0:0,0:0:0:0:
92,128,146393,5,8,0:0:0:0:
72,268,147288,1,8,0:0:0:0:
200,328,148184,1,8,0:0:0:0:
260,204,149079,1,8,0:0:0:0:
392,164,149975,2,0,L|432:100,3,69.9999904632566,8|0|8|0,0:0|0:0|0:0|0:0,0:0:0:0:
368,72,151766,2,0,L|296:72,3,69.9999904632566,8|0|8|0,0:0|0:0|0:0|0:0,0:0:0:0:
228,88,153557,5,8,0:0:0:0:
88,88,154452,1,8,0:0:0:0:
88,228,155348,1,8,0:0:0:0:
228,228,156244,1,8,0:0:0:0:
228,88,157139,2,8,B|328:188|328:188|228:288|228:288|128:188,1,419.99994277954
256,192,160273,12,4,162064,0:0:0:0:
100,68,163855,6,0,L|172:68,1,69.9999904632566,0|8,0:0|0:0,0:0:0:0:
240,68,164751,2,0,L|312:68,1,69.9999904632566,0|8,0:0|0:0,0:0:0:0:
380,68,165646,2,0,L|324:124,1,69.9999904632566,0|8,0:0|0:0,0:0:0:0:
332,188,166542,2,0,L|384:240,1,69.9999904632566,0|8,0:0|0:0,0:0:0:0:
380,308,167438,2,0,L|308:308,1,69.9999904632566,0|8,0:0|0:0,0:0:0:0:
240,308,168333,2,0,L|168:308,1,69.9999904632566,0|8,0:0|0:0,0:0:0:0:
100,308,169229,6,0,B|152:260|152:260|100:212|100:212|152:164,1,209.99997138977,4|8,0:0|0:0,0:0:0:0:
200,116,171020,2,0,B|248:164|248:164|300:116|300:116|352:164,1,209.99997138977,0|8,0:0|0:0,0:0:0:0:
400,212,172811,2,0,B|348:260|348:260|400:308|400:308|348:356,1,209.99997138977,0|8,0:0|0:0,0:0:0:0:
300,308,174602,2,0,B|252:260|252:260|200:308|200:308|148:260,1,209.99997138977,0|8,0:0|0:0,0:0:0:0:
100,212,176393,6,0,L|100:140,3,69.9999904632566,4|8|0|8,0:0|0:0|0:0|0:0,0:0:0:0:
172,140,178184,2,0,L|172:212,3,69.9999904632566,0|8|0|8,0:0|0:0|0:0|0:0,0:0:0:0:
244,212,179975,2,0,L|316:212,3,69.9999904632566,0|8|0|8,0:0|0:0|0:0|0:0,0:0:0:0:
316,140,181766,2,0,L|244:140,3,69.9999904632566,0|8|0|8,0:0|0:0|0:0|0:0,0:0:0:0:
244,72,183557,5,4,0:0:0:0:
172,72,184005,1,8,0:0:0:0:
172,140,184452,1,0,0:0:0:0:
172,212,184900,1,8,0:0:0:0:
244,212,185348,1,0,0:0:0:0:
316,212,185796,1,8,0:0:0:0:
316,140,186244,1,0,0:0:0:0:
316,72,186691,1,8,0:0:0:0:
244,72,187139,2,0,B|120:64|96:312|372:336|464:72,1,559.999923706053,0|4,0:0|0:0,0:0:0:0:
256,192,205049,12,4,206841,0:0:0:0:
84,308,208184,5,8,0:0:0:0:
192,220,209079,1,8,0:0:0:0:
292,316,209975,1,8,0:0:0:0:
412,240,210870,2,8,B|368:200|428:160|384:104,3,139.999980926513
248,100,214452,5,8,0:0:0:0:
116,56,215348,1,8,0:0:0:0:
176,180,216244,1,8,0:0:0:0:
108,300,217139,1,8,0:0:0:0:
248,304,218035,2,8,P|324:268|344:216,3,139.999980926513
360,152,221169,6,0,P|348:112|324:88,1,69.9999904632566,4|8,0:0|0:0,0:0:0:0:
272,52,222064,2,0,P|244:40|200:36,1,69.9999904632566,0|8,0:0|0:0,0:0:0:0:
136,44,222960,2,0,P|100:52|72:80,1,69.9999904632566,0|8,0:0|0:0,0:0:0:0:
48,136,223855,2,0,P|36:168|48:216,1,69.9999904632566,0|8,0:0|0:0,0:0:0:0:
68,268,224751,2,0,B|96:296|140:308,1,69.9999904632566,0|8,0:0|0:0,0:0:0:0:
192,328,225646,2,0,P|228:336|272:336,1,69.9999904632566,0|8,0:0|0:0,0:0:0:0:
332,328,226542,2,0,B|368:324|396:300,1,69.9999904632566,0|8,0:0|0:0,0:0:0:0:
444,252,227438,2,0,P|460:212|456:176,1,69.9999904632566,0|8,0:0|0:0,0:0:0:0:
388,192,228333,6,0,B|352:100|316:192|280:284|244:192,1,209.99997138977,4|0,0:0|0:0,0:0:0:0:
140,192,229676,1,8,0:0:0:0:
244,192,230124,2,0,B|280:100|316:192|352:284|388:192,1,209.99997138977,0|0,0:0|0:0,0:0:0:0:
492,192,231467,1,8,0:0:0:0:
404,88,231915,2,0,P|104:172|404:256,1,839.999917602533
256,192,235609,12,4,237288,0:0:0:0:
416,112,237736,6,0,P|356:96|296:112,3,104.999989700317,8|0|8|0,0:0|0:0|0:0|0:0,0:0:0:0:
216,68,239527,2,0,P|216:120|268:156,2,104.999989700317,8|0|8,0:0|0:0|0:0,0:0:0:0:
112,92,240870,5,0,0:0:0:0:
76,192,241318,1,8,0:0:0:0:
112,292,241766,1,0,0:0:0:0:
216,316,242214,1,8,0:0:0:0:
320,292,242661,1,0,0:0:0:0:
356,192,243109,1,8,0:0:0:0:
320,92,243557,1,0,0:0:0:0:
216,68,244005,1,8,0:0:0:0:
112,92,244452,6,0,P|136:140|184:160,3,104.999989700317,0|8|0|8,0:0|0:0|0:0|0:0,0:0:0:0:
284,172,246244,2,0,P|260:220|212:240,3,104.999989700317,0|8|0|8,0:0|0:0|0:0|0:0,0:0:0:0:
112,252,248035,2,0,P|312:324|416:180,2,419.999958801267,0|0|0,0:0|0:0|0:0,0:0:0:0:
256,192,251729,12,4,253408,0:0:0:0:
