osu file format v5

[General]
AudioFilename: 01 Mighty Little Man.mp3
AudioLeadIn: 0
PreviewTime: -1
Countdown: 1
SampleSet: Normal
StackLeniency: 0.7
Mode: 0
LetterboxInBreaks: 1

[Metadata]
Title:Mighty Little Man
Artist:Steve Burns
Creator:Dranoel
Version:Hard
Source:
Tags:

[Difficulty]
HPDrainRate:6
CircleSize:5
OverallDifficulty:7
SliderMultiplier:1.4
SliderTickRate:1

[Events]
//Background and Video events
1,0,"steveburnsmightylittleman.avi"
//Break Periods
2,45641,66174
2,114021,123760
2,149849,171543
2,183923,188177
//Storyboard Layer 0 (Background)
//Storyboard Layer 1 (Failing)
//Storyboard Layer 2 (Passing)
//Storyboard Layer 3 (Foreground)
//Storyboard Sound Samples
//Background Colour Transformations
3,100,163,162,255

[TimingPoints]
23506,342.766700000001,4,1,0,100

[HitObjects]
32,32,23485,1,0
72,89,23677,1,0
117,142,23848,1,0
161,197,24020,1,0
204,252,24191,1,0
205,110,24534,5,0
251,162,24705,1,0
258,20,25048,5,0
305,72,25219,1,0
446,76,25562,5,0
448,216,25905,1,0
461,22,26248,5,0
421,79,26419,1,0
376,132,26590,1,0
332,187,26762,1,0
289,242,26933,1,0
288,100,27276,5,0
242,152,27447,1,0
235,10,27790,5,0
188,62,27961,1,0
47,66,28304,5,0
46,206,28647,1,0
90,340,28990,5,0
45,285,29161,1,0
186,277,29504,5,0
141,222,29675,1,0
281,209,30018,5,0
236,154,30189,1,0
377,153,30532,5,0
332,98,30704,1,0
467,59,31046,5,0
467,200,31389,1,0
422,333,31732,5,0
467,278,31903,1,0
326,270,32246,5,0
371,215,32417,1,0
231,202,32760,5,0
276,147,32932,1,0
135,146,33274,5,0
180,91,33446,1,0
45,52,33789,5,0
45,193,34131,1,0
44,334,34474,5,0
114,335,34645,1,0
184,334,34817,1,0
254,332,34988,1,0
324,331,35160,1,0
447,262,35502,5,0
376,264,35674,1,0
305,264,35845,1,0
234,264,36016,1,0
163,264,36188,1,0
225,137,36531,5,0
298,16,36873,1,0
468,50,37216,5,0
398,49,37388,1,0
328,50,37559,1,0
258,52,37730,1,0
188,53,37902,1,0
65,122,38244,5,0
136,120,38416,1,0
207,120,38587,1,0
278,120,38759,1,0
349,120,38930,1,0
287,247,39273,5,0
214,368,39616,1,0
97,288,39958,6,0,C|49:236,1,70
50,95,40472,2,0,C|109:42,1,70
243,50,40987,2,0,C|311:112,1,70
294,238,41501,2,0,C|222:304,1,70
156,173,42015,1,0
156,173,42358,1,0
240,286,42700,6,0,C|292:334,1,70
433,333,43215,2,0,C|486:274,1,70
478,140,43729,2,0,C|416:72,1,70
290,89,44243,2,0,C|224:161,1,70
355,227,44757,1,0
355,227,45100,1,0
255,126,45443,5,4
32,30,67380,5,0
173,32,67722,1,0
175,102,67894,1,0
175,172,68065,1,0
33,174,68408,1,0
32,244,68579,1,0
131,343,68922,1,0
201,344,69093,1,0
341,346,69436,1,0
340,204,69779,1,0
339,62,70122,1,0
479,60,70465,5,0
481,201,70807,1,0
481,271,70979,1,0
339,273,71321,1,0
337,61,71836,1,0
195,61,72178,1,0
53,65,72521,1,0
51,205,72864,1,0
51,346,73207,5,0
192,348,73549,1,0
332,349,73892,1,0
402,349,74064,1,0
399,208,74406,1,0
400,137,74578,1,0
188,134,75092,2,4,C|157:242|283:298|373:245|329:123,1,490
32,30,78348,5,0
32,171,78691,1,0
49,239,78862,1,0
104,282,79034,1,0
236,331,79376,1,0
300,303,79548,1,0
194,209,79891,1,0
255,174,80062,1,0
142,88,80405,1,0
199,46,80576,1,0
407,82,81090,1,0
486,198,81433,5,0
404,305,81776,1,0
343,342,81947,1,0
185,345,82290,2,0,B|140:324|119:279|126:232,1,140
148,100,82976,1,0
201,54,83147,2,0,B|247:30|345:42|388:89,1,210
480,289,84175,5,0
338,288,84518,1,0
277,252,84689,1,0
175,153,85032,2,0,B|124:106|156:25|184:17,2,140
180,294,86232,1,0
66,210,86575,2,0,B|27:136|67:60|147:22|265:24|334:39|383:77|429:139|440:190|430:247|401:279|291:309|192:279|142:211|128:170,1,840
416,204,89317,6,4,B|455:130|415:54|335:16|217:18|148:33|99:71|53:133|42:184|52:241|81:273|191:303|290:273|340:205|354:164,1,840
88,64,92059,5,0
56,127,92230,1,0
49,267,92573,1,0
102,313,92744,1,0
237,350,93087,1,0
307,351,93259,1,0
436,296,93601,1,0
477,238,93773,1,0
478,167,93944,1,0
395,51,94287,1,0
41,60,95144,5,0
107,36,95315,1,0
176,25,95487,1,0
316,40,95829,1,0
444,99,96172,1,0
509,224,96515,1,0
368,229,96858,2,0,B|323:102|271:280,1,140
31,351,97886,5,0
70,292,98057,1,0
110,234,98229,1,0
113,92,98571,1,0
161,40,98743,1,0
241,236,99257,1,0
320,119,99600,1,0
413,13,99942,1,0
481,286,100628,5,0
339,290,100971,1,0
197,290,101314,1,0
126,288,101485,2,0,B|84:174|196:179|266:196,1,210
391,194,102342,1,0
461,194,102513,1,0
461,53,102856,5,4
256,192,103370,12,0,105427
140,62,106112,5,4
248,153,106455,1,4
356,244,106798,1,4
409,290,106969,2,4,B|405:194|326:86|208:3|117:-3,1,420
0,29,108340,1,4
256,192,108854,12,0,110910
372,62,111597,5,4
264,153,111939,1,4
156,244,112282,1,4
103,290,112453,2,4,B|107:194|186:86|304:3|395:-3,1,420
512,29,113825,1,4
256,192,124964,5,4
357,5,125479,5,0
358,75,125650,1,0
499,70,125993,1,0
501,210,126336,1,0
499,351,126678,1,0
357,351,127021,1,0
354,209,127364,1,0
283,207,127535,1,0
25,29,128392,5,0
25,99,128563,1,0
26,240,128906,1,0
165,80,129420,1,0
161,221,129763,1,0
90,221,129935,1,0
91,361,130277,1,0
288,158,130963,5,0
290,87,131134,1,0
431,90,131477,1,0
431,160,131648,1,0
431,301,131991,1,0
431,371,132163,1,0
290,369,132505,1,0
287,227,132848,1,0
289,156,133019,1,0
60,134,136276,6,0,B|122:61|177:137,1,140
175,275,136961,1,0
104,280,137133,2,0,B|41:207|285:167|-27:208|167:46,1,210
234,11,137990,1,0
232,81,138161,1,0
230,222,138504,1,0
346,45,139018,5,0
351,186,139361,1,0
421,186,139532,1,0
421,327,139875,2,0,B|371:291|320:333|281:252|299:265,1,140
289,200,140389,1,0
290,58,140732,1,0
360,59,140903,1,0
501,60,141246,1,0
331,286,141931,5,0
260,287,142103,1,0
118,288,142446,1,0
47,288,142617,1,0
53,76,143131,1,0
123,75,143302,1,0
264,75,143645,1,0
256,192,143988,12,0,149644
256,191,172438,5,0
256,191,172609,1,0
256,49,172952,5,0
256,49,173123,1,0
388,97,173466,1,0
388,97,173637,1,0
492,191,173980,1,0
492,191,174151,1,0
388,287,174494,1,0
388,287,174666,1,0
388,287,174837,2,0,B|243:343,1,140
35,161,176037,5,0
35,161,176208,1,0
35,161,176379,1,0
176,161,176722,1,0
317,161,177065,1,0
458,161,177408,1,0
458,161,177579,1,0
458,161,177922,1,0
130,292,178779,6,0,B|136:339|188:353,2,70
184,161,179464,1,0
184,161,179636,1,0
335,13,180150,1,0
465,67,180493,2,0,B|508:102|477:147,2,70
185,22,181521,5,0
236,153,181864,1,0
287,284,182206,1,0
287,284,182378,1,0
287,284,182549,2,0,B|357:197|160:196|176:119|301:39,1,280
269,61,183406,1,0
269,61,183749,1,4
257,31,189405,5,0
258,101,189576,1,0
120,71,189919,1,0
169,122,190090,1,0
45,190,190433,1,0
115,190,190604,1,0
119,330,190947,1,0
162,274,191118,1,0
255,380,191461,1,0
255,239,191804,1,0
364,328,192147,5,0
307,286,192318,1,0
427,211,192661,1,0
356,214,192832,1,0
358,72,193175,1,0
314,127,193346,1,0
250,0,193689,1,0
250,70,193861,1,0
112,36,194203,1,0
157,90,194375,1,0
205,141,194546,1,0
251,194,194717,1,0
462,194,195232,5,0
412,143,195403,1,0
362,93,195574,1,0
362,234,195917,1,0
310,185,196089,1,0
161,34,196603,1,0
161,175,196945,1,0
118,231,197117,1,0
114,301,197288,1,0
155,358,197460,1,0
357,297,197974,5,0
352,155,198317,1,0
353,14,198659,1,0
353,14,198831,2,0,B|418:45|441:126|384:184|334:196|265:179|239:120|257:48|318:45|318:45|374:53,1,420
453,159,200202,1,0
454,229,200373,6,0,B|455:305,1,70
331,230,200887,6,0,B|332:306,1,70
208,231,201401,6,0,B|209:307,1,70
83,235,201916,6,0,B|84:311,1,70
82,375,202258,5,0
11,372,202430,5,0
10,301,202601,5,0
11,230,202772,5,0
17,89,203115,6,0,B|16:13,1,70
140,88,203629,6,0,B|139:12,1,70
263,87,204144,6,0,B|262:11,1,70
388,83,204658,6,0,B|387:7,1,70
439,62,205000,5,0
408,125,205172,5,0
381,190,205343,5,0
349,252,205515,5,0
269,247,205857,6,0,B|188:192,1,70
349,237,206372,6,0,B|268:182,1,70
428,230,206886,6,0,B|347:175,1,70
507,225,207400,6,0,B|426:170,1,70
445,114,207743,5,0
374,117,207914,5,0
303,117,208085,5,0
232,118,208257,5,0
31,317,208942,5,0
33,175,209285,1,0
34,33,209628,1,0
104,31,209799,2,0,B|236:43|287:65|331:127|350:171|347:227|316:275|276:294|211:296|169:288|136:260|112:196|124:108|196:80|237:110|258:152|251:194|251:199,1,630
481,317,211684,5,0
479,175,212027,1,0
478,33,212370,1,0
408,31,212541,2,0,B|276:43|225:65|181:127|162:171|165:227|196:275|236:294|301:296|343:288|376:260|400:196|388:108|316:80|275:110|254:152|261:194|261:199,1,630
31,67,214427,5,0
33,209,214769,1,0
34,351,215112,1,0
104,353,215283,2,0,B|236:341|287:319|331:257|350:213|347:157|316:109|276:90|211:88|169:96|136:124|112:188|124:276|196:304|237:274|258:232|251:190|251:185,1,630
481,67,217169,5,0
479,209,217511,1,0
478,351,217854,1,0
408,353,218026,2,0,B|276:341|225:319|181:257|162:213|165:157|196:109|236:90|301:88|343:96|376:124|400:188|388:276|316:304|275:274|254:232|261:190|261:185,1,630
154,296,219911,5,0
176,156,220254,1,0
275,56,220596,1,0
340,28,220768,1,0
481,25,221111,1,0
475,236,221625,1,0
437,295,221796,1,0
303,342,222139,1,0
358,88,222653,5,0
336,228,222996,1,0
237,328,223338,1,0
172,356,223510,1,0
31,359,223853,1,0
37,148,224367,1,0
75,89,224538,1,0
209,42,224881,1,0
358,296,225395,5,0
336,156,225738,1,0
237,56,226081,1,0
172,28,226252,1,0
31,25,226595,1,0
37,236,227109,1,0
75,295,227280,1,0
209,342,227623,1,0
154,88,228137,5,0
176,228,228480,1,0
275,328,228823,1,0
340,356,228994,1,0
481,359,229337,1,0
475,148,229851,1,0
437,89,230022,1,0
308,43,230365,1,0
364,167,230794,5,0
364,167,231137,1,0
304,289,231480,1,0
304,289,231651,1,0
174,332,231994,1,0
26,189,232508,1,0
26,189,232679,1,0
76,62,233022,1,4
148,167,233536,5,0
148,167,233879,1,0
208,289,234222,1,0
208,289,234393,1,0
338,332,234736,1,0
486,189,235250,1,0
486,189,235421,1,0
436,62,235764,1,4
364,167,236278,5,0
364,167,236621,1,0
304,289,236964,1,0
304,289,237135,1,0
174,332,237478,1,0
26,189,237992,1,0
26,189,238163,1,0
76,62,238506,1,4
148,167,239020,5,0
148,167,239363,1,0
208,289,239706,1,0
208,289,239877,1,0
338,332,240220,1,0
486,189,240734,1,0
486,189,240906,1,0
436,62,241248,1,4
364,167,241763,5,0
364,167,242105,1,0
304,289,242448,1,0
304,289,242619,1,0
174,332,242962,1,0
26,189,243476,1,0
26,189,243648,1,0
76,62,243990,1,4
