osu file format v6

[General]
AudioFilename: 12-steve_aoki-je_veux_te_voir_(with_yelle).mp3
AudioLeadIn: 0
PreviewTime: 29020
Countdown: 2
SampleSet: Normal
StackLeniency: 0.7
Mode: 0
LetterboxInBreaks: 0

[Editor]
Bookmarks: 3504,34103,68283,68307,77673,95607,129364,137427,155361
DistanceSpacing: 0.800000011920929
BeatDivisor: 4
GridSize: 16

[Metadata]
Title:Je Veux Te Voir
Artist:Steve Aoki (w/ Yelle)
Creator:Loogiesquared
Version:Ordinaire
Source:Pillowface and the Airplane Chronicles
Tags:steveaoki yelle je veux te voir loogie

[Difficulty]
HPDrainRate:5
CircleSize:5
OverallDifficulty:5
SliderMultiplier:1.2
SliderTickRate:2

[Events]
//Background and Video events
0,0,"Backgroundstat.png"
//Break Periods
2,73806,78284
//Storyboard Layer 0 (Background)
//Storyboard Layer 1 (Fail)
//Storyboard Layer 2 (Pass)
//Storyboard Layer 3 (Foreground)
//Storyboard Sound Samples
//Background Colour Transformations
3,100,0,0,0

[TimingPoints]
3524,452.147701582517,4,1,1,100,1,0

[Colours]
Combo1 : 167,167,167
Combo2 : 223,223,223
Combo3 : 108,108,108

[HitObjects]
32,192,3523,1,4
144,192,3976,1,4
256,192,4428,1,4
368,192,4880,1,4
464,192,5332,1,2
464,144,5558,1,2
432,112,5784,1,2
384,144,6010,1,10
336,112,6236,1,2
288,144,6462,1,10
240,112,6689,1,6
128,80,7141,6,0,C|128:128|112:144,1,60,0|8
144,192,7593,1,0
192,160,7819,1,10
240,192,8045,1,0
288,160,8271,1,10
336,192,8497,1,4
432,192,8949,6,0,B|432:272|416:256,1,60,4|0
384,288,9401,1,4
336,256,9627,1,2
288,288,9854,1,4
240,256,10080,1,2
192,288,10306,1,4
48,192,10758,5,4
144,192,11210,1,4
240,192,11662,1,4
336,192,12114,1,4
432,144,12566,5,4
384,144,12793,1,2
336,144,13019,1,2
288,144,13245,1,2
240,144,13471,2,0,B|240:176|288:192,1,60,0|4
448,192,14375,5,0
400,192,14601,1,2
352,192,14827,1,0
304,192,15053,1,2
256,192,15279,1,0
208,192,15505,1,6
112,192,15958,2,8,B|112:128,6,60,8|8|8|8|8|8|12
48,64,17992,5,4
144,64,18444,1,4
240,64,18897,1,4
336,64,19349,1,4
432,64,19801,5,2
432,112,20027,1,2
384,112,20253,1,2
336,112,20479,1,2
336,160,20705,1,2
384,160,20931,1,2
432,160,21157,1,6
448,256,21609,5,0
416,224,21835,1,0
384,192,22062,1,2
352,160,22288,1,0
320,144,22514,1,0
288,160,22740,1,0
256,192,22966,1,6
352,192,23418,5,0
352,240,23644,1,0
352,288,23870,1,0
304,288,24096,1,0
304,240,24322,1,0
304,192,24548,1,0
256,192,24774,1,6
256,64,25227,6,0,B|400:64,3,120,0|0|0|4
384,288,27035,6,8,B|448:288|464:272,1,60
416,240,27487,1,0
368,208,27713,1,0
352,256,27939,1,4
160,224,28844,6,8,B|128:192|96:224,1,60
64,224,29296,2,0,B|96:192|128:224,1,60
112,176,29748,1,4
64,16,30426,6,8,B|144:16,1,60
160,48,30878,1,0
208,32,31105,1,0
256,48,31331,1,0
304,32,31557,1,4
176,96,32235,5,0
144,144,32461,1,0
240,144,32913,1,0
288,144,33139,1,0
336,144,33365,1,0
432,144,33817,1,2
432,192,34043,1,2
336,192,34496,5,0
288,192,34722,1,8
240,192,34948,1,0
192,192,35174,1,0
96,192,35626,5,2
96,192,35852,1,2
96,80,36304,5,0
144,80,36530,1,10
192,80,36756,1,0
240,80,36982,1,0
288,80,37209,1,0
336,80,37435,2,8,B|384:128,1,60
416,208,38113,5,0
384,176,38339,1,0
352,144,38565,1,0
320,112,38791,1,0
320,208,39243,1,0
272,208,39469,1,0
272,160,39695,5,4
176,160,40147,1,4
80,160,40600,1,4
176,160,41052,1,4
288,208,41504,6,14,B|288:176,15,30
288,160,43312,5,4
64,192,44217,5,4
448,192,45121,5,4
64,192,46025,5,4
448,192,46930,5,4
64,192,47834,5,4
448,192,48738,5,4
64,192,49643,5,4
256,192,50095,1,8
448,192,50547,1,4
64,192,51451,5,4
448,192,52355,5,4
64,192,53260,5,4
448,192,54164,5,4
64,192,55068,5,4
224,304,55973,1,0
320,304,56425,1,0
320,208,56877,2,12,B|208:208|192:160,1,120
160,96,57781,5,0
208,64,58007,1,0
256,96,58233,1,8
304,64,58459,1,8
352,96,58686,1,0
400,64,58912,1,0
352,96,59138,1,8
304,64,59364,1,8
256,80,59590,1,0
256,128,59816,1,0
256,176,60042,1,8
256,224,60268,1,8
304,240,60494,1,4
448,304,60946,5,0
416,272,61172,1,0
384,240,61398,1,8
352,208,61624,1,8
320,176,61851,1,0
288,144,62077,1,0
256,112,62303,1,4
160,112,62755,5,0
192,144,62981,1,0
224,176,63207,1,8
256,208,63433,1,8
288,240,63659,1,0
256,208,63885,1,8
208,208,64111,1,12
112,176,64563,5,0
80,144,64790,1,0
112,112,65016,1,8
144,144,65242,1,8
176,112,65468,1,0
208,144,65694,1,0
240,112,65920,1,8
272,144,66146,1,8
304,112,66372,1,0
336,144,66598,1,8
368,112,66824,1,8
400,144,67050,1,0
432,112,67276,1,0
464,144,67502,1,8
496,160,67728,6,4,B|496:208,2,32.5
352,192,68633,6,0,B|368:176|400:208|416:176,13,60,0|0|0|0|0|0|0|0|0|0|0|0|0|4
432,320,72250,5,4
352,256,72702,1,4
272,320,73154,1,4
192,256,73606,1,4
176,304,79484,5,4
112,240,79936,1,4
48,176,80389,1,4
96,96,80841,1,4
208,64,81293,5,0
256,64,81519,1,0
304,64,81745,1,8
352,64,81971,1,8
400,64,82197,1,2
448,64,82423,1,12
448,208,83101,5,0
400,176,83328,1,0
352,208,83554,1,8
304,176,83780,1,8
256,208,84006,2,0,B|256:256|208:256,1,60,0|4
144,208,84684,5,0
176,176,84910,1,0
144,144,85136,1,8
176,112,85362,1,8
144,80,85588,1,0
176,48,85814,1,0
208,80,86040,1,12
256,224,86719,5,4
256,128,87171,1,4
256,32,87623,1,4
256,128,88075,1,4
208,192,88527,5,0
256,208,88753,1,0
304,192,88979,1,8
352,208,89205,1,8
400,192,89432,1,0
448,208,89658,1,8
400,192,89884,1,4
400,288,90336,5,0
352,288,90562,1,0
304,288,90788,1,8
256,288,91014,1,8
304,288,91240,1,0
352,288,91466,1,8
352,240,91692,2,4,B|208:240,1,120
224,192,92371,1,0
208,144,92597,1,0
160,144,92823,1,4
112,144,93049,1,4
64,144,93275,1,12
112,144,93501,1,12
64,192,93953,5,4
144,144,94405,1,4
224,192,94857,1,4
304,144,95309,1,4
384,192,95762,5,0
352,224,95988,1,0
320,192,96214,1,8
288,224,96440,1,8
256,192,96666,1,4
80,256,97570,6,0,B|128:256|128:208,1,60
128,176,98022,2,0,B|128:128|176:128,1,60
208,128,98475,1,4
352,128,99153,5,8
352,192,99379,2,0,B|352:240|304:240,1,60
256,240,99831,2,0,B|224:240|224:192,1,60
240,144,100283,1,4
336,144,100735,5,0
336,192,100961,1,0
352,208,101074,1,0
368,192,101187,1,4
