osu file format v6

[General]
AudioFilename: 12-steve_aoki-je_veux_te_voir_(with_yelle).mp3
AudioLeadIn: 0
PreviewTime: 27035
Countdown: 2
SampleSet: Normal
StackLeniency: 0.7
Mode: 0
LetterboxInBreaks: 0

[Editor]
Bookmarks: 3504,9381,21589,34103,43062,60474,62283,68283,68307,77673,92144,93501,93933,94385,94837,95289,129364,137427,155361
DistanceSpacing: 0.800000011920929
BeatDivisor: 4
GridSize: 16

[Metadata]
Title:Je Veux Te Voir
Artist:Steve Aoki (w/ Yelle)
Creator:Loogiesquared
Version:Difficile v2
Source:Pillowface and the Airplane Chronicles
Tags:steveaoki yelle je veux te voir loogie

[Difficulty]
HPDrainRate:5
CircleSize:5
OverallDifficulty:6
SliderMultiplier:1.2
SliderTickRate:2

[Events]
//Background and Video events
0,0,"Backgroundstat.png"
//Break Periods
//Storyboard Layer 0 (Background)
//Storyboard Layer 1 (Fail)
//Storyboard Layer 2 (Pass)
//Storyboard Layer 3 (Foreground)
//Storyboard Sound Samples
//Background Colour Transformations
3,100,0,0,0

[TimingPoints]
3524,452.147701582517,4,1,1,100,1,0
32102,-100,4,1,1,100,0,1
39544,-100,4,1,1,100,0,0
70421,-200,4,1,1,100,0,0
71778,-100,4,1,1,100,0,0

[Colours]
Combo1 : 141,141,141
Combo2 : 210,210,210
Combo3 : 58,58,58

[HitObjects]
208,192,3523,2,4,B|272:144|320:192,3,120
416,192,5332,2,0,B|464:192|464:144,2,60,0|8|0
368,192,6010,1,8
320,192,6236,1,0
272,192,6462,2,8,B|224:192|224:240,1,60
128,192,7141,6,0,B|80:192|80:144,2,60,0|8|0
176,192,7819,1,8
224,192,8045,1,0
272,192,8271,2,0,B|320:192|320:240,1,60,8|8
416,192,8949,6,0,B|464:192|464:144,2,60,0|8|0
368,192,9627,1,8
320,192,9854,1,0
272,192,10080,2,8,B|224:192|224:240,1,60
224,128,10758,5,4
320,128,11210,1,4
416,128,11662,1,4
320,128,12114,1,4
240,176,12566,5,0
240,128,12793,1,8
288,128,13019,2,2,B|288:208,1,60,2|10
336,208,13471,2,2,B|336:132,1,60,2|10
240,256,14375,5,0
240,208,14601,1,8
288,208,14827,2,2,B|288:288,1,60,2|10
320,288,15279,2,2,B|320:212,1,60,2|10
240,176,15958,5,4
240,128,16184,1,0
240,80,16410,1,8
288,80,16636,2,2,B|288:160,1,60,2|10
320,160,17088,2,2,B|320:80,1,60,2|10
256,224,17992,5,4
352,192,18444,1,4
256,224,18897,1,4
160,192,19349,1,4
256,224,19801,6,2,B|224:192|192:224,1,60,2|10
256,224,20253,2,2,B|288:256|256:288,1,60,2|10
256,224,20705,2,2,B|288:192|320:224,1,60,2|10
256,224,21157,1,8
256,128,21609,6,2,B|224:96|192:128,1,60,2|10
256,128,22062,2,2,B|288:160|256:192,1,60,2|10
256,128,22514,2,2,B|288:96|320:128,1,60,2|10
256,128,22966,1,8
240,224,23418,6,2,B|208:192|176:224,1,60,2|10
240,224,23870,2,2,B|272:256|240:288,1,60
240,224,24322,2,2,B|272:192|304:224,1,60,2|10
240,224,24774,1,8
144,192,25227,5,4
240,224,25679,1,4
336,192,26131,1,4
240,224,26583,1,4
176,100,27035,6,4,B|176:180|176:164,1,60,4|12
224,160,27487,2,4,B|224:84|224:100,1,60,4|12
224,48,27939,1,0
400,96,28844,6,4,B|400:176|400:160,1,60,4|12
352,160,29296,2,4,B|352:84|352:100,1,60,4|12
352,48,29748,1,0
208,48,30426,5,8
160,48,30652,2,4,B|160:128|160:112,1,60,4|12
112,112,31105,2,4,B|112:36|112:52,1,60,4|12
160,48,31557,1,0
272,144,32235,5,2
320,144,32461,1,2
320,240,32913,5,2
320,192,33139,1,10
320,144,33365,1,2
224,144,33817,5,10
224,192,34043,1,2
224,96,34496,5,10
224,144,34722,1,2
224,192,34948,1,10
224,240,35174,1,2
320,240,35626,5,10
320,192,35852,1,2
320,96,36304,5,2
320,144,36530,1,10
320,192,36756,1,2
320,240,36982,1,10
272,240,37209,1,2
224,240,37435,1,10
224,192,37661,1,10
224,96,38113,5,2
224,144,38339,1,10
224,192,38565,1,2
224,240,38791,1,10
320,240,39243,5,4
320,192,39469,1,4
272,192,39695,5,4
176,192,40147,1,4
272,192,40600,1,4
176,192,41052,1,4
192,112,41504,5,0
208,112,41617,1,0
224,112,41730,1,0
240,112,41843,1,0
256,112,41956,1,0
272,112,42069,1,0
288,112,42182,1,0
304,112,42295,1,0
320,112,42408,1,0
336,112,42521,1,0
352,112,42634,1,0
352,128,42747,1,0
352,144,42860,1,0
352,160,42973,1,0
352,176,43086,1,4
352,224,43312,6,0,B|384:192|416:240,2,60,4|0|0
304,224,43991,1,0
256,224,44217,2,0,B|224:192|192:240,1,60,4|0
160,224,44669,1,0
112,224,44895,2,0,B|80:192|48:240,2,60,0|4|0
160,224,45573,1,0
208,224,45799,1,0
256,224,46025,1,4
208,144,46478,6,0,B|176:112|144:160,2,60,4|0|0
256,144,47156,1,0
304,144,47382,2,0,B|336:112|368:160,1,60,4|0
400,144,47834,1,0
448,144,48060,2,0,B|480:112|512:160,2,60,0|4|0
400,144,48738,1,0
352,144,48964,1,0
304,144,49190,1,4
256,144,49416,1,0
208,144,49643,5,4
208,240,50095,1,4
304,240,50547,1,4
304,192,50773,5,2
336,176,50999,1,2
336,144,51225,1,2
336,112,51451,1,2
240,80,51903,5,0
240,128,52129,1,0
240,176,52355,1,0
240,224,52582,1,2
240,272,52808,2,2,B|208:304|256:336,2,60,2|2|6
336,272,53712,6,0,B|368:240|320:208,2,60
336,320,54390,1,2
288,320,54616,1,2
288,272,54842,2,2,B|320:240|272:208,1,60,2|6
288,128,55520,5,6
288,32,55973,5,0
336,32,56199,2,2,B|368:64|320:96,2,60
288,32,56877,1,2
288,128,57329,1,6
192,128,57781,5,0
192,80,58007,1,0
240,80,58233,2,0,B|208:112|256:144,3,60,0|4|0|0
240,176,59138,1,0
192,176,59364,1,0
192,224,59590,1,0
192,272,59816,2,0,B|160:304|208:336,3,60,0|0|0|4
288,320,60946,5,0
288,272,61172,1,0
288,224,61398,2,0,B|304:192|288:160,3,60
288,112,62303,1,4
384,112,62755,5,0
384,160,62981,1,0
384,208,63207,2,0,B|352:224|320:208,1,60
272,208,63659,2,0,B|240:192|208:208,1,60
160,208,64111,1,4
160,112,64563,6,0,B|192:80|224:128,3,60
256,112,65468,1,0
304,112,65694,2,0,B|336:144|368:96,2,60
256,112,66372,1,0
208,112,66598,1,0
160,112,66824,1,0
112,112,67050,1,0
160,112,67276,1,0
208,112,67502,1,0
256,112,67728,1,0
272,96,67842,1,0
288,112,67955,1,0
400,112,68633,5,4
304,112,69085,1,4
208,112,69537,1,4
112,112,69989,1,4
112,160,70441,6,0,B|128:144|160:176|327:304|176:144,3,60,4|0|0|0
128,64,72250,5,4
192,128,72702,1,4
256,208,73154,1,4
320,272,73606,1,4
384,336,74059,6,0,B|432:336|432:288,3,60
432,256,74963,1,0
432,208,75189,1,0
432,160,75415,1,4
336,160,75867,5,0
288,160,76093,2,0,B|272:144|240:176|224:160,3,60
176,160,76998,1,0
128,160,77224,1,4
128,64,77676,5,0
176,64,77902,2,0,B|192:48|224:80|240:64,3,60
288,64,78806,1,0
336,64,79032,1,4
336,160,79484,5,4
240,160,79936,1,4
240,256,80389,1,4
240,160,80841,1,4
240,64,81293,6,0,B|192:48|160:80,3,60
128,64,82197,1,4
128,112,82423,1,4
256,64,83101,6,0,B|304:48|336:80,3,60
368,64,84006,1,4
368,112,84232,1,4
288,64,84684,5,0
240,64,84910,2,0,B|192:48|160:80,3,60
128,64,85814,1,4
128,112,86040,1,4
240,160,86719,5,4
304,224,87171,1,4
240,288,87623,1,4
176,224,88075,1,4
240,160,88527,5,0
272,192,88753,1,0
304,224,88979,1,0
304,224,89205,1,0
272,256,89432,1,0
240,288,89658,1,0
240,288,89884,1,0
160,224,90336,5,0
192,192,90562,1,0
224,160,90788,1,0
224,160,91014,1,0
256,192,91240,2,0,B|304:192|288:240,2,60,0|4|0
352,192,92144,2,0,C|320:176|304:192|288:176|272:192|256:176|240:192|224:176|208:192|192:176|176:192|160:176|144:192|128:176|80:176,1,360
256,192,93953,5,4
256,192,94405,1,4
256,192,94857,1,4
256,192,95309,1,4
352,224,95762,5,2
400,224,95988,1,2
400,176,96214,1,2
400,128,96440,1,2
400,80,96666,1,6
208,80,97570,5,2
208,128,97796,1,2
208,176,98022,1,2
208,224,98248,1,2
208,272,98475,1,6
64,272,99153,5,6
64,224,99379,1,6
64,176,99605,1,6
64,128,99831,1,6
64,80,100057,1,6
64,32,100283,1,6
160,32,100735,5,0
176,48,100848,1,0
192,64,100961,1,0
208,80,101074,1,4
224,96,101187,1,0
