osu file format v5

[General]
AudioFilename: 01 Walkie Talkie Man.MP3
AudioLeadIn: 0
PreviewTime: -1
Countdown: 2
SampleSet: Normal
StackLeniency: 0.7
Mode: 0
LetterboxInBreaks: 1

[Metadata]
Title:Walkie Talkie Man
Artist:Steriogram
Creator:alexcp999
Version:Bye bye, hit accuracy
Source:
Tags:

[Difficulty]
HPDrainRate:9
CircleSize:6
OverallDifficulty:10
SliderMultiplier:2.6
SliderTickRate:4

[Events]
//Background and Video events
0,0,"VL-don.jpg"
//Break Periods
2,50855,55086
2,84307,92858
2,93508,99670
2,117757,138103
//Storyboard Layer 0 (Background)
//Storyboard Layer 1 (Failing)
//Storyboard Layer 2 (Passing)
//Storyboard Layer 3 (Foreground)
//Storyboard Sound Samples
//Background Colour Transformations
3,100,163,162,255

[TimingPoints]
6428,406.696942994645,4,1,1,100,1

[Colours]
Combo1 : 190,150,150
Combo2 : 146,211,129
Combo3 : 150,150,190
Combo4 : 100,100,100

[HitObjects]
104,288,16032,1,2
112,288,16085,1,2
120,288,16138,1,2
128,288,16191,1,2
128,288,16244,1,2
136,288,16298,1,2
144,288,16351,1,2
152,288,16404,1,2
160,288,16457,1,2
168,288,16510,1,2
176,288,16563,1,2
184,288,16617,1,2
192,288,16670,1,2
200,288,16723,1,2
208,288,16776,1,2
216,288,16829,1,2
224,288,16883,1,2
232,288,16936,1,2
240,288,16989,1,2
248,288,17042,1,2
256,280,17095,1,2
256,272,17148,1,2
256,264,17202,1,2
256,256,17255,1,2
256,248,17308,1,2
256,240,17361,1,2
256,240,17414,1,2
256,240,17467,1,2
256,240,17521,1,2
256,240,17574,1,2
272,240,17627,1,2
296,240,17680,1,2
320,240,17733,1,2
344,240,17787,1,2
360,240,17840,1,2
392,240,17893,1,2
416,240,17946,1,2
424,216,17999,1,2
408,200,18052,1,2
376,200,18106,1,2
344,200,18159,1,2
311,202,18212,1,2
272,201,18265,1,2
241,200,18318,1,2
213,198,18372,1,2
186,199,18425,1,2
158,188,18478,1,2
256,192,18746,12,2,20576
256,192,18746,12,0,20627
23,109,20932,1,0
52,134,20983,1,0
76,158,21034,1,0
105,181,21085,1,0
134,208,21136,1,0
163,227,21186,1,0
193,246,21237,1,0
225,263,21288,1,0
255,287,21339,1,0
280,304,21390,1,0
305,327,21441,1,0
331,354,21491,1,0
353,336,21542,1,0
373,315,21593,1,0
400,291,21644,1,0
425,264,21695,1,0
452,241,21746,1,0
452,241,22051,2,0,B|331:358|328:360|332:360|328:359|330:359|333:359|329:359|329:359|452:241|452:241|11:95,1,780
256,192,23814,12,0,23865
256,192,23915,12,0,23966
256,192,24017,12,0,24068
256,192,24119,12,0,24170
4,8,24475,2,0,B|7:47|493:367|482:359,2,585
33,31,26559,1,2
51,48,26610,1,2
71,67,26661,1,2
97,85,26712,1,2
129,108,26762,2,2,B|187:152|182:152|191:151,4,65
35,239,27525,2,2,B|516:248|516:251|516:251|510:20|511:20|17:358|281:24|280:369|24:348|63:132|504:258,1,1332.5
236,23,29863,2,2,B|241:379|240:275|250:396|247:388|275:10|277:-1|289:-4|308:363|318:380|348:8|360:4|372:377|385:380|418:4|442:2|453:369|474:364,1,780
429,346,31439,1,2
340,348,31643,1,2
256,345,31795,1,2
203,345,31948,1,2
148,345,32100,1,2
103,344,32253,1,2
74,286,32304,2,2,B|100:253|134:242|164:250|190:268|206:300|199:290,3,130
36,328,33320,2,2,B|-18:70|-18:70|487:370|487:370|344:177|379:244|342:230|342:230|199:201,1,1202.5
8,24,35710,2,0,B|16:328|152:8|152:8|176:296|280:0|280:0|360:224|464:0|472:0,1,910
256,192,37336,12,0,38760
256,192,39116,12,0,39167
256,192,39167,12,0,39217
256,192,39217,12,0,39268
256,192,39268,12,0,39319
256,192,39319,12,0,39370
256,192,39370,12,0,39421
256,192,39421,12,0,39472
256,192,39472,12,0,39522
256,192,39522,12,0,39573
256,192,39573,12,0,39624
256,192,39624,12,0,39675
256,192,39675,12,0,39726
256,192,39726,12,0,39777
256,192,39777,12,0,39827
256,192,39827,12,0,39878
256,192,39878,12,0,39929
256,192,39929,12,0,39980
256,192,39980,12,0,40031
256,192,40031,12,0,40082
256,192,40133,12,0,40183
256,192,40183,12,0,40234
256,192,40234,12,0,40285
256,192,40336,12,0,40387
256,192,40387,12,0,40438
256,192,40488,12,0,40539
256,192,40590,12,0,40641
256,192,40692,12,0,40743
256,192,40793,12,0,40844
256,192,40895,12,0,40946
256,192,40997,12,0,41048
256,192,41098,12,0,41149
256,192,41200,12,0,41251
256,192,41302,12,0,41353
256,192,41403,12,0,41454
256,192,41505,12,0,41556
256,192,41607,12,0,41658
256,192,41708,12,0,41759
256,192,41810,12,0,41861
256,192,41912,12,0,41963
256,192,42013,12,0,42064
256,192,42115,12,0,42166
256,192,42217,12,0,42268
256,192,42319,12,0,42369
256,192,42420,12,0,42471
256,192,42522,12,0,42573
256,192,42624,12,0,42674
256,192,42725,12,0,42776
256,192,42827,12,0,42878
256,192,42929,12,0,42979
256,192,43030,12,0,43081
40,88,43945,2,0,B|40:136|40:136|80:136|80:136|80:168|80:168|128:168|128:168|128:120|128:120|168:120|168:120|168:72|168:72|208:72|208:72|208:120|208:120|248:120|248:120|248:168|248:168|208:168|208:168|216:216|216:216|152:216|152:216|176:160|168:160|120:144|120:144|104:104|104:104|144:96|144:96|192:128|192:128|184:184|184:184|144:192|144:192|104:160|104:160|96:128|88:128|168:152|168:152|216:144|216:144|232:192|232:192|184:224|184:224|192:256|192:256|232:232|232:232|72:88|72:88|40:200|40:200|136:200|136:200|72:184|72:184|104:240|104:240|176:272|176:272|128:216|128:216|48:240|48:240|136:280|136:280|136:72|136:72|264:208|264:208|48:176|48:176|224:112|224:112|144:256|144:256|64:224|64:224|152:144|152:144|232:208|232:208|184:96|184:96|88:256|88:256|72:112|72:112|208:240|208:240|136:112|144:120,1,4290
8,40,55536,6,0,B|496:32|496:32|488:368|488:368|0:368|0:368|8:56|8:56|472:360|472:360|480:32|480:32|8:376|8:376|128:48|128:48|240:360|240:360|352:24|352:24|480:368|480:368|8:208|8:208|480:40|480:40|0:48|0:48|488:184|488:184|8:368|0:360,1,6987.5
256,192,66771,12,0,68601
0,24,69059,6,0,B|496:376|496:376|-8:376|-8:376|496:8|496:8|0:16|0:16|0:376|0:376|8:16|8:16|8:376|8:376|8:24|8:24|504:376|504:376|504:8|504:8|376:352|208:352|32:8|32:8|24:376|24:376|112:72|272:32|400:112|472:368|472:368|464:352,1,6435,0|0
8,40,79684,6,0,B|512:360|512:344|504:352|504:336|520:352|24:344|24:344|16:336|16:328|16:328|32:328|32:328|40:344|40:344|48:344|48:344|48:328|48:328|40:328|40:328|32:344|32:344|80:344|80:344|64:328|64:328|56:360|56:360|32:336|32:336|24:320|24:320|56:336|56:336|72:360|72:360|16:360|16:360|40:312|40:312|72:312|72:312|80:312,1,1495
256,192,82429,12,0,84107
192,184,93308,5,0
224,184,93867,1,0
256,192,100120,12,0,117557
72,128,138553,6,0,B|424:320|424:320|384:104|384:104|248:384|248:384|176:56|176:56|64:376|136:344|136:344|128:344,1,1560
112,128,141502,2,0,B|432:344|432:344|440:16|440:16|128:360|128:360|232:64|232:64|448:304|448:304|456:304,1,1820
48,48,144755,2,0,B|48:344|472:344|472:8|472:8|480:368|480:368|488:8|24:24|48:384|48:384|40:48|40:48|40:56,1,2112.5
48,48,148365,2,0,B|40:376|472:368|472:24|472:24|456:120|456:120|416:168|416:168|360:200|360:200|304:192|304:192|312:192,1,975
112,144,150398,1,0
144,144,150449,1,0
192,144,150500,1,0
232,144,150551,1,0
232,240,150602,1,0
184,240,150652,1,0
144,240,150703,1,0
104,240,150754,1,0
104,192,150805,1,0
152,192,150856,1,0
192,192,150907,1,0
232,192,150957,1,0
272,112,151008,1,0
280,168,151059,1,0
280,216,151110,1,0
280,264,151161,1,0
208,288,151212,1,0
208,216,151262,1,0
208,152,151313,1,0
208,96,151364,1,0
336,96,151415,1,0
336,160,151466,1,0
336,232,151517,1,0
336,288,151567,1,0
72,272,151618,1,0
136,328,151669,1,0
312,352,151720,1,0
448,272,151771,1,0
432,152,151822,1,0
320,56,151872,1,0
192,56,151923,1,0
56,120,151974,1,0
160,136,152025,1,0
256,136,152076,1,0
248,216,152127,1,0
344,224,152178,1,0
352,136,152228,1,0
256,136,152279,1,0
248,216,152330,1,0
152,216,152381,1,0
224,184,152432,1,0
296,184,152483,1,0
304,128,152533,1,0
200,128,152584,1,0
192,224,152635,1,0
296,232,152686,1,0
296,184,152737,1,0
224,184,152788,1,0
80,200,152940,5,0
160,280,152991,1,0
248,312,153042,1,0
384,304,153093,1,0
440,216,153143,1,0
432,104,153194,1,0
288,48,153245,1,0
136,56,153296,1,0
192,176,153347,1,0
272,184,153398,1,0
192,176,153448,1,0
272,184,153499,1,0
240,136,153550,1,0
232,232,153601,1,0
232,168,153652,1,0
184,224,153703,1,0
320,200,153753,1,0
192,176,153804,1,0
288,152,153855,1,0
184,224,153906,1,0
176,136,153957,1,0
288,248,154008,1,0
312,136,154058,1,0
184,224,154109,1,0
288,152,154160,1,0
176,192,154211,1,0
280,104,154262,1,0
256,272,154313,1,0
376,168,154364,1,0
136,176,154414,1,0
376,168,154465,1,0
240,80,154516,1,0
256,272,154567,1,0
320,168,154618,1,0
176,136,154669,1,0
272,240,154719,1,0
264,136,154770,1,0
160,192,154821,1,0
296,240,154872,1,0
264,136,154923,1,0
232,256,154974,1,0
336,200,155024,1,0
200,168,155075,1,0
248,120,155126,1,0
256,232,155177,1,0
344,176,155228,1,0
248,176,155279,1,0
296,136,155329,1,0
272,248,155380,1,0
200,168,155431,1,0
288,192,155482,1,0
248,120,155533,1,0
208,224,155584,1,0
344,176,155634,1,0
248,120,155685,1,0
240,232,155736,1,0
344,200,155787,1,0
248,120,155838,1,0
240,232,155889,1,0
344,200,155939,1,0
248,120,155990,1,0
232,200,156041,1,0
328,168,156092,1,0
344,128,156143,2,0,B|88:320|88:320|104:80|104:80|376:328|376:328|480:88|480:88|0:256|0:256|224:376|224:376|232:48|232:48|448:328|448:328|0:96|0:96|496:48|496:48|296:344|296:344|296:336,1,3997.5
256,192,165954,12,0,172614
256,192,163006,12,0,189598
