osu file format v8

[General]
AudioFilename: Stereos - Summer Girl.mp3
AudioLeadIn: 0
PreviewTime: 31839
Countdown: 1
SampleSet: Normal
StackLeniency: 0.7
Mode: 0
LetterboxInBreaks: 1

[Editor]
Bookmarks: 31839,43915,68066
DistanceSpacing: 0.9
BeatDivisor: 2
GridSize: 8

[Metadata]
Title:Summer Girl
Artist:Stereos
Creator:0_o
Version:Normal
Source:
Tags:

[Difficulty]
HPDrainRate:3
CircleSize:4
OverallDifficulty:4
ApproachRate:3
SliderMultiplier:0.999999999999999
SliderTickRate:1

[Events]
//Background and Video events
0,0,"Party-by-pincel3d_7082_1024_768.jpg"
//Break Periods
2,92206,102086
2,128632,130388
//Storyboard Layer 0 (Background)
//Storyboard Layer 1 (Fail)
//Storyboard Layer 2 (Pass)
//Storyboard Layer 3 (Foreground)
//Storyboard Sound Samples
//Background Colour Transformations
3,100,163,162,255

[TimingPoints]
1640,377.358490566038,4,1,0,100,1,0
7856,-100,4,2,0,100,0,0
9177,-100,4,1,0,100,0,0
9365,-100,4,2,0,100,0,0
12196,-100,4,1,0,100,0,0
13894,-100,4,2,0,100,0,0
18233,-100,4,1,0,100,0,0
31063,-100,4,2,0,0,0,0
31818,-100,4,1,0,100,0,0
43894,-100,4,1,0,100,0,0
44271,-100,4,2,0,100,0,0
49554,-100,4,1,0,100,0,0
50120,-100,4,2,0,100,0,0
52950,-100,4,1,0,68,0,0
55969,-100,4,1,0,100,0,0
56913,-100,4,2,0,100,0,0
57479,-100,4,1,0,100,0,0
60120,-100,4,2,0,100,0,0
60309,-100,4,1,0,100,0,0
63139,-100,4,2,0,100,0,0
63516,-100,4,1,0,100,0,0
92196,-100,4,2,0,100,0,0
104271,-100,4,1,0,100,0,0
104460,-100,4,2,0,100,0,0
104837,-100,4,1,0,100,0,0
105214,-100,4,2,0,100,0,0
105780,-100,4,1,0,100,0,0
106158,-100,4,2,0,100,0,0
107290,-100,4,1,0,100,0,0
108422,-100,4,2,0,100,0,0
108611,-100,4,1,0,100,0,0
110120,-100,4,2,0,100,0,0
111441,-100,4,1,0,100,0,0
112196,-100,4,2,0,100,0,0
113139,-100,4,1,0,100,0,0
115969,-100,4,2,0,100,0,0
116346,-100,4,1,0,100,0,0
116724,-100,4,2,0,100,0,0
117856,-100,4,1,0,100,0,0
118233,-100,4,2,0,100,0,0
119365,-100,4,1,0,100,0,0
120497,-100,4,2,0,100,0,0
120686,-100,4,1,0,100,0,0
122384,-100,4,2,0,100,0,0
123516,-100,4,1,0,100,0,0
124271,-100,4,2,0,100,0,0
125214,-100,4,1,0,100,0,0
125780,-100,4,2,0,100,0,0
126913,-200,4,2,0,100,0,0
131630,-100,4,1,0,52,0,0
134460,-100,4,2,0,0,0,0
135214,-100,4,2,0,100,0,0
135780,-100,4,1,0,100,0,0
135979,-100,4,1,0,100,0,1
147997,-100,4,1,0,100,0,0
148055,-100,4,1,0,100,0,1
160120,-100,4,2,0,100,0,0

[Colours]
Combo1 : 49,49,206
Combo2 : 255,255,0
Combo3 : 255,128,0
Combo4 : 255,0,255

[HitObjects]
256,192,7677,1,4
256,280,8055,5,0
184,336,8432,1,0
112,280,8809,1,2
0,128,9564,5,0
64,72,9941,1,2
128,128,10319,1,0
304,184,11073,5,0
392,184,11451,1,8
352,264,11828,1,0
352,352,12206,2,0,B|256:400|152:352|152:352,2,200,0|0|4
416,288,14092,5,0
456,208,14470,1,8
416,128,14847,1,2
264,40,15602,5,0
224,120,15979,1,2
264,200,16356,1,4
408,312,17111,5,2
328,352,17489,1,8
248,312,17866,1,0
168,352,18243,2,0,B|16:352|16:352,2,150,0|0|2
256,352,19753,6,0,B|304:272|200:240|256:152|256:152,1,200,4|8
320,96,20885,5,0
392,48,21262,2,0,B|488:96|504:192|504:192,2,150,0|0|2
344,120,22772,5,4
256,120,23149,1,0
168,120,23526,1,8
168,208,23904,5,0
112,280,24281,2,2,B|16:232|0:136|0:136,2,150,0|2|2
176,336,25790,5,4
256,288,26168,1,0
328,336,26545,1,8
416,336,26923,5,0
480,272,27300,2,0,B|416:200|344:272|344:272,1,150
256,368,28432,1,0
256,280,28809,1,4
256,192,29187,12,0,31073
224,40,31828,5,2
224,40,32017,1,4
296,96,32394,1,2
296,96,32583,1,8
256,176,32960,5,0
256,264,33338,2,0,B|176:328|88:264|88:264,1,150,0|0
16,184,34470,1,8
40,96,34847,6,0,B|96:40|96:40,1,50,2|4
104,144,35413,2,0,B|168:88|168:88,1,50,2|8
160,200,35979,5,0
104,272,36356,2,0,B|176:344|240:288|312:240|392:320,1,300,0|0
472,344,37866,5,2
472,344,38055,1,4
512,264,38432,1,2
512,264,38621,1,8
456,192,38998,5,0
376,232,39375,2,0,B|304:288|208:216|208:216,1,150,0|0
120,160,40507,1,8
192,104,40885,2,0,B|192:16|328:16|328:104|328:104,2,200,4|0|4
464,272,43904,5,0
400,336,44281,5,0
312,336,44658,1,0
354,256,45036,1,2
158,256,45790,5,0
200,336,46168,1,8
112,336,46545,1,4
256,192,46923,12,0,48998
256,352,49941,5,0
168,352,50319,5,0
112,280,50696,1,8
168,208,51073,1,2
344,208,51828,5,0
400,136,52206,1,4
344,64,52583,1,4
256,56,52960,6,0,B|96:56|96:56,2,150
320,120,54470,1,4
192,168,55036,1,4
256,288,55602,1,10
344,344,55979,6,0,B|432:328|464:280|464:280,2,99.9999999999999,4|0|8
256,360,57111,1,0
168,360,57489,2,0,B|64:320|48:224|48:224,1,150
120,136,58621,1,2
104,48,58998,6,0,B|16:64|-16:112|-16:112,2,99.9999999999999,4|0|8
192,32,60130,1,0
280,40,60507,2,2,B|384:48|432:128|432:128,1,150
432,240,61640,1,2
352,312,62017,6,4,B|256:352|152:312|152:312,1,200,4|8
200,232,63149,1,0
256,160,63526,2,0,B|312:104|192:80|264:8|264:8,2,150,0|0|0
256,248,65036,1,4
256,192,65413,12,0,67300
288,344,68055,5,2
288,344,68243,1,4
216,296,68621,1,2
216,296,68809,1,8
256,216,69187,5,0
328,160,69564,2,0,B|400:96|480:168|480:168,1,150,0|0
504,288,70696,1,8
440,352,71073,6,0,B|384:288|384:288,1,50,2|4
320,328,71639,2,0,B|272:264|272:264,1,50,2|8
256,208,72206,5,0
320,144,72583,2,0,B|256:80|184:136|120:184|24:112,1,300,0|0
80,40,74092,5,2
80,40,74281,1,4
168,56,74658,1,2
168,56,74847,1,8
112,128,75224,5,0
56,200,75602,2,0,B|224:200|224:200,1,150,0|0
344,200,76734,1,8
320,288,77111,2,0,B|320:376|184:376|184:288|184:288,2,200,4|0|4
256,224,78998,6,2,B|256:88|256:88,2,99.9999999999999,2|10|4
256,312,80130,5,2
216,336,80319,1,4
128,320,80696,1,2
96,288,80885,1,8
40,216,81262,5,0
112,168,81639,2,0,B|200:208|248:128|248:128,1,150,0|0
344,40,82772,1,8
432,64,83149,6,0,B|496:128,1,50,2|4
384,136,83715,2,0,B|448:192|448:192,1,50,2|8
456,256,84281,5,0
408,328,84658,2,0,B|328:360|264:288|224:248|112:280,1,300,0|0
48,328,86168,5,2
16,296,86356,1,4
16,208,86734,1,2
40,168,86923,1,8
112,120,87300,5,0
183,174,87677,2,0,B|256:222|343:166|343:166,2,150,0|0|8
170,84,89187,2,0,B|218:20|314:20|354:92|354:92,2,200,4|0|4
368,48,103526,6,0,B|496:48|496:48,2,99.9999999999999,0|8|4
208,128,105036,5,0
128,88,105413,2,0,B|64:80|16:144,2,99.9999999999999,2|0|8
200,152,106545,5,2
264,216,106923,1,0
352,200,107300,2,0,B|384:288|496:304|496:304,2,150,0|0|2
312,120,108809,1,4
136,184,109564,5,8
96,264,109941,1,0
112,352,110319,2,0,B|8:352|8:352,2,99.9999999999999,0|2|8
200,352,111451,2,0,B|256:320|320:360|320:360,2,99.9999999999999,0|4|8
144,288,112583,5,2
104,208,112960,1,0
144,128,113338,5,4
368,128,114092,1,0
144,128,114847,1,4
368,128,115602,1,4
256,136,115979,6,8,B|256:256|256:256,2,99.9999999999999,2|0|8
336,88,117111,5,0
416,56,117489,2,0,B|456:24|480:88|512:56|512:56,2,99.9999999999999,2|0|8
392,144,118621,5,0
352,224,118998,1,0
264,200,119375,2,0,B|208:176|144:256|184:304|184:304,2,150,0|0|2
336,256,120885,1,4
184,352,121639,5,8
112,296,122017,1,0
48,232,122394,2,0,B|0:280|48:344|48:344,2,99.9999999999999,0|2|8
120,184,123526,2,0,B|152:128|104:72|104:72,2,99.9999999999999,0|4|8
96,272,124658,5,2
176,320,125036,1,0
256,360,125413,5,0
424,288,126168,1,0
350,144,126923,2,0,B|294:80|214:216|158:136|158:136,1,200,0|0
256,192,131828,12,0,134470
256,144,135602,5,4
301,66,135979,5,2
301,66,136168,1,4
213,66,136545,1,2
213,66,136734,1,8
128,96,137111,5,0
64,160,137489,2,0,B|56:232|120:256|176:240|176:240,1,150,4|0
256,144,138621,1,8
328,88,138998,6,0,B|376:136|376:136,1,50,2|4
448,96,139564,2,0,B|496:144|496:144,1,50,2|8
504,216,140130,5,0
480,304,140507,2,0,B|424:376|256:376|200:312|200:312,1,300,4|0
128,256,142017,5,2
128,256,142206,1,4
184,192,142583,1,2
184,192,142772,1,8
136,120,143149,5,0
184,40,143526,2,0,B|256:8|349:45|349:45,1,150,4|0
399,159,144658,1,8
328,216,145036,2,0,B|256:184|163:221|163:221,2,150,4|8|4
184,320,146923,5,2
256,352,147300,1,8
328,320,147677,1,4
256,272,148055,5,2
256,272,148243,1,4
256,184,148621,1,2
256,184,148809,1,8
304,104,149187,5,0
368,40,149564,2,0,B|464:64|496:160|496:160,1,150,4|0
440,256,150696,1,8
360,296,151073,6,0,B|304:240|304:240,1,50,2|4
240,296,151639,2,0,B|184:240|184:240,1,50,2|8
176,176,152206,5,0
120,104,152583,2,0,B|24:128|-8:224|-8:224,1,150,4|0
64,312,153715,1,0
152,336,154092,5,2
152,336,154281,1,4
216,272,154658,1,2
216,272,154847,1,8
176,192,155224,5,0
164,102,155602,2,0,B|252:30|356:102|356:102,2,200,4|0|4
256,192,157489,12,0,160130
