osu file format v8

[General]
AudioFilename: Stereos - Summer Girl.mp3
AudioLeadIn: 0
PreviewTime: 31839
Countdown: 1
SampleSet: Normal
StackLeniency: 0.7
Mode: 0
LetterboxInBreaks: 1

[Editor]
DistanceSpacing: 1.05
BeatDivisor: 2
GridSize: 8

[Metadata]
Title:Summer Girl
Artist:Stereos
Creator:0_o
Version:Hard
Source:
Tags:

[Difficulty]
HPDrainRate:7
CircleSize:5
OverallDifficulty:7
ApproachRate:7
SliderMultiplier:1.5
SliderTickRate:2

[Events]
//Background and Video events
0,0,"Party-by-pincel3d_7082_1024_768.jpg"
//Break Periods
2,42217,43004
2,92406,102626
2,128632,130928
//Storyboard Layer 0 (Background)
//Storyboard Layer 1 (Fail)
//Storyboard Layer 2 (Pass)
//Storyboard Layer 3 (Foreground)
//Storyboard Sound Samples
//Background Colour Transformations
3,100,163,162,255

[TimingPoints]
1640,377.358490566038,4,1,0,100,1,0
7762,-100,4,2,0,100,0,0
9177,-100,4,1,0,100,0,0
9365,-100,4,2,0,100,0,0
10694,-100,4,1,0,100,0,0
10883,-100,4,2,0,100,0,0
12204,-100,4,1,0,100,0,0
13902,-100,4,2,0,100,0,0
15222,-100,4,1,0,100,0,0
15411,-100,4,2,0,100,0,0
16732,-100,4,1,0,100,0,0
16921,-100,4,2,0,100,0,0
18241,-100,4,1,0,100,0,0
20694,-100,4,2,0,100,0,0
21260,-100,4,1,0,100,0,0
22581,-100,4,2,0,100,0,0
22770,-100,4,1,0,100,0,0
23713,-100,4,2,0,100,0,0
24279,-100,4,1,0,100,0,0
26732,-100,4,2,0,100,0,0
27298,-100,4,1,0,100,0,0
28422,-100,4,2,0,100,0,0
28799,-100,4,1,0,100,0,0
31071,-100,4,2,0,0,0,0
31826,-100,4,1,0,100,0,0
44090,-100,4,2,0,100,0,0
45411,-100,4,1,0,100,0,0
45600,-100,4,2,0,100,0,0
46921,-100,4,1,0,100,0,0
47109,-100,4,2,0,73,0,0
48422,-133.333333333333,4,2,0,73,0,0
48902,-133.333333333333,4,2,0,76,0,0
49468,-133.333333333333,4,2,0,98,0,0
49939,-100,4,1,0,100,0,0
50128,-100,4,2,0,100,0,0
51449,-100,4,1,0,100,0,0
51543,-100,4,2,0,100,0,0
52958,-100,4,1,0,100,0,0
53053,-100,4,2,0,100,0,0
53619,-100,4,1,0,100,0,0
53807,-100,4,2,0,100,0,0
54373,-100,4,1,0,100,0,0
55517,-100,4,1,0,100,0,0
56921,-100,4,2,0,100,0,0
57487,-100,4,1,0,100,0,0
59931,-100,4,2,0,100,0,0
60497,-100,4,1,0,100,0,0
62950,-100,4,2,0,100,0,0
63516,-100,4,1,0,100,0,0
64648,-100,4,2,0,100,0,0
65026,-100,4,1,0,100,0,0
65403,-100,4,2,0,100,0,0
67856,-100,4,1,0,100,0,0
92196,-100,4,2,0,100,0,0
104271,-100,4,1,0,100,0,0
104460,-100,4,2,0,100,0,0
105214,-100,4,1,0,100,0,0
105403,-100,4,2,0,100,0,0
105602,-100,4,1,0,100,0,0
105969,-100,4,2,0,100,0,0
106724,-100,4,1,0,100,0,0
106913,-100,4,2,0,100,0,0
107101,-100,4,1,0,100,0,0
107856,-100,4,2,0,100,0,0
108233,-100,4,1,0,100,0,0
108422,-100,4,2,0,100,0,0
108611,-100,4,1,0,100,0,0
108799,-100,4,1,0,100,0,0
109554,-100,4,1,0,100,0,0
110120,-100,4,2,0,100,0,0
111441,-100,4,1,0,100,0,0
112196,-100,4,2,0,100,0,0
112762,-100,4,1,0,100,0,0
112950,-100,4,2,0,100,0,0
113139,-100,4,1,0,100,0,0
113705,-100,4,2,0,100,0,0
114837,-151.515151515152,4,2,0,100,0,0
115969,-100,4,2,0,100,0,0
116346,-100,4,1,0,100,0,0
116724,-100,4,2,0,100,0,0
117290,-100,4,1,0,100,0,0
117479,-100,4,2,0,100,0,0
117667,-100,4,1,0,100,0,0
118045,-100,4,2,0,100,0,0
118611,-100,4,2,0,100,0,0
118799,-100,4,1,0,100,0,0
118988,-100,4,2,0,100,0,0
119177,-100,4,1,0,100,0,0
119365,-100,4,1,0,100,0,0
119931,-100,4,2,0,100,0,0
120309,-100,4,1,0,100,0,0
120497,-100,4,2,0,100,0,0
120875,-100,4,1,0,100,0,0
121063,-100,4,2,0,100,0,0
121630,-133.333333333333,4,2,0,100,0,0
122384,-100,4,2,0,100,0,0
123516,-100,4,1,0,100,0,0
124271,-100,4,2,0,100,0,0
125214,-100,4,1,0,100,0,0
125780,-100,4,2,0,100,0,0
126913,-200,4,2,0,100,0,0
134460,-100,4,2,0,0,0,0
135592,-100,4,2,0,100,0,0
135979,-100,4,1,0,100,0,1
147960,-100,4,1,0,100,0,0
148055,-100,4,1,0,100,0,1
160120,-100,4,2,0,100,0,0

[Colours]
Combo1 : 49,49,206
Combo2 : 255,255,0
Combo3 : 255,128,0
Combo4 : 255,0,255

[HitObjects]
256,304,7677,1,4
176,231,7866,5,0
117,190,8055,1,0
46,190,8243,1,0
19,123,8432,2,0,B|-9:72|23:30|23:30,1,75,8|0
82,68,8809,2,0,B|98:132|193:144|221:94|221:94,1,150,2|0
281,42,9375,5,0
352,42,9564,1,0
394,99,9753,2,0,B|443:63|429:14|429:14,2,75,0|8|0
336,141,10319,2,0,B|282:157|257:214|285:282|285:282,1,150,2|0
374,313,10885,5,0
325,365,11073,1,2
253,365,11262,1,0
215,304,11451,2,0,B|198:248|146:232|146:232,2,75,8|0|0
185,368,12017,1,0
88,357,12206,5,4
27,296,12394,1,0
29,209,12583,1,0
107,164,12772,2,0,B|198:130|206:46,1,150,4|0
284,27,13338,2,0,B|283:128|407:154|407:154,1,150,0|4
452,65,13904,5,0
489,125,14092,1,2
472,194,14281,1,0
401,180,14470,1,8
334,205,14658,1,0
329,276,14847,2,0,B|245:346|176:275|176:275,1,150,2|0
199,177,15413,5,0
150,124,15602,1,2
80,110,15790,2,0,B|25:109|25:39|25:39,2,75,0|8|0
91,39,16356,2,0,B|272:39|272:39,1,150,4|0
338,43,16923,5,0
395,83,17111,1,2
417,150,17300,1,0
360,200,17489,2,0,B|258:200|258:200,1,75,8|0
152,248,17866,2,0,B|254:248|254:248,1,75,0|0
360,304,18243,5,4
256,376,18432,1,0
152,304,18621,1,0
184,192,18809,2,0,B|256:240|328:192|328:192,1,150,4|0
256,72,19375,5,2
72,32,19753,2,0,B|-9:48|-32:132|-32:132,2,150,4|0|8
168,80,20696,5,0
164,151,20885,1,2
218,203,21073,1,0
283,175,21262,2,0,B|378:197|367:299|367:299,1,150
301,312,21828,2,0,B|331:379|402:371|440:329,1,150
502,277,22394,5,2
512,136,22772,2,0,B|487:60|396:35,2,150,4|0|8
471,237,23715,5,0
401,253,23904,1,2
349,204,24092,1,0
336,133,24281,2,0,B|296:42|194:76|194:76,1,150
172,130,24847,2,0,B|166:188|110:232|56:224|56:224,1,150
19,137,25413,5,2
184,38,25790,2,0,B|256:9|332:39|332:39,2,150,4|0|8
83,119,26734,5,0
79,190,26923,1,2
122,245,27111,1,0
185,213,27300,2,0,B|256:150|322:216|322:216,1,150
328,285,27866,2,0,B|256:329|168:284|168:284,1,150,0|0
200,208,28432,5,0
320,168,28621,1,0
256,80,28809,1,4
256,192,28998,12,0,31073
152,58,31828,5,2
152,58,32017,1,4
369,193,32394,1,2
369,193,32583,1,8
255,356,32960,5,0
91,337,33338,2,0,B|-13:326|-2:207|-2:207,1,150,4|0
72,208,33904,2,0,B|164:193|184:96,1,150,0|0
201,39,34470,1,8
276,17,34658,1,0
360,56,34847,5,2
360,56,35036,1,4
143,193,35413,1,2
143,193,35602,1,8
360,192,35979,5,0
467,310,36356,2,0,B|423:387|332:377|332:377,1,150,0|0
262,368,36923,2,2,B|243:283|139:279|139:279,1,150,2|0
85,322,37489,1,8
9,302,37677,1,0
11,179,37866,5,2
11,179,38055,1,4
217,92,38432,1,2
217,92,38621,1,8
344,262,38998,5,0
419,239,39187,1,0
475,184,39375,2,4,B|514:79|448:36|448:36,1,150,4|0
395,93,39941,2,2,B|348:172|249:142|249:142,1,150
144,109,40507,5,8
70,136,40696,1,0
57,212,40885,2,4,B|55:211|118:283|200:244,1,150,4|0
243,186,41451,2,0,B|345:233|285:345|285:345,1,150,8|0
254,376,42017,1,4
141,342,43904,5,0
245,280,44092,5,0
310,252,44281,1,2
378,273,44470,1,0
421,329,44658,2,0,B|463:307|471:257|471:257,1,75,8|0
446,203,45036,2,0,B|368:155|384:57,1,150,2|0
264,53,45602,5,0
202,88,45790,2,0,B|159:112|156:185|156:185,1,75,2|0
190,214,46168,1,8
260,215,46356,1,0
232,280,46545,2,0,B|168:365|59:322|59:322,1,150,4|0
52,241,47111,6,0,B|16:209|16:209,2,37.5,0|0|2
120,263,47489,1,0
183,241,47677,1,8
200,171,47866,1,0
134,132,48055,1,0
110,65,48243,1,0
192,24,48432,6,0,B|232:72|288:24|288:24,1,56.2499983236194,0|0
312,24,48809,1,0
376,56,48998,2,0,B|429:120|365:192|365:192,1,112.499996647239,0|0
320,136,49564,2,0,B|273:207|337:271|337:271,1,112.499996647239,0|0
408,272,50130,5,0
394,346,50319,1,2
327,369,50507,1,0
283,312,50696,1,8
214,290,50885,1,0
145,309,51073,2,0,B|60:288|33:199|33:199,1,150,0|0
83,76,51640,5,0
151,57,51828,1,2
219,77,52017,1,0
260,135,52206,2,4,B|333:117|420:135|420:135,2,150,4|4|0
153,131,53149,5,2
153,131,53244,1,0
153,131,53339,1,8
96,185,53526,1,0
94,263,53715,1,0
139,327,53904,1,0
208,364,54092,1,0
283,341,54281,1,0
352,256,54470,5,4
256,208,54658,1,0
160,256,54847,1,0
184,128,55036,2,0,B|224:80|288:168|328:120|328:120,1,150,4|0
256,32,55602,5,10
96,128,55979,1,4
256,192,56356,1,0
168,336,56734,1,8
22,312,56923,5,0
31,234,57111,1,2
92,185,57300,1,0
170,195,57489,2,0,B|228:205|300:139|264:52|264:52|261:52,1,150
348,131,58055,2,0,B|368:188|442:207|494:167,1,150,0|0
509,97,58621,5,2
336,40,58998,1,4
272,208,59375,1,0
448,272,59753,1,8
355,334,59941,5,0
287,293,60130,1,2
208,300,60319,1,0
145,347,60507,2,0,B|49:329|52:224|52:224,1,150
122,205,61073,2,0,B|226:166|200:71|200:71,1,150
128,40,61640,5,2
270,140,62017,1,4
172,277,62394,1,0
348,345,62772,1,8
477,274,62960,5,0
505,197,63149,1,2
465,128,63338,1,0
393,159,63526,2,0,B|384:243|298:268|298:268,1,150
241,319,64092,2,0,B|244:320|153:306|134:216,1,150,0|0
86,153,64658,5,0
111,86,64847,1,0
184,63,65036,2,0,B|205:116|253:117|253:117,1,75,4|0
309,84,65413,1,8
351,150,65602,1,0
429,139,65790,2,0,B|467:183|430:224|430:224,1,75,2|0
394,273,66168,1,0
318,249,66356,2,0,B|233:280|156:231|156:231,1,150,4|0
200,165,66923,2,4,B|127:136|36:164|36:164,2,150
360,326,68055,5,2
360,326,68243,1,4
143,191,68621,1,2
143,191,68809,1,8
257,28,69187,5,0
444,87,69564,2,0,B|433:191|314:180|314:180,1,150,4|0
265,164,70130,2,0,B|173:179|153:276,1,150,0|0
163,335,70696,1,8
94,372,70885,1,0
8,285,71073,5,2
8,285,71262,1,4
124,86,71639,1,2
124,86,71828,1,8
291,212,72206,5,0
392,351,72583,2,0,B|487:311|459:216|459:216,1,150,0|0
402,178,73149,2,2,B|300:170|297:55|297:55,1,150,2|0
234,40,73715,1,8
155,38,73904,1,0
65,70,74092,5,2
65,70,74281,1,4
257,192,74658,1,2
257,192,74847,1,8
426,117,75224,5,0
486,168,75413,1,0
470,244,75602,2,4,B|417:342|317:290|317:290,1,150,4|0
386,233,76168,2,2,B|406:145|326:101|326:101,1,150
237,38,76734,5,8
226,116,76923,1,0
148,130,77111,2,4,B|152:127|72:171|92:259,1,150,4|0
135,324,77677,2,0,B|215:370|320:311|320:311,1,150,8|0
348,289,78243,1,4
255,158,78621,1,0
160,120,78809,5,2
72,168,78998,1,10
72,64,79187,1,0
184,40,79375,2,0,B|258:19|338:41|338:41,2,150,4|4|2
111,71,80319,5,4
280,184,80696,1,2
350,148,80885,1,8
467,302,81262,5,0
388,296,81451,1,0
330,349,81639,2,0,B|237:372|197:294|197:294,1,150,4|0
122,285,82206,2,0,B|93:211|157:147|157:147,1,150,0|0
230,174,82772,1,8
302,143,82960,1,0
342,61,83149,5,2
415,89,83338,1,4
370,245,83715,1,2
298,212,83904,1,8
143,340,84281,5,0
74,301,84470,1,0
48,226,84658,2,0,B|47:129|127:89|127:89,1,150,0|0
192,100,85224,2,2,B|207:161|276:174|330:138,1,150,2|0
370,95,85790,1,8
445,116,85979,1,0
491,195,86168,5,2
441,255,86356,1,4
293,352,86734,1,2
230,303,86923,1,8
130,79,87300,5,0
55,106,87489,1,0
35,181,87677,2,0,B|41:242|113:261|154:232|154:232,1,150,4|0
176,144,88243,2,2,B|236:140|279:212|246:261,1,150
331,362,88809,5,8
409,356,88998,1,0
459,295,89187,2,0,B|399:299|356:227|389:178,1,150,4|0
434,134,89753,2,0,B|428:195|356:214|315:185|315:185,1,150,8|0
255,136,90319,1,4
256,192,90696,12,4,92206
168,48,103526,6,0,B|256:48|256:48,1,75
344,104,103904,2,0,B|248:104|248:104,1,75,8|0
256,216,104281,5,4
424,360,104658,1,8
498,272,104847,5,0
434,224,105036,2,0,B|413:173|447:120|447:120,1,75,2|0
499,107,105413,1,0
444,49,105602,1,0
368,70,105790,1,4
329,139,105979,2,0,B|347:186|309:228|309:228,2,75,0|8|0
248,88,106545,5,2
180,127,106734,1,0
149,200,106923,1,8
180,273,107111,1,0
312,328,107300,6,0,B|330:246|261:188,1,150,4|0
203,136,107866,2,0,B|171:216|62:189,1,150,2|0
14,147,108432,1,8
48,76,108621,1,0
124,60,108809,1,4
257,172,109187,1,0
152,328,109564,6,0,B|208:272|257:334|302:398|363:333|363:333,1,225,4|0
392,240,110319,6,0,B|472:240|472:240,1,75,2|0
328,168,110696,2,0,B|432:168|432:168,1,75,2|0
264,96,111073,2,0,B|344:96|344:96,1,75,8|0
200,24,111451,2,0,B|40:24|40:24,2,150,0|4|8
312,32,112394,5,0
389,46,112583,1,0
439,106,112772,1,0
372,148,112960,1,0
436,193,113149,1,0
405,258,113338,6,0,B|383:348|304:362|304:362,1,150,4|0
205,361,113904,2,0,B|208:362|129:348|107:258,1,150,0|0
106,257,114470,1,0
256,287,114847,2,0,B|295:221|205:166|261:84|261:84,1,198.000001888275,4|4
384,61,115979,6,0,B|413:152|516:121|516:121,2,150,0|0|8
384,61,116923,1,0
255,39,117111,5,2
180,65,117300,1,0
147,136,117489,1,0
176,208,117677,1,0
131,273,117866,2,0,B|102:315|45:295|45:295,2,75,4|0|8
131,273,118432,1,0
240,223,118621,5,2
304,168,118809,1,0
384,184,118998,1,8
440,120,119187,1,0
472,32,119375,6,0,B|370:21|354:107|354:107,1,150,4|0
272,184,119941,2,0,B|280:80|168:48|168:48,1,150,2|0
88,40,120507,2,0,B|56:88|96:144|96:144,2,75,8|0|4
192,192,121262,5,8
256,224,121451,1,0
328,192,121639,2,0,B|384:272|328:352|328:352,1,168.749994970858,4|0
224,352,122394,6,0,B|144:352,1,75,2|0
288,296,122772,2,0,B|376:296|376:296,1,75,2|0
224,248,123149,2,0,B|144:248|144:248,1,75,8|0
256,168,123526,2,0,B|312:128|192:72|256:32|256:32,2,150,0|4|0
144,96,124470,5,0
144,96,124658,1,8
368,200,125036,1,0
256,352,125413,5,0
176,272,126168,1,0
108,191,126923,2,0,B|169:157|256:192|348:223|404:191|404:191,1,300,2|0
256,192,131828,12,0,134470
256,48,135602,5,4
88,56,135979,5,2
88,56,136168,1,4
256,160,136545,1,2
256,160,136734,1,8
424,56,137111,5,0
495,201,137489,2,0,B|408:173|375:264|375:264,1,150,4|0
405,336,138055,2,0,B|371:393|308:400|262:362|262:362,1,150,0|0
213,320,138621,1,8
199,242,138809,1,0
315,206,138998,5,2
364,144,139187,1,4
185,126,139564,1,2
136,64,139753,1,8
32,280,140130,5,0
190,348,140507,2,0,B|280:328|288:228|288:228,1,150,4|0
361,267,141073,2,2,B|388:180|306:130|308:131,1,150,2|0
238,160,141639,1,8
169,122,141828,1,0
256,48,142017,5,6
256,48,142206,1,4
104,192,142583,1,2
104,192,142772,1,8
290,345,143149,5,0
365,369,143338,1,0
431,322,143526,2,0,B|472:273|472:219|424:182,1,150,4|0
365,232,144092,2,2,B|297:261|242:204|257:141,1,150
256,29,144658,5,8
205,89,144847,1,0
125,97,145036,2,0,B|126:187|226:219,1,150,4|0
301,212,145602,2,0,B|382:187|383:97,1,150,8|0
304,89,146168,1,4
191,232,146545,1,0
259,285,146734,5,2
185,338,146923,2,0,B|257:386|329:340|329:340,2,150,2|8|4
26,218,148055,5,2
87,169,148243,1,4
251,196,148621,1,2
312,147,148809,1,8
459,53,149187,5,0
501,119,149375,1,0
488,192,149564,2,0,B|477:296|364:308|364:308,1,150,4|0
345,359,150130,2,0,B|253:344|233:247,1,150,0|0
288,205,150696,1,8
267,129,150885,1,0
172,55,151073,5,2
93,55,151262,1,4
39,221,151639,1,2
117,222,151828,1,8
281,358,152206,5,0
349,319,152394,1,0
346,240,152583,2,0,B|331:152|258:130|258:130,1,150,4|0
199,185,153149,2,2,B|114:166|102:62|102:62,1,150,2|0
166,28,153715,1,8
248,29,153904,1,0
349,73,154092,5,2
349,73,154281,1,4
161,193,154658,1,2
161,193,154847,1,8
399,197,155224,5,0
412,274,155413,1,0
366,338,155602,2,4,B|254:373|131:335|131:335,2,225,4|4|8
256,192,157111,1,4
256,192,157300,12,0,160130
