osu file format v8

[General]
AudioFilename: Stereos - Summer Girl.mp3
AudioLeadIn: 0
PreviewTime: 31839
Countdown: 1
SampleSet: Normal
StackLeniency: 0.7
Mode: 0
LetterboxInBreaks: 1

[Editor]
Bookmarks: 31839,43915,68066
DistanceSpacing: 0.7
BeatDivisor: 2
GridSize: 8

[Metadata]
Title:Summer Girl
Artist:Stereos
Creator:0_o
Version:Easy
Source:
Tags:

[Difficulty]
HPDrainRate:2
CircleSize:3
OverallDifficulty:2
ApproachRate:1
SliderMultiplier:0.799999999999999
SliderTickRate:1

[Events]
//Background and Video events
0,0,"Party-by-pincel3d_7082_1024_768.jpg"
//Break Periods
2,29009,30148
2,65236,66375
2,92206,101846
2,128632,130148
//Storyboard Layer 0 (Background)
//Storyboard Layer 1 (Fail)
//Storyboard Layer 2 (Pass)
//Storyboard Layer 3 (Foreground)
//Storyboard Sound Samples
//Background Colour Transformations
3,100,163,162,255

[TimingPoints]
1640,377.358490566038,4,1,0,100,1,0
103526,-100,4,2,0,100,0,0
104281,-100,4,1,0,100,0,0
105036,-100,4,2,0,100,0,0
105790,-100,4,1,0,100,0,0
108432,-100,4,2,0,100,0,0
108809,-100,4,1,0,100,0,0
110319,-100,4,2,0,100,0,0
111828,-100,4,1,0,100,0,0
117111,-100,4,2,0,100,0,0
117866,-100,4,1,0,100,0,0
120507,-100,4,2,0,100,0,0
120885,-100,4,1,0,100,0,0
122394,-100,4,2,0,100,0,0
123904,-100,4,1,0,100,0,0
126168,-100,4,2,0,100,0,0
128432,-100,4,2,0,100,0,0
134470,-100,4,2,0,0,0,0
135979,-100,4,1,0,100,0,1
148054,-100,4,1,0,100,0,0
148055,-100,4,1,0,100,0,1
160130,-100,4,2,0,100,0,0

[Colours]
Combo1 : 49,49,206
Combo2 : 255,255,0
Combo3 : 255,128,0
Combo4 : 255,0,255

[HitObjects]
72,328,7677,1,0
256,224,9187,1,0
440,328,10696,1,0
408,112,12206,6,0,B|304:40|192:216|96:112,1,320,4|4
376,192,15224,5,0
120,256,16734,1,0
320,352,18243,6,0,B|256:384|191:348,1,120
256,208,19753,1,4
256,96,20507,5,8
160,40,21262,2,4,B|80:40|0:112|0:216|56:280,1,320,0|4
155,232,23526,5,8
182,123,24281,2,2,B|258:72|354:134,2,160,0|2|4
254,208,26545,1,8
352,272,27300,5,0
256,328,28055,1,0
160,272,28809,1,4
44,68,31828,5,2
134,133,32583,1,8
239,95,33338,2,0,B|333:30|468:71|504:185,1,320,4|2
453,281,35602,5,8
343,257,36356,2,0,B|211:207|169:420|35:328|35:328,1,320,0|2
13,227,38621,5,8
35,117,39375,2,0,B|99:74|113:204|197:137,1,160,4|0
249,63,40885,2,0,B|338:124|261:197|181:274|257:360,1,320,4|4
440,192,43904,5,0
256,64,45413,1,0
72,192,46923,1,0
256,192,47300,12,0,49941
344,328,51451,5,0
160,208,52960,1,0
320,56,54470,2,0,B|256:24|192:61|192:61,2,120,0|0|10
392,94,55979,5,4
475,168,56734,1,8
486,279,57489,2,0,B|462:374|340:402|293:346,1,240,0|2
253,280,58998,5,4
254,167,59753,1,8
183,80,60507,2,2,B|120:34|27:37,2,160,2|2|4
122,174,62772,1,8
136,284,63526,6,0,B|205:221|277:349|334:336|375:295,1,240
408,245,65036,1,4
468,316,68055,5,2
364,271,68810,1,8
273,336,69565,2,0,B|179:401|44:360|8:246,1,320,4|2
39,143,71829,5,8
116,62,72583,2,0,B|248:12|290:225|424:133|424:133,1,320,0|2
487,56,74848,5,8
508,165,75602,2,0,B|481:258|391:294,1,160,4|0
308,333,77111,2,0,B|193:284|257:204|320:124|200:62,1,320,0|4
95,65,79375,6,2,B|31:144|93:225|94:225,1,160,2|4
152,305,80885,5,8
251,356,81640,2,0,B|332:405|456:365|471:272,1,240,4|0
480,223,83149,5,2
425,125,83904,1,8
320,84,84658,2,0,B|254:47|188:91,2,120
359,156,86168,5,2
258,206,86923,1,8
158,155,87677,2,0,B|111:229|158:313,1,160,4|0
250,365,89187,2,4,B|297:291|250:207,2,160,4|0|4
407,52,103526,6,0,B|502:52,2,79.9999999999999,0|8|0
433,161,105036,6,0,B|392:271|273:221,1,160,2|0
221,163,106545,1,8
132,94,107300,2,0,B|68:91|24:145,2,120,0|0|2
118,174,108809,1,4
80,279,109564,1,4
169,346,110319,6,0,B|274:347,1,79.9999999999999,2|2
310,298,111073,2,0,B|415:299,1,79.9999999999999,8|0
455,249,111828,1,4
491,142,112583,5,0
405,69,113338,2,0,B|328:30|228:74,1,160,4|0
291,169,114847,2,0,B|214:208|114:164,1,160
94,68,116356,5,4
6,138,117111,2,0,B|-28:224|40:304,1,160,2|0
137,265,118621,1,8
196,170,119375,2,0,B|256:144|324:176,2,120,0|0|2
254,236,120885,1,4
254,348,121640,1,4
365,361,122394,6,0,B|426:344|439:293,1,79.9999999999999,2|2
474,247,123149,2,0,B|424:235|411:184,1,79.9999999999999,8|0
392,120,123904,1,4
296,64,124658,6,0,B|200:72|184:200,1,160,0|4
296,200,126168,1,0
379,270,126923,2,0,B|344:361|255:376|163:357|130:268,1,320,2|0
256,192,131828,12,0,134470
443,52,135979,5,2
370,137,136734,1,8
470,186,137489,2,0,B|500:269|461:354|357:383,1,240,4|0
305,336,138998,5,2
254,235,139753,1,8
284,127,140507,2,0,B|246:61|171:40|103:52|48:81,1,240,4|0
36,143,142017,5,2
116,220,142772,1,8
92,329,143526,2,0,B|167:381|247:337,1,160,4|0
256,227,145036,2,0,B|292:170|210:132|263:65,2,160,4|8|4
184,336,147300,6,2,B|256:292|335:337,1,160,2|4
448,360,148809,5,8
496,256,149564,2,0,B|504:136|368:64,1,240,4|0
288,56,151073,5,2
224,152,151828,1,8
139,66,152583,2,0,B|8:136|16:256,1,240,4|0
22,337,154092,5,2
139,293,154847,1,8
253,343,155602,2,4,B|340:261|256:194|170:146|253:51,1,320,4|4
256,192,157489,12,0,160130
