osu file format v14

[General]
AudioFilename: Tsukiakari.mp3
AudioLeadIn: 0
PreviewTime: 50057
Countdown: 0
SampleSet: Soft
StackLeniency: 0.7
Mode: 0
LetterboxInBreaks: 0
WidescreenStoryboard: 0

[Editor]
Bookmarks: 190,12328,21946,36603,43931,51259,65916,88510
DistanceSpacing: 0.8
BeatDivisor: 4
GridSize: 4
TimelineZoom: 1

[Metadata]
Title:Tsukiakari no Michishirube ~Opening Edition~
TitleUnicode:ツキアカリのミチシルベ~Opening Edition~
Artist:Stereopony
ArtistUnicode:ステレオポニー
Creator:Sonnyc
Version:Normal
Source:DARKER THAN BLACK 流星の双子
Tags:Ryuusei no Gemini Enon
BeatmapID:1197191
BeatmapSetID:565175

[Difficulty]
HPDrainRate:4
CircleSize:4
OverallDifficulty:4
ApproachRate:5
SliderMultiplier:1.2
SliderTickRate:2

[Events]
//Background and Video events
0,0,"bg.jpg",0,0
//Break Periods
//Storyboard Layer 0 (Background)
//Storyboard Layer 1 (Fail)
//Storyboard Layer 2 (Pass)
//Storyboard Layer 3 (Foreground)
//Storyboard Sound Samples

[TimingPoints]
-2328,458.015267175573,4,2,1,35,1,0
1336,-100,4,2,1,50,0,0
10267,-100,4,2,1,60,0,0
21946,458.015267175573,4,2,1,50,1,0
43930,-100,4,2,1,60,0,0
50342,-100,4,2,1,45,0,0
51258,-100,4,2,1,60,0,1
64770,-100,4,2,1,60,0,0
65915,-100,4,2,1,60,0,1
84236,-100,4,2,1,50,0,0
86068,-100,4,2,1,30,0,0
87900,-100,4,2,1,20,0,0
88358,-100,4,2,1,10,0,0

[Colours]
Combo1 : 220,189,160
Combo2 : 171,214,203
Combo3 : 205,186,228
Combo4 : 234,170,191

[HitObjects]
228,172,420,6,0,L|348:176,1,120,2|0,0:0|0:0,0:0:0:0:
416,108,1336,6,0,P|440:156|428:228,1,120,2|0,0:0|0:0,0:0:0:0:
384,304,2252,2,0,L|264:308,1,120,2|0,0:0|0:0,0:0:0:0:
232,344,2939,2,0,P|140:368|72:308,1,180,2|0,0:0|0:0,0:0:0:0:
28,236,4084,6,0,L|32:116,1,120,2|0,0:0|0:0,0:0:0:0:
120,152,5000,6,0,L|117:236,2,60,2|0|2,0:0|0:0|0:0,0:0:0:0:
196,92,5916,2,0,P|254:83|308:108,1,120,2|0,0:0|0:0,0:0:0:0:
340,144,6603,2,0,L|334:323,1,180,2|0,0:0|0:0,0:0:0:0:
244,292,7748,6,0,L|248:172,1,120,2|0,0:0|0:0,0:0:0:0:
292,88,8664,6,0,P|233:79|172:116,1,120,2|0,0:0|0:0,0:0:0:0:
120,180,9580,2,0,L|124:300,1,120,2|0,0:0|0:0,0:0:0:0:
100,340,10267,2,0,P|158:331|212:356,1,120,4|0,3:2|3:0,0:0:0:0:
300,320,11183,2,0,P|392:344|460:284,1,180,4|8,3:2|0:0,0:0:0:0:
436,200,12328,22,0,P|344:176|276:236,1,180,4|2,3:2|0:0,0:0:0:0:
264,268,13244,2,0,L|144:272,1,120,0|8,3:2|0:0,0:0:0:0:
76,204,14160,2,0,P|51:257|60:316,2,120,0|8|0,3:0|0:0|3:0,0:0:0:0:
132,128,15534,1,8,0:0:0:0:
63,60,15992,38,0,P|155:36|223:96,1,180,4|2,3:2|0:0,0:0:0:0:
235,128,16908,2,0,L|420:134,1,180,0|2,3:2|0:0,0:0:0:0:
452,164,17824,2,0,P|477:217|468:276,2,120,0|8|0,3:0|0:0|3:0,0:0:0:0:
384,232,19198,1,8,0:0:0:0:
316,300,19656,6,0,P|160:336|72:128,1,420,2|0,0:0|3:0,0:0:0:0:
176,28,21946,22,0,P|234:18|288:43,2,120,4|8|0,3:2|0:0|0:0,0:0:0:0:
136,56,23091,2,0,P|111:109|120:168,1,120,0|2,3:0|0:0,0:0:0:0:
144,208,23778,2,0,P|236:184|304:244,2,180,0|8|8,3:0|0:0|0:0,0:0:0:0:
213,277,25610,1,0,3:0:0:0:
148,346,26068,6,0,P|201:370|259:360,1,120,8|0,0:0|0:0,0:0:0:0:
300,332,26755,2,0,P|353:307|411:317,1,120,0|10,3:0|0:0,0:0:0:0:
452,344,27442,2,0,L|511:342,2,60,0|0|8,3:2|3:0|0:0,0:0:0:0:
480,252,28358,2,0,L|421:250,2,60,0|8|8,3:2|0:0|0:0,0:0:0:0:
452,160,29274,1,0,3:0:0:0:
500,76,29732,6,0,P|441:65|387:89,1,120,8|0,0:0|0:0,0:0:0:0:
348,116,30419,2,0,P|289:126|235:102,1,120,0|8,3:0|0:0,0:0:0:0:
196,76,31106,2,0,P|104:52|36:112,2,180,0|2|8,3:0|0:0|0:0,0:0:0:0:
128,144,32938,6,0,L|132:264,1,120,0|8,3:0|0:0,0:0:0:0:
66,331,33854,2,0,P|120:355|178:345,1,120,2|8,0:0|0:0,0:0:0:0:
207,304,34541,1,2,0:0:0:0:
236,264,34770,2,0,L|234:205,2,60,0|8|8,3:2|0:0|0:0,0:0:0:0:
312,324,35686,1,0,3:0:0:0:
312,324,35915,2,0,P|370:334|423:309,1,120,8|8,0:0|0:0,0:0:0:0:
456,272,36602,6,0,L|448:64,2,180,4|8|8,3:2|3:0|0:0,0:0:0:0:
364,248,38434,2,0,P|268:284|164:208,1,240,0|2,3:0|0:0,0:0:0:0:
252,168,39808,1,8,0:0:0:0:
172,120,40266,6,0,L|-36:128,2,180,4|0|8,3:2|3:0|0:0,0:0:0:0:
188,28,42098,2,0,P|256:81|252:167,1,180,0|8,3:0|0:0,0:0:0:0:
224,208,43014,2,0,L|165:206,2,60,8|8|8,0:2|0:0|0:0,0:0:0:0:
252,300,43930,6,0,P|193:290|139:314,2,120,4|8|2,0:0|0:0|0:0,0:0:0:0:
296,324,45075,2,0,L|355:322,1,60,0|8,3:2|0:0,0:0:0:0:
436,368,45762,2,0,P|445:298|422:256,1,120,4|8,0:0|0:0,0:0:0:0:
388,224,46449,1,2,0:0:0:0:
348,196,46678,2,0,L|289:198,2,60,0|0|8,3:2|3:0|0:0,0:0:0:0:
316,104,47595,22,0,L|405:100,2,90,0|2|2,3:2|0:0|0:0,0:0:0:0:
272,84,48510,2,0,L|213:86,1,60,8|8,0:2|0:0,0:0:0:0:
168,66,48968,2,0,L|109:68,1,60,8|8,0:2|0:0,0:0:0:0:
60,72,49426,5,8,0:0:0:0:
60,72,49655,1,8,0:0:0:0:
8,208,50342,22,0,P|79:158|162:184,1,180,2|2,0:0|0:0,0:0:0:0:
200,212,51258,6,0,P|264:220|312:195,2,120,4|8|0,3:2|0:0|3:0,0:0:0:0:
246,128,52633,1,8,0:0:0:0:
246,128,52862,2,0,P|328:104|400:168,1,180,2|8,0:0|0:0,0:0:0:0:
424,252,54007,6,0,L|422:311,1,60,0|2,3:2|0:0,0:0:0:0:
420,360,54465,1,8,0:0:0:0:
324,340,54923,6,0,P|266:348|212:323,3,120,4|8|0|8,3:2|0:0|3:0|0:0,0:0:0:0:
176,292,56526,2,0,P|104:342|22:312,1,180,2|8,0:0|0:0,0:0:0:0:
92,248,57671,6,0,L|90:189,1,60,0|2,3:0|0:0,0:0:0:0:
88,140,58129,1,8,0:0:0:0:
20,72,58587,6,0,P|73:46|132:54,1,120,4|8,3:2|0:0,0:0:0:0:
212,108,59503,2,0,L|210:167,2,60,0|8|8,3:0|0:0|0:0,0:0:0:0:
248,80,60190,2,0,P|306:72|360:97,1,120,4|0,3:2|3:0,0:0:0:0:
384,140,60877,1,8,0:0:0:0:
384,140,61106,2,0,P|334:211|360:294,1,180,4|8,3:2|0:0,0:0:0:0:
444,340,62251,22,0,L|259:346,1,180,4|2,3:2|0:0,0:0:0:0:
224,372,63167,2,0,P|166:380|112:355,1,120,0|8,3:2|0:0,0:0:0:0:
44,288,64083,2,0,L|48:152,1,120,0|8,3:2|0:0,0:0:0:0:
32,124,64770,5,2,0:0:0:0:
32,124,64999,2,0,P|85:150|144:142,1,120,0|8,3:2|0:0,0:0:0:0:
184,116,65686,1,2,0:0:0:0:
224,89,65915,6,0,P|282:81|336:108,2,120,4|8|0,3:2|0:0|3:0,0:0:0:0:
270,173,67289,1,8,0:0:0:0:
270,173,67518,2,0,P|340:201|424:137,1,180,2|8,0:0|0:0,0:0:0:0:
480,224,68663,6,0,L|478:283,1,60,0|2,3:2|0:0,0:0:0:0:
476,332,69121,1,8,0:0:0:0:
388,296,69579,6,0,P|330:288|276:315,3,120,0|8|0|8,3:2|0:0|3:0|0:0,0:0:0:0:
244,348,71182,2,0,P|174:376|90:312,1,180,2|8,0:0|0:0,0:0:0:0:
56,232,72327,6,0,L|58:173,1,60,8|2,0:2|0:0,0:0:0:0:
60,124,72785,1,12,0:0:0:0:
148,160,73243,6,0,P|206:152|260:179,1,120,0|8,3:2|0:0,0:0:0:0:
348,144,74159,2,0,L|346:85,2,60,0|8|8,3:2|0:0|0:0,0:0:0:0:
384,176,74846,2,0,P|409:229|401:288,1,120,4|0,3:2|3:0,0:0:0:0:
376,328,75533,1,8,0:0:0:0:
376,328,75762,2,0,P|306:356|222:292,1,180,4|8,3:2|0:0,0:0:0:0:
188,212,76907,22,0,L|194:27,1,180,4|2,3:2|0:0,0:0:0:0:
236,52,77823,2,0,P|294:59|347:33,1,120,0|8,3:2|0:0,0:0:0:0:
412,100,78739,2,0,P|470:93|523:119,2,120,0|8|0,3:2|0:0|3:0,0:0:0:0:
328,144,80113,1,8,0:0:0:0:
288,59,80571,38,0,P|236:126|262:210,1,180,4|2,3:2|0:0,0:0:0:0:
296,244,81487,2,0,L|432:240,1,120,0|8,3:2|0:0,0:0:0:0:
448,276,82175,1,2,0:0:0:0:
448,276,82404,2,0,P|455:334|444:360,2,60,0|0|8,3:2|3:0|0:0,0:0:0:0:
380,205,83320,22,0,L|260:208,1,120,8|8,0:2|0:0,0:0:0:0:
256,192,84236,12,2,88510,0:0:0:0:
