osu file format v14

[General]
AudioFilename: Tsukiakari.mp3
AudioLeadIn: 0
PreviewTime: 50057
Countdown: 0
SampleSet: Soft
StackLeniency: 0.5
Mode: 0
LetterboxInBreaks: 0
WidescreenStoryboard: 0

[Editor]
Bookmarks: 190,12328,21946,36603,43931,51259,65916,88510
DistanceSpacing: 1.1
BeatDivisor: 4
GridSize: 4
TimelineZoom: 1

[Metadata]
Title:Tsukiakari no Michishirube ~Opening Edition~
TitleUnicode:ツキアカリのミチシルベ~Opening Edition~
Artist:Stereopony
ArtistUnicode:ステレオポニー
Creator:Sonnyc
Version:Hard
Source:DARKER THAN BLACK 流星の双子
Tags:Ryuusei no Gemini Enon
BeatmapID:1194584
BeatmapSetID:565175

[Difficulty]
HPDrainRate:5
CircleSize:4
OverallDifficulty:6
ApproachRate:7
SliderMultiplier:1.6
SliderTickRate:2

[Events]
//Background and Video events
0,0,"bg.jpg",0,0
//Break Periods
//Storyboard Layer 0 (Background)
//Storyboard Layer 1 (Fail)
//Storyboard Layer 2 (Pass)
//Storyboard Layer 3 (Foreground)
//Storyboard Sound Samples

[TimingPoints]
-2328,458.015267175573,4,2,1,35,1,0
1336,-100,4,2,1,50,0,0
10267,-100,4,2,1,60,0,0
21946,458.015267175573,4,2,1,50,1,0
43930,-100,4,2,1,60,0,0
50113,-100,4,2,1,45,0,0
51258,-100,4,2,1,60,0,1
64770,-100,4,2,1,60,0,0
65915,-100,4,2,1,60,0,1
84236,-100,4,2,1,50,0,0
86068,-100,4,2,1,30,0,0
87900,-100,4,2,1,20,0,0
88358,-100,4,2,1,10,0,0

[Colours]
Combo1 : 220,189,160
Combo2 : 171,214,203
Combo3 : 205,186,228
Combo4 : 234,170,191

[HitObjects]
240,376,191,5,0,0:0:0:0:
320,344,420,2,0,L|400:348,2,80,2|0|2,0:0|0:0|0:0,0:0:0:0:
252,288,1107,1,0,0:0:0:0:
332,256,1336,6,0,L|492:264,2,160,2|2|0,0:0|0:0|0:0,0:0:0:0:
252,288,2481,2,0,P|248:236|260:208,1,80,2|0,0:0|0:0,0:0:0:0:
332,256,2939,2,0,P|332:168|268:124,1,160,2|0,0:0|0:0,0:0:0:0:
192,112,3626,6,0,L|112:116,2,80,2|0|2,0:0|0:0|0:0,0:0:0:0:
248,44,4313,1,0,0:0:0:0:
160,28,4542,2,0,L|80:32,1,80,2|0,0:0|0:0,0:0:0:0:
112,115,5000,6,0,L|108:195,1,80,2|0,0:0|0:0,0:0:0:0:
192,112,5458,2,0,L|188:192,1,80,2|0,0:0|0:0,0:0:0:0:
272,109,5916,2,0,L|264:269,1,160,2|0,0:0|0:0,0:0:0:0:
176,280,6603,2,0,P|252:356|352:280,1,240,2|0,0:0|0:0,0:0:0:0:
360,208,7519,6,0,L|356:128,1,80,2|2,0:0|0:0,0:0:0:0:
377,44,7977,1,0,0:0:0:0:
440,104,8206,2,0,L|444:184,1,80,2|0,0:0|0:0,0:0:0:0:
424,268,8664,6,0,P|356:296|280:244,2,160,2|2|0,0:0|0:0|0:0,0:0:0:0:
360,208,9809,2,0,L|364:128,1,80,2|0,0:0|0:0,0:0:0:0:
404,52,10267,6,0,B|366:40|366:40|326:48,1,80,4|0,3:2|0:0,0:0:0:0:
240,52,10725,2,0,B|202:63|202:63|162:55,1,80,0|8,3:0|0:0,0:0:0:0:
128,136,11183,2,0,B|208:152|208:152|283:129,1,160,4|0,3:2|3:0,0:0:0:0:
368,156,11870,2,0,B|443:133,3,40,8|8|8|8,0:0|0:0|0:0|0:0,0:0:0:0:
368,156,12328,6,0,P|322:212|421:325,1,240,4|2,3:2|0:0,0:0:0:0:
409,235,13244,2,0,L|155:247,1,240,0|2,3:0|0:0,0:0:0:0:
91,283,14160,2,0,P|98:195|166:157,1,160,0|8,3:0|0:0,0:0:0:0:
288,152,14962,5,8,0:0:0:0:
288,152,15076,2,0,L|369:156,1,80,0|0,3:2|0:0,0:0:0:0:
452,188,15534,2,0,P|456:136|444:108,1,80,8|0,0:0|0:0,0:0:0:0:
392,40,15992,6,0,L|138:52,1,240,4|2,3:2|0:0,0:0:0:0:
76,8,16908,2,0,B|54:45|62:85|78:85|86:125|64:162,1,160,0|8,3:2|0:0,0:0:0:0:
12,232,17595,1,2,0:0:0:0:
12,232,17824,2,0,P|97:209|156:259,1,160,0|8,3:0|0:0,0:0:0:0:
256,172,18626,5,8,0:0:0:0:
256,172,18740,2,0,L|337:176,1,80,0|0,3:2|0:0,0:0:0:0:
424,180,19198,1,8,0:0:0:0:
392,352,19656,6,0,L|272:357,1,120,2|0,0:2|3:0,0:0:0:0:
232,344,20114,2,0,L|192:345,3,40,8|8|8|0,3:2|3:2|3:3|3:0,0:0:0:0:
151,332,20572,2,0,L|111:333,3,40,0|0|8|0,3:2|3:0|3:2|3:0,0:0:0:0:
70,320,21030,2,0,L|30:321,3,40,0|0|8|0,3:2|3:0|3:3|3:0,0:0:0:0:
136,160,21946,22,0,L|217:164,1,80,4|0,3:2|3:0,0:0:0:0:
280,228,22404,2,0,P|266:170|291:117,2,120,8|2|0,0:0|0:0|3:0,0:0:0:0:
324,304,23320,2,0,L|320:385,1,80,8|2,0:2|0:0,0:0:0:0:
408,376,23778,6,0,L|411:296,2,80,0|0|0,3:0|3:0|0:0,0:0:0:0:
495,368,24465,2,0,L|502:208,1,160,8|0,0:2|3:0,0:0:0:0:
460,132,25152,2,0,L|461:92,3,40,8|0|0|0,0:0|3:0|3:0|3:0,0:0:0:0:
460,132,25610,2,0,L|379:136,1,80,0|0,3:0|3:0,0:0:0:0:
300,168,26068,6,0,P|296:116|308:88,1,80,8|0,0:0|0:0,0:0:0:0:
328,56,26411,2,0,P|270:70|217:45,1,120,2|0,0:0|3:0,0:0:0:0:
136,76,26984,2,0,P|84:72|56:84,2,80,0|10|0,0:0|0:0|3:0,0:0:0:0:
104,160,27671,1,0,3:0:0:0:
174,216,27900,6,0,L|167:376,1,160,8|0,0:2|3:0,0:0:0:0:
254,356,28587,2,0,L|257:276,1,80,8|8,0:2|0:0,0:0:0:0:
342,308,29045,2,0,L|341:348,2,40,8|8|0,0:0|0:0|3:0,0:0:0:0:
346,220,29503,1,0,3:0:0:0:
395,144,29732,6,0,P|337:130|284:155,2,120,8|2|0,0:0|0:0|3:0,0:0:0:0:
471,193,30648,2,0,L|467:274,1,80,2|8,0:2|0:0,0:0:0:0:
384,308,31106,6,0,L|387:228,2,80,0|0|8,3:2|3:0|0:0,0:0:0:0:
460,356,31793,2,0,L|298:364,1,160,2|0,0:2|3:0,0:0:0:0:
220,332,32480,2,0,L|180:333,3,40,8|0|0|8,0:0|3:0|3:0|0:0,0:0:0:0:
220,332,32938,6,0,L|216:251,2,80,0|0|8,3:2|3:0|0:0,0:0:0:0:
300,363,33625,1,2,0:0:0:0:
296,276,33854,2,0,L|292:195,2,80,2|0|8,0:2|3:0|0:0,0:0:0:0:
372,316,34541,5,2,0:0:0:0:
446,268,34770,2,0,L|527:264,2,80,0|8|8,3:2|0:0|0:0,0:0:0:0:
368,228,35457,1,2,3:2:0:0:
296,276,35686,1,0,0:0:0:0:
372,316,35915,2,0,P|316:360|220:316,1,160,8|8,0:0|0:0,0:0:0:0:
174,277,36602,6,0,L|186:34,1,240,4|8,3:2|3:0,0:0:0:0:
268,68,37518,2,0,L|349:64,2,80,0|0|8,0:2|3:0|0:0,0:0:0:0:
185,37,38205,2,0,L|105:40,1,80,0|0,3:2|3:0,0:0:0:0:
16,44,38663,1,8,3:0:0:0:
64,116,38892,6,0,P|76:153|70:192,1,80,2|0,0:0|3:0,0:0:0:0:
20,268,39350,2,0,P|8:305|14:344,2,80,2|0|8,0:0|3:0|0:0,0:0:0:0:
93,313,40037,1,0,3:0:0:0:
172,276,40266,2,0,L|252:279,1,80,4|8,0:2|3:0,0:0:0:0:
332,248,40724,6,0,P|369:260|408:254,1,80,2|0,0:0|3:0,0:0:0:0:
376,173,41182,2,0,P|339:161|300:168,2,80,2|0|8,0:0|3:0|0:0,0:0:0:0:
332,248,41869,1,0,3:0:0:0:
364,327,42098,2,0,L|202:335,1,160,0|2,3:2|0:0,0:0:0:0:
120,312,42785,5,8,0:0:0:0:
114,225,43014,1,8,0:0:0:0:
195,194,43243,1,8,0:0:0:0:
250,260,43472,1,8,0:0:0:0:
204,334,43701,1,0,3:0:0:0:
250,260,43930,6,0,L|409:252,1,160,4|8,0:0|0:0,0:0:0:0:
484,208,44617,2,0,P|496:245|490:284,2,80,2|0|0,0:0|3:0|3:0,0:0:0:0:
436,132,45304,2,0,L|439:52,1,80,8|0,0:2|3:0,0:0:0:0:
352,32,45762,6,0,P|276:56|198:43,1,160,4|8,0:0|0:0,0:0:0:0:
120,4,46449,1,2,0:0:0:0:
56,64,46678,6,0,L|59:144,1,80,0|0,3:2|3:0,0:0:0:0:
128,200,47136,2,0,L|208:197,1,80,8|0,0:0|3:0,0:0:0:0:
272,136,47594,21,0,3:0:0:0:
358,143,47823,1,0,3:0:0:0:
404,217,48052,1,0,3:0:0:0:
376,300,48281,1,0,3:0:0:0:
293,330,48510,1,8,0:0:0:0:
218,282,48739,1,8,0:0:0:0:
208,196,48968,1,8,0:0:0:0:
272,136,49197,1,8,0:0:0:0:
303,229,49426,5,8,0:0:0:0:
303,229,49655,1,8,0:0:0:0:
136,248,50113,21,0,0:0:0:0:
84,176,50342,2,0,L|88:96,2,80,2|0|2,0:0|0:0|0:0,0:0:0:0:
48,256,51029,1,0,0:0:0:0:
100,328,51258,6,0,B|137:343|176:325|176:325|222:306|255:321,2,160,4|8|0,0:0|0:0|3:0,0:0:0:0:
136,248,52404,2,0,L|132:168,1,80,2|8,0:0|0:0,0:0:0:0:
55,125,52862,2,0,P|131:81|201:114,1,160,2|2,0:0|0:0,0:0:0:0:
255,165,53549,5,8,0:0:0:0:
316,104,53778,2,0,L|356:102,2,40,2|8|0,0:0|0:0|3:0,0:0:0:0:
255,165,54236,1,2,0:0:0:0:
340,192,54465,1,8,0:0:0:0:
316,104,54694,1,2,0:0:0:0:
255,165,54923,6,0,P|232:120|284:24,3,160,4|8|0|8,0:0|0:0|3:0|0:0,0:0:0:0:
316,104,56526,2,0,P|198:86|85:123,1,240,2|8,0:0|0:0,0:0:0:0:
20,180,57442,5,2,0:0:0:0:
55,259,57671,1,0,3:0:0:0:
141,250,57900,1,2,0:0:0:0:
160,165,58129,1,0,3:0:0:0:
85,122,58358,1,2,0:0:0:0:
160,165,58587,6,0,P|206:183|297:123,2,160,4|8|0,0:0|0:0|3:0,0:0:0:0:
215,96,59732,2,0,L|213:56,3,40,8|8|8|8,0:0|0:0|0:0|0:0,0:0:0:0:
215,96,60190,6,0,B|177:84|177:84|137:92,1,80,4|0,3:2|0:0,0:0:0:0:
60,48,60648,2,0,B|48:86|48:86|56:126,1,80,4|8,3:2|0:0,0:0:0:0:
8,200,61106,2,0,B|61:210|61:210|113:192|113:192|166:203,1,160,4|0,3:2|3:0,0:0:0:0:
232,260,61793,2,0,L|230:300,3,40,8|8|8|8,0:0|0:0|0:0|0:0,0:0:0:0:
232,260,62251,6,0,P|257:192|404:221,1,240,4|2,3:2|0:0,0:0:0:0:
321,255,63167,2,0,L|309:15,1,240,0|2,3:2|0:0,0:0:0:0:
228,44,64083,2,0,P|183:21|87:73,1,160,0|8,3:0|0:0,0:0:0:0:
168,108,64770,5,2,0:0:0:0:
91,64,64999,1,0,3:0:0:0:
47,141,65228,1,2,0:0:0:0:
124,185,65457,2,0,L|126:225,3,40,0|8|8|0,3:0|0:0|0:0|3:0,0:0:0:0:
124,185,65915,6,0,B|161:170|200:188|200:188|246:207|279:192,2,160,4|8|0,0:0|0:0|3:0,0:0:0:0:
160,265,67060,2,0,L|156:345,1,80,2|8,0:0|0:0,0:0:0:0:
76,376,67518,2,0,P|154:363|229:387,1,160,2|2,0:0|0:0,0:0:0:0:
296,332,68205,5,8,0:0:0:0:
236,268,68434,2,0,L|238:228,2,40,2|8|0,0:0|0:0|3:0,0:0:0:0:
296,332,68892,1,2,0:0:0:0:
324,248,69121,1,8,0:0:0:0:
236,268,69350,1,2,0:0:0:0:
296,332,69579,6,0,P|212:352|156:304,3,160,0|8|0|8,3:0|0:0|3:0|0:0,0:0:0:0:
236,268,71182,2,0,P|159:310|44:224,1,240,2|8,0:0|0:0,0:0:0:0:
16,148,72098,5,2,0:0:0:0:
99,119,72327,2,0,L|101:79,2,40,8|8|2,0:0|0:0|0:0,0:0:0:0:
128,202,72785,1,12,0:0:0:0:
45,231,73014,1,2,0:0:0:0:
128,202,73243,6,0,P|212:222|268:174,2,160,0|8|0,3:0|0:0|3:0,0:0:0:0:
188,140,74388,2,0,L|186:100,3,40,8|8|8|8,0:0|0:0|0:0|0:0,0:0:0:0:
188,140,74846,6,0,B|226:128|226:128|266:136,1,80,4|0,3:2|0:0,0:0:0:0:
336,84,75304,2,0,B|376:76|376:76|414:88,1,80,4|8,3:2|0:0,0:0:0:0:
488,40,75762,2,0,B|498:93|498:93|480:145|480:145|491:198,1,160,4|0,3:2|3:0,0:0:0:0:
436,268,76449,2,0,L|396:266,3,40,8|8|8|8,0:0|0:0|0:0|0:0,0:0:0:0:
436,268,76907,6,0,P|483:308|368:328,1,240,4|2,3:2|0:0,0:0:0:0:
300,308,77823,2,0,P|182:290|69:327,1,240,0|2,3:2|0:0,0:0:0:0:
64,240,78739,2,0,P|44:156|92:100,2,160,0|8|0,3:0|0:0|3:0,0:0:0:0:
128,180,79884,5,2,0:0:0:0:
200,232,80113,2,0,L|280:228,1,80,8|2,0:0|0:0,0:0:0:0:
352,280,80571,6,0,B|372:249|376:205|344:169|344:169|312:133|316:89|337:58,1,240,4|2,3:2|0:0,0:0:0:0:
411,110,81487,2,0,P|308:144|244:48,1,240,0|2,3:2|0:0,0:0:0:0:
160,76,82404,5,0,3:0:0:0:
72,64,82633,1,0,3:0:0:0:
108,144,82862,1,8,0:2:0:0:
160,76,83091,1,0,3:0:0:0:
108,144,83320,6,0,L|112:224,1,80,8|0,0:0|3:0,0:0:0:0:
116,312,83778,1,8,0:0:0:0:
279,228,84236,5,2,0:0:0:0:
256,192,84350,12,2,88510,0:0:0:0:
