osu file format v14

[General]
AudioFilename: Tsukiakari.mp3
AudioLeadIn: 0
PreviewTime: 50057
Countdown: 0
SampleSet: Soft
StackLeniency: 0.7
Mode: 0
LetterboxInBreaks: 0
WidescreenStoryboard: 0

[Editor]
Bookmarks: 190,12328,21946,36603,43931,51259,65916,88510
DistanceSpacing: 1
BeatDivisor: 4
GridSize: 4
TimelineZoom: 1

[Metadata]
Title:Tsukiakari no Michishirube ~Opening Edition~
TitleUnicode:ツキアカリのミチシルベ~Opening Edition~
Artist:Stereopony
ArtistUnicode:ステレオポニー
Creator:Sonnyc
Version:Enon's Easy
Source:DARKER THAN BLACK 流星の双子
Tags:Ryuusei no Gemini Enon
BeatmapID:1194981
BeatmapSetID:565175

[Difficulty]
HPDrainRate:2
CircleSize:3
OverallDifficulty:2
ApproachRate:3
SliderMultiplier:0.9
SliderTickRate:2

[Events]
//Background and Video events
0,0,"bg.jpg",0,0
//Break Periods
//Storyboard Layer 0 (Background)
//Storyboard Layer 1 (Fail)
//Storyboard Layer 2 (Pass)
//Storyboard Layer 3 (Foreground)
//Storyboard Sound Samples

[TimingPoints]
-2328,458.015267175573,4,2,1,35,1,0
1336,-100,4,2,1,50,0,0
10267,-100,4,2,1,60,0,0
21946,458.015267175573,4,2,1,50,1,0
43930,-100,4,2,1,60,0,0
51258,-100,4,2,1,60,0,1
64770,-100,4,2,1,60,0,0
65915,-100,4,2,1,60,0,1
84236,-100,4,2,1,50,0,0
86068,-100,4,2,1,30,0,0
87900,-100,4,2,1,20,0,0
88358,-100,4,2,1,10,0,0

[Colours]
Combo1 : 220,189,160
Combo2 : 171,214,203
Combo3 : 205,186,228
Combo4 : 234,170,191

[HitObjects]
328,324,1336,22,0,L|420:328,1,90,2|0,0:0|0:0,0:0:0:0:
475,256,2252,2,0,P|491:183|459:127,1,135,2|2,0:0|0:0,0:0:0:0:
360,49,3626,1,0,0:0:0:0:
304,120,4084,2,0,L|308:212,1,90,2|0,0:0|0:0,0:0:0:0:
240,268,5000,6,0,L|150:271,1,90,2|0,0:0|0:0,0:0:0:0:
93,200,5916,2,0,P|77:127|109:71,1,135,2|2,0:0|0:0,0:0:0:0:
320,12,7748,2,0,L|324:104,1,90,2|0,0:0|0:0,0:0:0:0:
284,184,8664,22,0,P|324:192|376:176,1,90,2|0,0:0|0:0,0:0:0:0:
460,200,9580,2,0,L|454:338,1,135,2|4,0:0|3:2,0:0:0:0:
372,376,10725,2,0,P|332:384|280:368,1,90,0|4,3:0|3:2,0:0:0:0:
180,172,12328,38,0,P|116:148|32:216,1,180,4|0,3:2|3:2,0:0:0:0:
120,240,13702,1,8,0:0:0:0:
60,308,14160,2,0,P|124:332|208:264,1,180,0|0,3:0|3:2,0:0:0:0:
236,183,15534,1,8,0:0:0:0:
176,115,15992,38,0,P|240:91|324:159,1,180,4|0,3:2|3:2,0:0:0:0:
236,183,17366,1,8,0:0:0:0:
296,251,17824,2,0,P|232:275|148:207,1,180,0|0,3:0|3:2,0:0:0:0:
120,126,19198,2,0,L|124:34,1,90,8|2,0:0|0:0,0:0:0:0:
418,340,22404,38,0,L|426:156,1,180,8|2,0:0|0:0,0:0:0:0:
370,86,23778,2,0,P|433:69|492:100,2,135,0|8|8,3:0|0:0|0:0,0:0:0:0:
204,16,26068,6,0,L|215:291,1,270,8|0,0:0|3:0,0:0:0:0:
298,335,27900,2,0,P|226:383|145:353,1,180,8|8,0:0|0:0,0:0:0:0:
136,172,29732,6,0,L|315:179,1,180,8|2,0:0|0:0,0:0:0:0:
389,234,31106,2,0,P|405:170|375:112,2,135,0|2|8,3:0|0:0|0:0,0:0:0:0:
328,300,32938,6,0,P|248:316|144:284,1,180,0|2,3:0|0:0,0:0:0:0:
8,188,34770,2,0,P|88:204|192:172,1,180,0|2,3:0|0:0,0:0:0:0:
304,48,36602,6,0,L|28:35,1,270,4|8,3:2|0:0,0:0:0:0:
24,216,38892,2,0,L|202:222,1,180,2|8,0:0|0:0,0:0:0:0:
248,300,40266,1,4,0:0:0:0:
292,377,40724,6,0,L|471:370,1,180,2|8,0:0|0:0,0:0:0:0:
512,292,42098,2,0,P|528:212|496:108,1,180,0|8,3:0|0:0,0:0:0:0:
436,56,43472,2,0,L|346:59,1,90,8|4,0:0|0:0,0:0:0:0:
204,164,44846,6,0,L|208:270,1,90,2|8,0:0|0:0,0:0:0:0:
290,297,45762,2,0,P|218:345|137:315,1,180,4|0,0:0|3:0,0:0:0:0:
256,192,47594,12,8,49426,0:0:0:0:
256,192,51258,22,0,L|366:182,1,90,4|8,0:0|0:0,0:0:0:0:
352,96,52175,2,0,L|217:108,1,135,0|2,3:0|0:0,0:0:0:0:
156,224,53549,1,8,0:0:0:0:
220,288,54007,2,0,L|309:296,1,90,0|8,3:0|0:0,0:0:0:0:
382,246,54923,6,0,L|392:136,1,90,4|8,0:0|0:0,0:0:0:0:
482,142,55839,2,0,L|469:276,1,135,0|2,3:0|0:0,0:0:0:0:
260,364,57671,2,0,L|268:274,1,90,0|8,3:0|0:0,0:0:0:0:
208,208,58587,22,0,P|165:220|121:212,1,90,4|8,3:2|0:0,0:0:0:0:
40,172,59503,2,0,L|54:35,1,135,0|4,3:0|3:2,0:0:0:0:
144,20,60648,2,0,L|134:125,1,90,0|4,3:0|3:2,0:0:0:0:
228,316,62251,38,0,P|292:340|376:272,2,180,4|0|0,3:2|3:2|3:0,0:0:0:0:
152,152,64999,2,0,L|257:142,1,90,0|8,3:0|0:2,0:0:0:0:
320,100,65915,22,0,P|362:112|406:104,1,90,4|8,3:2|0:0,0:0:0:0:
368,24,66831,2,0,P|440:24|492:84,1,135,0|2,3:0|0:0,0:0:0:0:
512,200,68205,1,0,0:0:0:0:
440,256,68663,2,0,L|351:248,1,90,0|8,3:0|0:0,0:0:0:0:
264,280,69579,6,0,P|221:267|177:275,1,90,0|8,3:0|0:0,0:0:0:0:
216,356,70495,2,0,P|144:356|92:296,1,135,0|2,3:0|0:0,0:0:0:0:
108,92,72327,2,0,L|213:82,1,90,0|4,3:0|3:2,0:0:0:0:
272,132,73243,22,0,P|260:174|267:218,1,90,4|8,3:2|0:0,0:0:0:0:
348,180,74159,2,0,L|485:166,1,135,0|4,3:0|3:2,0:0:0:0:
500,76,75304,2,0,L|395:86,1,90,0|4,3:0|3:2,0:0:0:0:
260,252,76907,38,0,L|80:233,1,180,4|0,3:2|3:0,0:0:0:0:
3,280,78281,1,8,0:0:0:0:
59,353,78739,2,0,L|238:373,1,180,0|0,3:0|3:2,0:0:0:0:
316,328,80113,1,8,0:0:0:0:
240,280,80571,38,0,P|332:240|396:288,1,180,4|0,3:2|3:0,0:0:0:0:
316,328,81946,1,8,0:0:0:0:
238,373,82404,2,0,L|132:361,1,90,0|8,3:0|0:0,0:0:0:0:
92,289,83320,2,0,L|-13:277,1,90,8|8,0:0|0:0,0:0:0:0:
256,192,84236,12,2,88510,0:0:0:0:
