osu file format v9

[General]
AudioFilename: Stereopony - Chiisana Mahou (TV Size).mp3
AudioLeadIn: 1000
PreviewTime: 56356
Countdown: 0
SampleSet: Soft
StackLeniency: 0.6
Mode: 0
LetterboxInBreaks: 1

[Editor]
DistanceSpacing: 1
BeatDivisor: 4
GridSize: 8

[Metadata]
Title:Chiisana Mahou (TV Size)
Artist:Stereopony
Creator:Mok
Version:Normal
Source:Letter Bee REVERSE
Tags:Tegami Bachi Lag Seeing Niche Gauche Suede Noir Roda Lode lepidopodus RandomJibberish

[Difficulty]
HPDrainRate:4
CircleSize:3
OverallDifficulty:4
ApproachRate:4
SliderMultiplier:1.2
SliderTickRate:2

[Events]
//Background and Video events
Video,0,"Stereopony - Chiisana Mahou (TV Size).avi"
0,0,"BG Chiisana Mahou (TV Size).jpg"
//Break Periods
//Storyboard Layer 0 (Background)
//Storyboard Layer 1 (Fail)
//Storyboard Layer 2 (Pass)
//Storyboard Layer 3 (Foreground)
//Storyboard Sound Samples
//Background Colour Transformations
3,100,0,255,0

[TimingPoints]
1115,461.538461538462,4,2,0,35,1,0
8499,-100,4,1,0,35,0,0
15076,-100,4,1,0,30,0,0
15191,-100,4,1,0,25,0,0
15306,-100,4,1,0,35,0,0
15421,-100,4,1,0,20,0,0
15537,-100,4,1,0,0,0,0
15883,-100,4,2,0,50,0,0
26961,-100,4,2,0,35,0,0
27191,-100,4,2,0,35,0,0
28345,-100,4,2,0,35,0,0
28575,-100,4,2,0,35,0,0
34115,-100,4,1,0,35,0,0
34345,-100,4,2,0,35,0,0
41499,-100,4,1,0,35,0,0
41730,-100,4,2,0,35,0,0
51422,-100,4,1,0,35,0,0
52806,-100,4,2,0,35,0,1
60191,-100,4,2,0,35,0,0
61576,-100,4,1,0,35,0,0
61807,-100,4,2,0,35,0,0
65961,-100,4,1,1,35,0,0
66653,-100,4,1,1,35,0,0
67575,-100,4,2,0,35,0,1
74730,-100,4,2,0,35,0,0
77499,-100,4,1,1,35,0,0
78422,-100,4,2,0,35,0,0
80728,-100,4,1,0,35,0,0

[HitObjects]
176,192,1114,2,0,B|256:256|344:192,1,180,2|2
376,312,2268,1,0
256,336,2730,1,2
136,312,3191,1,0
176,200,3653,2,0,B|256:136|344:200,1,180
448,136,4807,6,0,B|496:88,2,60,2|0|2
448,136,5499,1,0
368,72,5961,1,0
256,112,6422,1,2
144,72,6884,1,0
64,136,7345,2,0,B|16:88,2,60,0|2|0
64,136,8038,1,0
136,232,8499,6,0,B|123:151|225:80|309:100,1,240
370,198,9884,2,8,B|382:278|280:349|196:329,2,240
448,248,12191,6,0,B|496:296,2,60
448,248,13114,1,8
352,96,13576,2,0,B|160:96,1,180
168,280,14961,2,0,B|360:280,1,180
256,192,15884,12,4,18653
336,80,19576,6,0,B|248:0|160:88,1,180
256,160,20730,2,0,B|256:232,3,60
176,312,21884,2,0,B|264:392|352:304,1,180,4|0
337,317,22807,1,4
248,240,23268,6,0,B|152:184|80:272,2,180,4|0|4
264,120,25115,2,0,B|360:176|432:88,2,180,0|4|0
144,120,26961,1,4
368,240,27653,1,4
144,264,28345,1,4
264,256,28807,2,0,B|296:360|432:336,2,180
144,264,30653,5,4
48,192,31115,1,0
88,80,31576,1,0
208,80,32038,1,8
256,192,32499,1,0
360,248,32961,6,0,B|408:192|344:128,1,120
256,192,33884,2,8,B|128:192,1,120
192,296,34807,1,0
192,296,35038,1,0
192,296,35268,1,2
312,296,35730,6,0,B|392:296,1,60,0|2
312,192,36422,1,0
312,192,36653,2,0,B|168:192,2,120
400,112,38038,5,4
296,56,38499,2,0,B|256:160|352:248|480:208,1,300,2|2
440,328,40115,1,0
440,328,40345,1,0
320,296,40807,1,2
200,296,41268,5,8
200,296,41499,1,0
80,328,41961,1,0
48,272,42191,1,0
48,208,42422,1,0
48,208,42653,2,0,B|136:248|232:136|160:56,2,240,0|2|0
96,320,45422,6,0,B|344:320,1,240,4|0
176,232,47038,1,0
176,232,47268,1,4
360,232,47961,2,0,B|288:232,1,60,0|0
432,104,48884,1,0
432,104,49115,2,0,B|184:104,1,240,4|0
72,96,50499,1,0
8,192,50961,1,2
136,192,51422,5,0
256,192,51884,1,0
376,192,52345,1,0
320,88,52807,6,0,B|192:88,1,120,4|0
200,88,53499,1,0
104,160,53961,1,0
104,160,54191,2,0,B|16:72|128:-16,2,180
104,160,55807,1,0
152,200,56038,1,8
256,256,56499,6,0,B|256:120,1,120,4|0
256,136,57191,1,0
360,72,57653,1,2
360,136,57884,1,0
360,200,58115,1,2
424,296,58576,2,0,B|288:296,1,120
64,296,59961,6,0,B|144:296,1,60,0|4
96,176,60653,1,2
96,176,61115,2,0,B|96:48,2,120,0|0|0
72,296,62499,2,0,B|184:280|192:160,1,180
189,179,63422,1,0
312,176,63884,6,0,B|317:276|429:292,1,180,4|0
416,176,65038,1,0
352,72,65499,1,0
352,72,65730,1,0
304,32,65961,2,0,B|184:32,1,120
136,72,66653,1,0
136,72,66884,1,2
80,176,67345,1,2
80,176,67576,5,4
80,296,68038,2,0,B|120:368,1,60
168,240,68730,2,0,B|352:240,1,180
408,344,69884,2,0,B|448:272,1,60
432,176,70576,1,0
432,176,70807,1,0
320,224,71268,6,0,B|184:224,1,120,4|0
136,224,71961,1,0
200,120,72422,2,0,B|328:120,1,120,0|2
344,0,73345,1,0
280,0,73576,2,0,B|208:0,1,60,2|0
296,264,74730,5,0
296,264,74961,1,4
208,184,75422,2,0,B|272:112|392:144|408:240,2,240,0|2|0
208,184,77499,5,4
112,112,77961,1,4
208,184,78422,5,0
208,184,78653,2,0,B|144:256|24:224|8:128,2,240,4|2|0
264,176,80730,1,0
328,176,80961,1,0
384,176,81191,5,0
384,176,81422,1,0
176,304,82345,2,0,B|360:304,1,180
200,216,83730,2,0,B|200:32,1,180
328,24,84884,1,0
328,24,85114,2,0,B|328:280,1,240
