osu file format v9

[General]
AudioFilename: Stereopony - Chiisana Mahou (TV Size).mp3
AudioLeadIn: 1000
PreviewTime: 56356
Countdown: 0
SampleSet: Soft
StackLeniency: 0.6
Mode: 0
LetterboxInBreaks: 1

[Editor]
Bookmarks: 74738
DistanceSpacing: 0.8
BeatDivisor: 8
GridSize: 8

[Metadata]
Title:Chiisana Mahou (TV Size)
Artist:Stereopony
Creator:Mok
Version:Hard
Source:Letter Bee REVERSE
Tags:Tegami Bachi Lag Seeing Niche Gauche Suede Noir Roda Lode lepidopodus RandomJibberish

[Difficulty]
HPDrainRate:7
CircleSize:4
OverallDifficulty:7
ApproachRate:7
SliderMultiplier:1.5
SliderTickRate:2

[Events]
//Background and Video events
Video,0,"Stereopony - Chiisana Mahou (TV Size).avi"
0,0,"BG Chiisana Mahou (TV Size).jpg"
//Break Periods
//Storyboard Layer 0 (Background)
//Storyboard Layer 1 (Fail)
//Storyboard Layer 2 (Pass)
//Storyboard Layer 3 (Foreground)
//Storyboard Sound Samples
//Background Colour Transformations
3,100,0,255,0

[TimingPoints]
1115,461.538461538462,4,2,0,35,1,0
8496,-100,4,1,0,35,0,0
15077,-100,4,1,0,30,0,0
15192,-100,4,1,0,25,0,0
15307,-100,4,1,0,35,0,0
15422,-100,4,1,0,20,0,0
15538,-100,4,1,0,0,0,0
15884,-100,4,2,0,50,0,0
26962,-100,4,2,0,35,0,0
27192,-100,4,2,0,35,0,0
28346,-100,4,2,0,35,0,0
28576,-100,4,2,0,35,0,0
34116,-100,4,1,0,35,0,0
34346,-100,4,2,0,35,0,0
41500,-100,4,1,0,35,0,0
41731,-100,4,2,0,35,0,0
51423,-100,4,1,0,35,0,0
52807,-100,4,2,0,35,0,1
54883,-200,4,2,0,35,0,1
55805,-100,4,2,0,35,0,1
60192,-100,4,2,0,35,0,0
61577,-100,4,1,0,35,0,0
61808,-100,4,2,0,35,0,0
65962,-100,4,1,1,35,0,0
66654,-100,4,1,1,35,0,0
67576,-100,4,2,0,35,0,1
74731,-100,4,2,0,35,0,0
77500,-100,4,1,1,35,0,0
78423,-100,4,2,0,35,0,0
80729,-100,4,1,0,35,0,0

[HitObjects]
152,48,1114,2,0,B|208:104|312:104|368:40,1,225,2|0
432,144,2268,1,0
432,144,2499,2,0,B|392:184|352:184,1,75,0|2
256,208,3191,1,0
256,208,3653,1,0
256,208,4114,1,2
360,336,4807,6,0,B|304:280|200:280|144:344,1,225,0|2
80,240,5961,1,0
80,240,6191,2,0,B|120:200|160:200,1,75,0|2
256,176,6884,1,0
256,176,7345,1,2
256,176,7807,5,0
256,120,8038,1,0
256,64,8268,1,0
256,8,8499,1,0
144,56,8961,2,0,B|200:128|144:232|32:208,1,225
60,211,9884,1,0
120,320,10345,2,0,B|224:320,3,75
384,320,11499,6,0,B|280:320,3,75,8|0|0|8
443,211,12653,1,0
443,211,13114,2,0,B|499:139|443:35|331:59,2,225
368,304,14961,6,0,B|144:304,1,225,4|0
256,192,15884,12,0,19115
256,192,19576,5,0
160,120,20038,2,0,B|112:192|176:272,1,150
166,259,20730,1,0
166,259,20961,1,4
136,376,21422,2,0,B|96:336|96:288,2,75
200,344,22115,1,2
200,344,22230,1,0
312,344,22576,1,0
376,376,22807,2,0,B|416:336|416:288,2,75,0|0|2
360,264,23730,5,0
256,192,24191,1,2
256,72,24653,1,0
256,72,24884,1,2
256,72,25115,1,4
168,160,25576,1,0
168,160,25807,2,0,B|144:208|184:248,1,75,4|0
72,264,26499,2,0,B|8:192|88:112,2,150,0|4|0
72,264,27653,1,4
72,264,27884,5,0
144,360,28345,1,4
144,360,28576,1,0
208,360,28807,2,2,B|360:360,1,150
360,240,29730,2,2,B|200:240,1,150
210,240,30422,1,0
152,240,30653,5,4
256,176,31115,2,0,B|184:112|104:192,2,150
264,232,32268,1,2
272,288,32499,2,8,B|344:352|424:272,2,150
344,192,33884,5,0
344,192,34115,1,0
192,280,34576,1,2
192,280,34807,1,0
312,272,35268,2,8,B|416:280|432:176,1,150
428,198,35961,1,2
360,104,36422,2,0,B|256:96|240:200,1,150
245,177,37115,1,2
152,104,37576,1,0
48,48,38038,6,4,B|48:216,1,150,4|0
48,256,38730,1,0
48,320,38961,1,0
160,280,39422,6,0,B|160:200,2,75,0|2|0
88,184,40345,2,0,B|112:120|184:120|216:152,2,150
88,184,41499,1,0
144,288,41961,1,0
144,288,42191,1,0
216,312,42422,2,0,B|192:376|120:376|88:344,2,150
312,312,43807,1,0
312,312,44038,2,0,B|336:376|408:376|440:344,2,150,0|2|0
256,192,45422,5,4
328,96,45884,2,0,B|256:48|176:104,1,150
256,264,47038,2,0,B|256:344,2,75,0|4|0
352,192,47961,2,0,B|440:192,2,75,0|4|0
256,120,48884,5,0
256,120,49115,2,0,B|208:192|264:272,1,150,2|0
144,296,50038,1,0
144,296,50499,2,0,B|120:248|128:216,2,75,0|2|2
144,88,51422,1,0
144,88,51884,2,0,B|120:136|128:168,2,75
208,192,52807,6,0,B|368:192,1,150,4|0
358,192,53499,1,0
440,112,53961,2,0,B|496:56,2,75,0|0|2
440,272,54884,2,0,B|496:328,2,75,0|2|0
440,272,56038,1,0
424,152,56499,5,4
304,152,56961,2,0,B|216:152,1,75
320,232,57653,2,0,B|408:208|424:80|288:64,2,225,0|2|0
256,216,59268,1,2
192,232,59499,2,0,B|104:208|88:80|224:64,1,225,0|4
256,216,60653,1,0
264,96,61115,6,0,B|112:96,1,150
176,200,62038,1,0
288,168,62499,2,0,B|360:128|336:48|296:32,1,150
216,160,63422,2,0,B|165:96|218:31|261:32,2,150,0|4|2
216,160,64576,1,0
320,224,65038,5,0
424,160,65499,2,0,B|512:160,1,75
499,160,65961,1,0
456,272,66422,1,2
256,192,66653,12,4,67576
256,192,67807,5,0
256,192,68038,1,0
256,192,68268,1,2
136,216,68730,2,0,B|152:296|256:320,1,150
256,192,69653,1,0
376,168,70115,2,0,B|360:88|256:64,2,150,0|2|2
328,200,71268,5,4
240,120,71730,1,0
240,120,71961,1,0
208,240,72422,1,0
168,280,72653,1,0
200,328,72884,2,2,B|144:360|80:288|136:240,2,150
320,328,74268,1,0
400,240,74730,5,0
424,184,74961,2,0,B|360:160|312:240|360:272,2,150,4|0|0
456,136,76115,2,0,B|408:112|368:128,2,75
352,192,77038,2,0,B|320:232|264:208,1,75
285,214,77499,5,0
256,96,77961,1,4
184,192,78422,1,4
120,192,78653,6,0,B|128:264|224:272|248:216,2,150,4|0|0
200,104,80038,1,2
320,104,80499,1,0
320,104,80730,1,0
320,104,80961,1,0
384,104,81191,2,0,B|376:32|280:24|256:80,2,150,0|0|0
384,104,82345,5,4
256,232,83038,1,0
128,104,83730,1,4
256,232,84422,1,0
168,320,84884,1,0
168,320,85114,1,4
256,232,85576,1,0
336,320,86038,1,4
