osu file format v12

[General]
AudioFilename: Polargeist.mp3
AudioLeadIn: 0
PreviewTime: 18788
Countdown: 0
SampleSet: Soft
StackLeniency: 0.7
Mode: 0
LetterboxInBreaks: 1
WidescreenStoryboard: 1

[Editor]
Bookmarks: 66269,89827
DistanceSpacing: 1.1
BeatDivisor: 2
GridSize: 4

[Metadata]
Title:Polargeist
TitleUnicode:Polargeist
Artist:Step
ArtistUnicode:Step
Creator:Suzy Master
Version:Easy
Source:Geometry Dash
Tags:Polargeist Geometry Dash Step
BeatmapID:322587
BeatmapSetID:127052

[Difficulty]
HPDrainRate:4
CircleSize:3
OverallDifficulty:4
ApproachRate:4
SliderMultiplier:0.9
SliderTickRate:2

[Events]
//Background and Video events
0,0,"geometry-wallpaper-1280x1024.jpg",0,0
//Break Periods
2,31135,38450
2,66473,73787
//Storyboard Layer 0 (Background)
//Storyboard Layer 1 (Fail)
//Storyboard Layer 2 (Pass)
//Storyboard Layer 3 (Foreground)
//Storyboard Sound Samples
//Background Colour Transformations
3,100,163,162,255

[TimingPoints]
1488,368.098159509202,4,2,0,75,1,0
16207,-100,4,2,1,75,0,0
17680,-133.333333333333,4,2,0,75,0,0
18784,-83.3333333333333,4,2,1,75,0,0
19152,-83.3333333333333,4,2,1,75,0,1
21913,-83.3333333333333,4,3,1,35,0,1
22281,-83.3333333333333,4,2,1,75,0,1
27803,-83.3333333333333,4,3,1,35,0,1
27987,-83.3333333333333,4,2,1,75,0,0
30931,-83.3333333333333,4,2,0,85,0,1
31023,-83.3333333333333,4,2,0,85,0,0
41974,-90.9090909090909,4,2,1,85,0,0
77680,-83.3333333333333,4,2,1,85,0,1
80813,-83.3333333333333,4,3,1,35,0,1
80997,-83.3333333333333,4,2,1,85,0,1
86702,-83.3333333333333,4,3,1,35,0,1
86886,-83.3333333333333,4,2,1,90,0,1
89739,-83.3333333333333,4,2,1,90,0,0
89831,-83.3333333333333,4,2,1,90,0,1
89923,-83.3333333333333,4,2,1,90,0,0

[Colours]
Combo1 : 165,66,255
Combo2 : 255,60,60
Combo3 : 255,186,91
Combo4 : 255,255,117
Combo5 : 155,255,55
Combo6 : 83,169,255

[HitObjects]
88,144,1488,2,0,P|80:224|152:296,1,180,4|2,0:0|0:0,0:0:0:0:
340,316,2960,1,2,0:0:0:0:
276,128,3696,2,2,P|280:84|264:36,2,90
80,160,5168,1,0,0:0:0:0:
44,252,5537,2,2,P|92:260|140:240,1,90
328,240,6641,2,2,P|280:224|232:240,1,90
284,324,7377,2,0,P|368:328|424:240,1,180,4|0,0:0|0:0,0:0:0:0:
380,168,8481,2,2,L|384:64,1,90
188,44,9586,2,2,L|184:144,1,90
92,172,10322,2,0,B|108:212|144:244|200:236|200:236|212:284|264:316|308:300,1,270,0|2,0:0|0:0,0:0:0:0:
292,204,11794,1,2,0:0:0:0:
292,204,12530,2,2,L|300:104,1,90
384,60,13267,2,0,P|344:20|220:48,1,180
168,112,14371,2,2,P|124:128|80:120,1,90
148,308,15475,1,0,0:0:0:0:
332,236,16211,1,4,0:0:0:0:
364,144,16580,2,4,L|376:48,1,90
280,32,17316,2,4,L|264:144,1,90
112,320,19156,2,0,P|72:284|84:120,1,215.999993408203,4|0,0:0|0:0,0:0:0:0:
192,112,20261,2,0,L|308:120,1,107.999996704102,10|0,0:0|0:0,0:0:0:0:
364,348,21365,2,0,L|236:336,1,107.999996704102,0|10,0:0|0:0,0:0:0:0:
152,284,22101,2,0,B|160:240|204:208|248:208|248:208|256:156|292:120|340:104|400:124,1,323.999990112305,4|10,0:0|0:0,0:0:0:0:
360,236,23573,1,0,0:0:0:0:
144,136,24310,2,0,P|160:88|220:52,1,107.999996704102,4|10,0:0|0:0,0:0:0:0:
244,168,25046,2,0,B|216:232|160:252|116:240|116:240|84:292,1,215.999993408203,4|0,0:0|0:0,0:0:0:0:
24,228,26150,1,10,0:0:0:0:
44,112,26518,1,4,0:0:0:0:
272,176,27254,1,4,0:0:0:0:
156,196,27622,1,10,0:0:0:0:
196,84,27991,2,10,P|240:48|340:72,4,161.999995056153
136,184,30567,2,0,P|104:220|40:232,1,107.999996704102,10|4,0:0|0:0,0:0:0:0:
256,192,39770,12,0,42714,0:0:0:0:
168,224,43451,6,0,P|120:244|60:228,1,99.0000030212403,0|8,0:0|0:0,0:0:0:0:
104,132,44187,2,0,P|208:112|268:272,1,297.000009063721,0|8,0:0|0:0,0:0:0:0:
348,340,45659,1,4,0:0:0:0:
448,296,46027,1,8,0:0:0:0:
428,188,46395,2,0,L|432:68,2,99.0000030212403,0|8|4,0:0|0:0|0:0,0:0:0:0:
320,164,47500,1,8,0:0:0:0:
104,160,48236,1,8,0:0:0:0:
212,164,48604,1,4,0:0:0:0:
152,256,48972,2,0,P|92:272|0:184,2,198.000006042481,8|8|8,0:0|0:0|0:0,0:0:0:0:
260,276,50813,2,0,L|368:264,1,99.0000030212403,4|8,0:0|0:0,0:0:0:0:
368,156,51549,1,8,0:0:0:0:
264,128,51917,2,0,L|196:120,2,49.5000015106202,8|0|8,0:0|0:0|0:0,0:0:0:0:
332,40,52653,1,8,0:0:0:0:
436,68,53021,1,8,0:0:0:0:
456,176,53389,2,0,L|464:232,2,49.5000015106202,8|0|8,0:0|0:0|0:0,0:0:0:0:
348,192,54126,2,0,L|368:296,1,99.0000030212403,8|4,0:0|0:0,0:0:0:0:
148,276,55230,2,0,P|220:296|268:276,1,99.0000030212403,0|8,0:0|0:0,0:0:0:0:
200,192,55966,2,0,B|152:160|92:168|52:212|44:280|44:280|64:372,1,297.000009063721,0|8,0:0|0:0,0:0:0:0:
164,324,57438,1,4,0:0:0:0:
260,272,57807,1,8,0:0:0:0:
320,180,58175,2,0,L|332:64,1,99.0000030212403,0|8,0:0|0:0,0:0:0:0:
236,28,58911,2,4,P|212:88|112:112,2,148.50000453186,4|4|8,0:0|0:0|0:0,0:0:0:0:
128,32,60383,2,0,L|24:40,1,99.0000030212403,4|8,0:0|0:0,0:0:0:0:
44,148,61119,1,0,0:0:0:0:
220,276,61856,2,8,L|232:120,2,148.50000453186
328,292,63328,2,0,P|380:304|452:172,1,198.000006042481,8|0,0:0|0:0,0:0:0:0:
356,188,64432,1,8,0:0:0:0:
404,92,64800,2,8,P|352:80|292:96,1,99.0000030212403
200,88,65537,2,8,P|208:144|240:188,2,99.0000030212403,8|8|4,0:0|0:0|0:0,0:0:0:0:
48,328,75107,6,0,L|64:220,1,99.0000030212403
152,168,75843,2,0,L|168:56,2,99.0000030212403
400,320,78052,2,0,P|440:284|428:120,1,215.999993408203,4|0,0:0|0:0,0:0:0:0:
320,112,79157,2,0,L|204:120,1,107.999996704102,10|0,0:0|0:0,0:0:0:0:
148,348,80261,2,0,L|276:336,1,107.999996704102,0|10,0:0|0:0,0:0:0:0:
360,284,80997,2,0,B|352:240|308:208|264:208|264:208|256:156|220:120|172:104|112:124,1,323.999990112305,4|10,0:0|0:0,0:0:0:0:
152,236,82469,1,0,0:0:0:0:
368,136,83206,2,0,P|352:88|292:52,1,107.999996704102,4|10,0:0|0:0,0:0:0:0:
268,168,83942,2,0,B|296:232|352:252|396:240|396:240|428:292,1,215.999993408203,4|0,0:0|0:0,0:0:0:0:
488,228,85046,1,10,0:0:0:0:
468,112,85414,1,4,0:0:0:0:
240,176,86150,1,4,0:0:0:0:
356,196,86518,1,10,0:0:0:0:
316,84,86887,2,10,P|272:48|172:72,4,161.999995056153
376,184,89463,2,8,P|408:220|472:232,1,107.999996704102,10|4,0:0|0:0,0:0:0:0:
