osu file format v14

[General]
AudioFilename: Stefano_mocini_-_heart_of_darkness.mp3
AudioLeadIn: 0
PreviewTime: 105092
Countdown: 0
SampleSet: Soft
StackLeniency: 0.7
Mode: 3
LetterboxInBreaks: 0
CountdownOffset: 3
SpecialStyle: 0
WidescreenStoryboard: 1

[Editor]
Bookmarks: 1072,19572,25072,49072,73072,89072,105072,113072,121072,145072,161072,177072,201072
DistanceSpacing: 1
BeatDivisor: 4
GridSize: 4
TimelineZoom: 1

[Metadata]
Title:Heart of Darkness
TitleUnicode:Heart of Darkness
Artist:Stefano Mocini
ArtistUnicode:Stefano Mocini
Creator:FrenzyLi
Version:Hard
Source:Jamendo
Tags:jazz electronic classical dance chillout piano history
BeatmapID:705833
BeatmapSetID:300552

[Difficulty]
HPDrainRate:8
CircleSize:4
OverallDifficulty:9
ApproachRate:5
SliderMultiplier:1.4
SliderTickRate:1

[Events]
//Background and Video events
0,0,"Burning-Heart-love-wallpapers-heart-wallpapers-valentine-wallpapers--1280x960.jpg",0,0
//Break Periods
//Storyboard Layer 0 (Background)
//Storyboard Layer 1 (Fail)
//Storyboard Layer 2 (Pass)
//Storyboard Layer 3 (Foreground)
//Storyboard Sound Samples

[TimingPoints]
1092,500,4,2,0,50,1,0
105092,-100,4,2,0,70,0,1
121092,-100,4,2,0,50,0,0
145092,-100,4,2,0,75,0,1
177092,-100,4,2,0,50,0,0

[HitObjects]
64,192,1092,5,0,0:0:0:0:
320,192,1092,1,0,0:0:0:0:
192,192,1342,1,0,0:0:0:0:
192,192,1842,1,0,0:0:0:0:
192,192,2342,1,0,0:0:0:0:
192,192,2842,1,0,0:0:0:0:
448,192,3092,1,0,0:0:0:0:
320,192,3092,1,0,0:0:0:0:
192,192,3342,1,0,0:0:0:0:
192,192,3842,1,0,0:0:0:0:
192,192,4342,1,0,0:0:0:0:
64,192,4592,1,0,0:0:0:0:
320,192,4842,1,0,0:0:0:0:
448,192,5092,1,0,0:0:0:0:
192,192,5092,1,0,0:0:0:0:
320,192,5342,1,0,0:0:0:0:
320,192,5842,1,0,0:0:0:0:
64,192,6092,1,0,0:0:0:0:
192,192,6342,1,0,0:0:0:0:
320,192,6592,1,0,0:0:0:0:
448,192,6842,1,0,0:0:0:0:
64,192,7092,1,0,0:0:0:0:
320,192,7092,1,0,0:0:0:0:
192,192,7342,1,0,0:0:0:0:
192,192,7842,1,0,0:0:0:0:
192,192,8342,1,0,0:0:0:0:
192,192,8842,1,0,0:0:0:0:
448,192,9092,1,0,0:0:0:0:
320,192,9092,1,0,0:0:0:0:
192,192,9342,1,0,0:0:0:0:
192,192,9842,1,0,0:0:0:0:
192,192,10342,1,0,0:0:0:0:
64,192,10592,1,0,0:0:0:0:
320,192,10842,1,0,0:0:0:0:
448,192,11092,1,0,0:0:0:0:
192,192,11092,1,0,0:0:0:0:
320,192,11342,1,0,0:0:0:0:
320,192,11842,1,0,0:0:0:0:
320,192,12342,1,0,0:0:0:0:
192,192,12842,1,0,0:0:0:0:
64,192,13092,5,0,0:0:0:0:
320,192,13092,1,0,0:0:0:0:
192,192,13342,1,0,0:0:0:0:
192,192,13842,1,0,0:0:0:0:
192,192,14342,1,0,0:0:0:0:
192,192,14842,1,0,0:0:0:0:
448,192,15092,1,0,0:0:0:0:
320,192,15092,1,0,0:0:0:0:
192,192,15342,1,0,0:0:0:0:
192,192,15842,1,0,0:0:0:0:
192,192,16342,1,0,0:0:0:0:
64,192,16592,1,0,0:0:0:0:
320,192,16842,1,0,0:0:0:0:
448,192,17092,1,0,0:0:0:0:
192,192,17092,1,0,0:0:0:0:
320,192,17342,1,0,0:0:0:0:
320,192,17842,1,0,0:0:0:0:
64,192,18092,1,0,0:0:0:0:
192,192,18342,1,0,0:0:0:0:
320,192,18592,1,0,0:0:0:0:
448,192,18842,1,0,0:0:0:0:
64,192,19092,1,0,0:0:0:0:
320,192,19092,1,0,0:0:0:0:
192,192,19342,1,0,0:0:0:0:
64,192,19592,1,0,0:0:0:0:
192,192,19842,1,0,0:0:0:0:
64,192,20092,1,0,0:0:0:0:
192,192,20342,1,0,0:0:0:0:
64,192,20592,1,0,0:0:0:0:
192,192,20842,1,0,0:0:0:0:
320,192,21092,1,0,0:0:0:0:
448,192,21092,1,0,0:0:0:0:
64,192,21092,1,0,0:0:0:0:
192,192,21342,1,0,0:0:0:0:
320,192,21592,1,0,0:0:0:0:
64,192,21592,1,0,0:0:0:0:
192,192,21842,1,0,0:0:0:0:
320,192,21967,1,0,0:0:0:0:
64,192,22092,1,0,0:0:0:0:
320,192,22342,1,0,0:0:0:0:
192,192,22467,1,0,0:0:0:0:
448,192,22592,1,0,0:0:0:0:
64,192,22592,1,0,0:0:0:0:
192,192,22842,1,0,0:0:0:0:
448,192,22967,1,0,0:0:0:0:
64,192,23092,1,0,0:0:0:0:
320,192,23092,1,0,0:0:0:0:
448,192,23342,1,0,0:0:0:0:
192,192,23467,1,0,0:0:0:0:
64,192,23592,1,0,0:0:0:0:
320,192,23592,1,0,0:0:0:0:
192,192,23842,1,0,0:0:0:0:
320,192,23967,1,0,0:0:0:0:
448,192,24092,1,0,0:0:0:0:
64,192,24092,1,0,0:0:0:0:
192,192,24217,1,0,0:0:0:0:
320,192,24342,1,0,0:0:0:0:
448,192,24467,1,0,0:0:0:0:
64,192,24592,1,0,0:0:0:0:
320,192,24592,1,0,0:0:0:0:
192,192,24717,1,0,0:0:0:0:
320,192,24842,1,0,0:0:0:0:
448,192,24967,1,0,0:0:0:0:
192,192,24967,1,0,0:0:0:0:
64,192,25092,5,0,0:0:0:0:
320,192,25092,1,0,0:0:0:0:
192,192,25217,1,0,0:0:0:0:
320,192,25342,1,0,0:0:0:0:
192,192,25467,1,0,0:0:0:0:
320,192,25592,1,0,0:0:0:0:
448,192,25717,1,0,0:0:0:0:
64,192,25842,1,0,0:0:0:0:
192,192,25967,1,0,0:0:0:0:
320,192,26092,1,0,0:0:0:0:
192,192,26217,1,0,0:0:0:0:
320,192,26342,1,0,0:0:0:0:
448,192,26467,1,0,0:0:0:0:
64,192,26592,1,0,0:0:0:0:
448,192,26717,1,0,0:0:0:0:
320,192,26842,1,0,0:0:0:0:
448,192,26967,1,0,0:0:0:0:
64,192,27092,1,0,0:0:0:0:
192,192,27217,1,0,0:0:0:0:
320,192,27342,1,0,0:0:0:0:
192,192,27467,1,0,0:0:0:0:
320,192,27592,1,0,0:0:0:0:
448,192,27717,1,0,0:0:0:0:
64,192,27842,1,0,0:0:0:0:
192,192,27967,1,0,0:0:0:0:
320,192,28092,1,0,0:0:0:0:
448,192,28217,1,0,0:0:0:0:
320,192,28342,1,0,0:0:0:0:
192,192,28467,1,0,0:0:0:0:
320,192,28592,1,0,0:0:0:0:
448,192,28717,1,0,0:0:0:0:
64,192,28842,1,0,0:0:0:0:
448,192,28967,1,0,0:0:0:0:
64,192,29092,1,0,0:0:0:0:
192,192,29217,1,0,0:0:0:0:
320,192,29342,1,0,0:0:0:0:
448,192,29467,1,0,0:0:0:0:
320,192,29592,1,0,0:0:0:0:
192,192,29717,1,0,0:0:0:0:
320,192,29842,1,0,0:0:0:0:
448,192,29967,1,0,0:0:0:0:
192,192,30092,1,0,0:0:0:0:
448,192,30217,1,0,0:0:0:0:
320,192,30342,1,0,0:0:0:0:
448,192,30467,1,0,0:0:0:0:
192,192,30592,1,0,0:0:0:0:
448,192,30717,1,0,0:0:0:0:
64,192,30842,1,0,0:0:0:0:
448,192,30967,1,0,0:0:0:0:
192,192,31092,1,0,0:0:0:0:
320,192,31217,1,0,0:0:0:0:
448,192,31342,1,0,0:0:0:0:
64,192,31467,1,0,0:0:0:0:
192,192,31592,1,0,0:0:0:0:
320,192,31717,1,0,0:0:0:0:
192,192,31842,1,0,0:0:0:0:
320,192,31967,1,0,0:0:0:0:
448,192,32092,1,0,0:0:0:0:
64,192,32217,1,0,0:0:0:0:
192,192,32342,1,0,0:0:0:0:
320,192,32467,1,0,0:0:0:0:
448,192,32592,1,0,0:0:0:0:
64,192,32717,1,0,0:0:0:0:
192,192,32842,1,0,0:0:0:0:
320,192,32967,1,0,0:0:0:0:
192,192,33092,1,0,0:0:0:0:
320,192,33217,1,0,0:0:0:0:
448,192,33342,1,0,0:0:0:0:
64,192,33467,1,0,0:0:0:0:
192,192,33592,1,0,0:0:0:0:
320,192,33717,1,0,0:0:0:0:
192,192,33842,1,0,0:0:0:0:
320,192,33967,1,0,0:0:0:0:
448,192,34092,1,0,0:0:0:0:
64,192,34217,1,0,0:0:0:0:
192,192,34342,1,0,0:0:0:0:
320,192,34467,1,0,0:0:0:0:
192,192,34592,1,0,0:0:0:0:
64,192,34717,1,0,0:0:0:0:
448,192,34842,1,0,0:0:0:0:
64,192,34967,1,0,0:0:0:0:
192,192,35092,1,0,0:0:0:0:
320,192,35217,1,0,0:0:0:0:
448,192,35342,1,0,0:0:0:0:
64,192,35467,1,0,0:0:0:0:
192,192,35592,1,0,0:0:0:0:
320,192,35717,1,0,0:0:0:0:
192,192,35842,1,0,0:0:0:0:
320,192,35967,1,0,0:0:0:0:
448,192,36092,1,0,0:0:0:0:
64,192,36217,1,0,0:0:0:0:
192,192,36342,1,0,0:0:0:0:
320,192,36467,1,0,0:0:0:0:
64,192,36592,1,0,0:0:0:0:
192,192,36717,1,0,0:0:0:0:
320,192,36842,1,0,0:0:0:0:
448,192,36967,1,0,0:0:0:0:
64,192,37092,5,0,0:0:0:0:
192,192,37217,1,0,0:0:0:0:
448,192,37342,1,0,0:0:0:0:
64,192,37467,1,0,0:0:0:0:
192,192,37592,1,0,0:0:0:0:
448,192,37717,1,0,0:0:0:0:
64,192,37842,1,0,0:0:0:0:
192,192,37967,1,0,0:0:0:0:
448,192,38092,1,0,0:0:0:0:
64,192,38217,1,0,0:0:0:0:
192,192,38342,1,0,0:0:0:0:
448,192,38467,1,0,0:0:0:0:
64,192,38592,1,0,0:0:0:0:
448,192,38717,1,0,0:0:0:0:
192,192,38842,1,0,0:0:0:0:
320,192,38967,1,0,0:0:0:0:
64,192,39092,1,0,0:0:0:0:
320,192,39217,1,0,0:0:0:0:
448,192,39342,1,0,0:0:0:0:
64,192,39467,1,0,0:0:0:0:
320,192,39592,1,0,0:0:0:0:
448,192,39717,1,0,0:0:0:0:
64,192,39842,1,0,0:0:0:0:
320,192,39967,1,0,0:0:0:0:
448,192,40092,1,0,0:0:0:0:
64,192,40217,1,0,0:0:0:0:
320,192,40342,1,0,0:0:0:0:
448,192,40467,1,0,0:0:0:0:
192,192,40592,1,0,0:0:0:0:
448,192,40717,1,0,0:0:0:0:
64,192,40842,1,0,0:0:0:0:
448,192,40967,1,0,0:0:0:0:
64,192,41092,1,0,0:0:0:0:
192,192,41217,1,0,0:0:0:0:
448,192,41342,1,0,0:0:0:0:
64,192,41467,1,0,0:0:0:0:
320,192,41592,1,0,0:0:0:0:
448,192,41717,1,0,0:0:0:0:
64,192,41842,1,0,0:0:0:0:
448,192,41967,1,0,0:0:0:0:
192,192,42092,1,0,0:0:0:0:
448,192,42217,1,0,0:0:0:0:
320,192,42342,1,0,0:0:0:0:
448,192,42467,1,0,0:0:0:0:
192,192,42592,1,0,0:0:0:0:
448,192,42717,1,0,0:0:0:0:
64,192,42842,1,0,0:0:0:0:
448,192,42967,1,0,0:0:0:0:
64,192,43092,1,0,0:0:0:0:
192,192,43217,1,0,0:0:0:0:
448,192,43342,1,0,0:0:0:0:
64,192,43467,1,0,0:0:0:0:
320,192,43592,1,0,0:0:0:0:
448,192,43717,1,0,0:0:0:0:
64,192,43842,1,0,0:0:0:0:
192,192,43967,1,0,0:0:0:0:
448,192,44092,1,0,0:0:0:0:
64,192,44217,1,0,0:0:0:0:
320,192,44342,1,0,0:0:0:0:
448,192,44467,1,0,0:0:0:0:
64,192,44592,1,0,0:0:0:0:
448,192,44717,1,0,0:0:0:0:
192,192,44842,1,0,0:0:0:0:
448,192,44967,1,0,0:0:0:0:
64,192,45092,1,0,0:0:0:0:
192,192,45217,1,0,0:0:0:0:
320,192,45342,1,0,0:0:0:0:
64,192,45467,1,0,0:0:0:0:
192,192,45592,1,0,0:0:0:0:
448,192,45717,1,0,0:0:0:0:
64,192,45842,1,0,0:0:0:0:
320,192,45967,1,0,0:0:0:0:
448,192,46092,1,0,0:0:0:0:
192,192,46217,1,0,0:0:0:0:
320,192,46342,1,0,0:0:0:0:
448,192,46467,1,0,0:0:0:0:
192,192,46592,1,0,0:0:0:0:
448,192,46717,1,0,0:0:0:0:
64,192,46842,1,0,0:0:0:0:
448,192,46967,1,0,0:0:0:0:
192,192,47092,1,0,0:0:0:0:
64,192,47092,1,4,0:0:0:0:
320,192,47217,1,0,0:0:0:0:
448,192,47342,1,0,0:0:0:0:
64,192,47467,1,0,0:0:0:0:
320,192,47592,1,0,0:0:0:0:
448,192,47717,1,0,0:0:0:0:
64,192,47842,1,0,0:0:0:0:
192,192,47967,1,0,0:0:0:0:
448,192,48092,1,0,0:0:0:0:
64,192,48217,1,0,0:0:0:0:
192,192,48342,1,0,0:0:0:0:
320,192,48467,1,0,0:0:0:0:
64,192,48592,1,0,0:0:0:0:
448,192,48592,1,0,0:0:0:0:
192,192,48717,1,0,0:0:0:0:
320,192,48842,1,0,0:0:0:0:
448,192,48967,1,8,0:0:0:0:
192,192,48967,1,0,0:0:0:0:
64,192,49092,1,0,0:0:0:0:
320,192,49092,1,0,0:0:0:0:
64,192,49592,1,0,0:0:0:0:
320,192,49592,1,0,0:0:0:0:
320,192,49967,1,0,0:0:0:0:
192,192,50092,1,0,0:0:0:0:
320,192,50092,1,0,0:0:0:0:
64,192,50342,1,0,0:0:0:0:
448,192,50342,1,0,0:0:0:0:
320,192,50592,1,0,0:0:0:0:
192,192,50592,1,0,0:0:0:0:
448,192,51092,1,0,0:0:0:0:
320,192,51092,1,0,0:0:0:0:
320,192,51592,1,0,0:0:0:0:
192,192,51592,1,0,0:0:0:0:
192,192,51967,1,0,0:0:0:0:
192,192,52092,1,0,0:0:0:0:
448,192,52092,1,0,0:0:0:0:
320,192,52342,1,0,0:0:0:0:
192,192,52342,1,0,0:0:0:0:
320,192,52592,1,0,0:0:0:0:
64,192,52592,1,0,0:0:0:0:
320,192,53092,1,0,0:0:0:0:
192,192,53092,1,0,0:0:0:0:
192,192,53592,1,0,0:0:0:0:
448,192,53592,1,0,0:0:0:0:
320,192,53967,1,0,0:0:0:0:
320,192,54092,1,0,0:0:0:0:
192,192,54092,1,0,0:0:0:0:
192,192,54342,1,0,0:0:0:0:
448,192,54342,1,0,0:0:0:0:
192,192,54592,1,0,0:0:0:0:
320,192,54592,1,0,0:0:0:0:
64,192,54842,1,0,0:0:0:0:
320,192,54842,1,0,0:0:0:0:
64,192,55092,1,0,0:0:0:0:
192,192,55092,1,0,0:0:0:0:
192,192,55592,1,0,0:0:0:0:
320,192,55592,1,0,0:0:0:0:
320,192,55967,1,0,0:0:0:0:
64,192,56092,1,0,0:0:0:0:
320,192,56092,1,0,0:0:0:0:
320,192,56342,1,0,0:0:0:0:
192,192,56342,1,0,0:0:0:0:
192,192,56592,1,0,0:0:0:0:
448,192,56592,1,0,0:0:0:0:
448,192,57092,1,0,0:0:0:0:
320,192,57092,1,0,0:0:0:0:
192,192,57592,1,0,0:0:0:0:
320,192,57592,1,0,0:0:0:0:
64,192,57967,1,0,0:0:0:0:
64,192,58092,1,0,0:0:0:0:
320,192,58092,1,0,0:0:0:0:
192,192,58342,1,0,0:0:0:0:
320,192,58342,1,0,0:0:0:0:
192,192,58592,1,0,0:0:0:0:
448,192,58592,1,0,0:0:0:0:
320,192,59092,1,0,0:0:0:0:
192,192,59092,1,0,0:0:0:0:
64,192,59592,1,0,0:0:0:0:
320,192,59592,1,0,0:0:0:0:
448,192,59967,1,0,0:0:0:0:
320,192,60092,1,0,0:0:0:0:
448,192,60092,1,0,0:0:0:0:
448,192,60342,1,0,0:0:0:0:
64,192,60342,1,0,0:0:0:0:
320,192,60592,1,0,0:0:0:0:
192,192,60592,1,0,0:0:0:0:
192,192,61092,1,0,0:0:0:0:
64,192,61092,1,0,0:0:0:0:
192,192,61592,1,0,0:0:0:0:
320,192,61592,1,0,0:0:0:0:
320,192,61967,1,0,0:0:0:0:
64,192,62092,1,0,0:0:0:0:
320,192,62092,1,0,0:0:0:0:
192,192,62342,1,0,0:0:0:0:
448,192,62342,1,0,0:0:0:0:
64,192,62592,1,0,0:0:0:0:
320,192,62592,1,0,0:0:0:0:
448,192,63092,1,0,0:0:0:0:
320,192,63092,1,0,0:0:0:0:
192,192,63592,1,0,0:0:0:0:
320,192,63592,1,0,0:0:0:0:
320,192,63967,1,0,0:0:0:0:
64,192,64092,1,0,0:0:0:0:
320,192,64092,1,0,0:0:0:0:
448,192,64342,1,0,0:0:0:0:
64,192,64342,1,0,0:0:0:0:
64,192,64592,1,0,0:0:0:0:
320,192,64592,1,0,0:0:0:0:
320,192,65092,1,0,0:0:0:0:
192,192,65092,1,0,0:0:0:0:
64,192,65592,1,0,0:0:0:0:
448,192,65592,1,0,0:0:0:0:
64,192,65967,1,0,0:0:0:0:
64,192,66092,1,0,0:0:0:0:
320,192,66092,1,0,0:0:0:0:
192,192,66342,1,0,0:0:0:0:
448,192,66342,1,0,0:0:0:0:
64,192,66592,1,0,0:0:0:0:
320,192,66592,1,0,0:0:0:0:
192,192,66842,1,0,0:0:0:0:
448,192,66842,1,0,0:0:0:0:
192,192,67092,1,0,0:0:0:0:
64,192,67092,1,0,0:0:0:0:
192,192,67592,1,0,0:0:0:0:
320,192,67592,1,0,0:0:0:0:
320,192,67967,1,0,0:0:0:0:
192,192,68092,1,0,0:0:0:0:
320,192,68092,1,0,0:0:0:0:
64,192,68342,1,0,0:0:0:0:
448,192,68342,1,0,0:0:0:0:
192,192,68592,1,0,0:0:0:0:
320,192,68592,1,0,0:0:0:0:
448,192,69092,1,0,0:0:0:0:
320,192,69092,1,0,0:0:0:0:
192,192,69592,1,0,0:0:0:0:
448,192,69592,1,0,0:0:0:0:
320,192,69967,1,0,0:0:0:0:
64,192,70092,1,0,0:0:0:0:
320,192,70092,1,0,0:0:0:0:
192,192,70342,1,0,0:0:0:0:
320,192,70342,1,0,0:0:0:0:
448,192,70592,1,0,0:0:0:0:
64,192,70592,1,0,0:0:0:0:
320,192,71092,1,0,0:0:0:0:
192,192,71092,1,0,0:0:0:0:
64,192,71592,1,0,0:0:0:0:
192,192,71592,1,0,0:0:0:0:
448,192,71592,1,0,0:0:0:0:
192,192,71967,1,0,0:0:0:0:
192,192,72092,1,0,0:0:0:0:
448,192,72092,1,0,0:0:0:0:
192,192,72342,1,0,0:0:0:0:
320,192,72342,1,0,0:0:0:0:
448,192,72592,1,0,0:0:0:0:
320,192,72592,1,0,0:0:0:0:
64,192,72592,1,0,0:0:0:0:
320,192,72967,1,0,0:0:0:0:
64,192,72967,1,0,0:0:0:0:
448,192,73092,1,0,0:0:0:0:
192,192,73092,1,0,0:0:0:0:
320,192,73342,1,0,0:0:0:0:
320,192,73592,1,0,0:0:0:0:
192,192,73842,1,0,0:0:0:0:
448,192,73842,1,0,0:0:0:0:
64,192,74092,1,0,0:0:0:0:
64,192,74342,1,0,0:0:0:0:
192,192,74592,1,0,0:0:0:0:
448,192,74592,1,0,0:0:0:0:
320,192,74842,1,0,0:0:0:0:
192,192,75092,1,0,0:0:0:0:
64,192,75092,1,0,0:0:0:0:
448,192,75342,1,0,0:0:0:0:
448,192,75592,1,0,0:0:0:0:
320,192,75842,1,0,0:0:0:0:
64,192,75842,1,0,0:0:0:0:
192,192,76092,1,0,0:0:0:0:
192,192,76342,1,0,0:0:0:0:
64,192,76592,1,0,0:0:0:0:
320,192,76592,1,0,0:0:0:0:
448,192,76842,1,0,0:0:0:0:
192,192,77092,1,0,0:0:0:0:
64,192,77092,1,0,0:0:0:0:
320,192,77342,1,0,0:0:0:0:
320,192,77592,1,0,0:0:0:0:
192,192,77842,1,0,0:0:0:0:
448,192,77842,1,0,0:0:0:0:
64,192,78092,1,0,0:0:0:0:
64,192,78342,1,0,0:0:0:0:
192,192,78592,1,0,0:0:0:0:
448,192,78592,1,0,0:0:0:0:
320,192,78842,1,0,0:0:0:0:
192,192,79092,1,0,0:0:0:0:
64,192,79092,1,0,0:0:0:0:
448,192,79342,1,0,0:0:0:0:
448,192,79592,1,0,0:0:0:0:
320,192,79842,1,0,0:0:0:0:
64,192,79842,1,0,0:0:0:0:
192,192,80092,1,0,0:0:0:0:
192,192,80342,1,0,0:0:0:0:
448,192,80592,1,0,0:0:0:0:
64,192,80592,1,0,0:0:0:0:
320,192,80842,1,0,0:0:0:0:
64,192,81092,1,0,0:0:0:0:
192,192,81092,1,0,0:0:0:0:
448,192,81342,1,0,0:0:0:0:
448,192,81592,1,0,0:0:0:0:
320,192,81842,1,0,0:0:0:0:
64,192,81842,1,0,0:0:0:0:
192,192,82092,1,0,0:0:0:0:
192,192,82342,1,0,0:0:0:0:
64,192,82592,1,0,0:0:0:0:
448,192,82592,1,0,0:0:0:0:
320,192,82842,1,0,0:0:0:0:
448,192,83092,1,0,0:0:0:0:
192,192,83092,1,0,0:0:0:0:
320,192,83342,1,0,0:0:0:0:
320,192,83592,1,0,0:0:0:0:
448,192,83842,1,0,0:0:0:0:
64,192,83842,1,0,0:0:0:0:
192,192,84092,1,0,0:0:0:0:
192,192,84342,1,0,0:0:0:0:
64,192,84592,1,0,0:0:0:0:
320,192,84592,1,0,0:0:0:0:
448,192,84842,1,0,0:0:0:0:
320,192,85092,1,0,0:0:0:0:
192,192,85092,1,0,0:0:0:0:
448,192,85342,1,0,0:0:0:0:
448,192,85592,1,0,0:0:0:0:
320,192,85842,1,0,0:0:0:0:
192,192,85842,1,0,0:0:0:0:
64,192,86092,1,0,0:0:0:0:
448,192,86092,1,0,0:0:0:0:
320,192,86342,1,0,0:0:0:0:
320,192,86592,1,0,0:0:0:0:
448,192,86842,1,0,0:0:0:0:
192,192,86842,1,0,0:0:0:0:
64,192,87092,1,0,0:0:0:0:
320,192,87092,1,0,0:0:0:0:
192,192,87342,1,0,0:0:0:0:
192,192,87592,1,0,0:0:0:0:
64,192,87842,1,0,0:0:0:0:
448,192,87842,1,0,0:0:0:0:
192,192,88092,1,0,0:0:0:0:
320,192,88342,1,0,0:0:0:0:
448,192,88592,1,0,0:0:0:0:
320,192,88842,1,0,0:0:0:0:
448,192,89092,1,0,0:0:0:0:
192,192,89092,1,0,0:0:0:0:
320,192,89342,1,0,0:0:0:0:
320,192,89592,1,0,0:0:0:0:
64,192,89592,1,0,0:0:0:0:
192,192,89842,1,0,0:0:0:0:
448,192,89842,1,0,0:0:0:0:
64,192,90092,1,0,0:0:0:0:
320,192,90342,1,0,0:0:0:0:
64,192,90342,1,0,0:0:0:0:
192,192,90592,1,0,0:0:0:0:
448,192,90592,1,0,0:0:0:0:
320,192,90842,1,0,0:0:0:0:
192,192,91092,1,0,0:0:0:0:
64,192,91092,1,0,0:0:0:0:
448,192,91342,1,0,0:0:0:0:
448,192,91592,1,0,0:0:0:0:
192,192,91592,1,0,0:0:0:0:
320,192,91842,1,0,0:0:0:0:
64,192,91842,1,0,0:0:0:0:
192,192,92092,1,0,0:0:0:0:
192,192,92342,1,0,0:0:0:0:
448,192,92342,1,0,0:0:0:0:
64,192,92592,1,0,0:0:0:0:
320,192,92592,1,0,0:0:0:0:
448,192,92842,1,0,0:0:0:0:
192,192,93092,1,0,0:0:0:0:
64,192,93092,1,0,0:0:0:0:
320,192,93342,1,0,0:0:0:0:
320,192,93592,1,0,0:0:0:0:
64,192,93592,1,0,0:0:0:0:
192,192,93842,1,0,0:0:0:0:
448,192,93842,1,0,0:0:0:0:
64,192,94092,1,0,0:0:0:0:
64,192,94342,1,0,0:0:0:0:
320,192,94342,1,0,0:0:0:0:
192,192,94592,1,0,0:0:0:0:
448,192,94592,1,0,0:0:0:0:
320,192,94842,1,0,0:0:0:0:
192,192,95092,1,0,0:0:0:0:
64,192,95092,1,0,0:0:0:0:
448,192,95342,1,0,0:0:0:0:
448,192,95592,1,0,0:0:0:0:
192,192,95592,1,0,0:0:0:0:
320,192,95842,1,0,0:0:0:0:
64,192,95842,1,0,0:0:0:0:
192,192,96092,1,0,0:0:0:0:
192,192,96342,1,0,0:0:0:0:
320,192,96342,1,0,0:0:0:0:
64,192,96592,1,0,0:0:0:0:
448,192,96592,1,0,0:0:0:0:
320,192,96842,1,0,0:0:0:0:
64,192,97092,1,0,0:0:0:0:
192,192,97092,1,0,0:0:0:0:
448,192,97342,1,0,0:0:0:0:
448,192,97592,1,0,0:0:0:0:
192,192,97592,1,0,0:0:0:0:
320,192,97842,1,0,0:0:0:0:
64,192,97842,1,0,0:0:0:0:
192,192,98092,1,0,0:0:0:0:
320,192,98342,1,0,0:0:0:0:
64,192,98342,1,0,0:0:0:0:
448,192,98592,1,0,0:0:0:0:
192,192,98592,1,0,0:0:0:0:
320,192,98842,1,0,0:0:0:0:
448,192,99092,1,0,0:0:0:0:
192,192,99092,1,0,0:0:0:0:
320,192,99342,1,0,0:0:0:0:
320,192,99592,1,0,0:0:0:0:
64,192,99592,1,0,0:0:0:0:
192,192,99842,1,0,0:0:0:0:
448,192,99842,1,0,0:0:0:0:
320,192,100092,1,0,0:0:0:0:
192,192,100342,1,0,0:0:0:0:
448,192,100342,1,0,0:0:0:0:
64,192,100592,1,0,0:0:0:0:
320,192,100592,1,0,0:0:0:0:
448,192,100842,1,0,0:0:0:0:
64,192,101092,1,0,0:0:0:0:
320,192,101092,1,0,0:0:0:0:
448,192,101342,1,0,0:0:0:0:
192,192,101592,1,0,0:0:0:0:
320,192,101842,1,0,0:0:0:0:
64,192,101842,1,0,0:0:0:0:
192,192,102092,1,0,0:0:0:0:
448,192,102092,1,0,0:0:0:0:
64,192,102342,1,0,0:0:0:0:
320,192,102592,1,0,0:0:0:0:
448,192,102842,1,0,0:0:0:0:
192,192,102842,1,0,0:0:0:0:
64,192,103092,1,0,0:0:0:0:
320,192,103092,1,0,0:0:0:0:
448,192,103092,1,4,0:0:0:0:
192,192,103342,1,0,0:0:0:0:
320,192,103592,1,0,0:0:0:0:
64,192,103842,1,0,0:0:0:0:
448,192,103842,1,0,0:0:0:0:
320,192,104092,1,0,0:0:0:0:
192,192,104342,1,0,0:0:0:0:
64,192,104592,1,0,0:0:0:0:
448,192,104592,1,4,0:0:0:0:
320,192,104592,1,0,0:0:0:0:
64,192,104967,1,0,0:0:0:0:
192,192,104967,1,0,0:0:0:0:
448,192,105092,128,0,105342:0:0:0:0:
320,192,105092,1,0,0:0:0:0:
64,192,105342,1,0,0:0:0:0:
320,192,105592,1,0,0:0:0:0:
192,192,105592,128,0,105842:0:0:0:0:
64,192,105592,1,0,0:0:0:0:
448,192,105842,1,0,0:0:0:0:
64,192,106092,1,0,0:0:0:0:
192,192,106092,1,0,0:0:0:0:
320,192,106092,128,0,106342:0:0:0:0:
448,192,106342,1,0,0:0:0:0:
320,192,106592,1,0,0:0:0:0:
192,192,106592,128,0,106842:0:0:0:0:
64,192,106592,1,0,0:0:0:0:
448,192,106842,1,0,0:0:0:0:
320,192,107092,1,0,0:0:0:0:
64,192,107092,128,0,107342:0:0:0:0:
192,192,107092,1,0,0:0:0:0:
448,192,107342,1,0,0:0:0:0:
192,192,107592,1,0,0:0:0:0:
64,192,107592,1,0,0:0:0:0:
320,192,107592,128,0,107842:0:0:0:0:
448,192,107842,1,0,0:0:0:0:
448,192,108092,1,0,0:0:0:0:
64,192,108092,128,0,108342:0:0:0:0:
192,192,108092,1,0,0:0:0:0:
320,192,108342,1,0,0:0:0:0:
64,192,108592,1,0,0:0:0:0:
448,192,108592,128,0,108842:0:0:0:0:
320,192,108592,1,0,0:0:0:0:
192,192,108842,1,0,0:0:0:0:
320,192,109092,128,0,109342:0:0:0:0:
448,192,109092,1,0,0:0:0:0:
192,192,109092,1,0,0:0:0:0:
64,192,109342,1,0,0:0:0:0:
64,192,109592,1,0,0:0:0:0:
448,192,109592,1,0,0:0:0:0:
192,192,109592,128,0,109842:0:0:0:0:
320,192,109842,1,0,0:0:0:0:
320,192,110092,1,0,0:0:0:0:
64,192,110092,128,0,110342:0:0:0:0:
448,192,110092,1,0,0:0:0:0:
192,192,110342,1,0,0:0:0:0:
320,192,110592,128,0,110842:0:0:0:0:
448,192,110592,1,0,0:0:0:0:
192,192,110592,1,0,0:0:0:0:
64,192,110842,1,0,0:0:0:0:
192,192,111092,1,0,0:0:0:0:
320,192,111092,1,0,0:0:0:0:
448,192,111092,128,0,111342:0:0:0:0:
64,192,111342,1,0,0:0:0:0:
64,192,111592,1,0,0:0:0:0:
192,192,111592,128,0,111842:0:0:0:0:
320,192,111592,1,0,0:0:0:0:
448,192,111842,1,0,0:0:0:0:
448,192,112092,1,0,0:0:0:0:
320,192,112092,128,0,112342:0:0:0:0:
192,192,112092,1,0,0:0:0:0:
64,192,112342,1,0,0:0:0:0:
448,192,112592,1,0,0:0:0:0:
192,192,112592,128,0,112842:0:0:0:0:
64,192,112592,1,0,0:0:0:0:
320,192,112842,1,0,0:0:0:0:
320,192,113092,1,0,0:0:0:0:
448,192,113092,128,0,113342:0:0:0:0:
192,192,113092,1,0,0:0:0:0:
64,192,113342,1,0,0:0:0:0:
192,192,113592,128,0,113842:0:0:0:0:
64,192,113592,1,0,0:0:0:0:
448,192,113592,1,0,0:0:0:0:
320,192,113717,1,0,0:0:0:0:
448,192,113842,1,0,0:0:0:0:
192,192,114092,1,0,0:0:0:0:
320,192,114092,128,0,114342:0:0:0:0:
64,192,114092,1,0,0:0:0:0:
448,192,114342,1,0,0:0:0:0:
192,192,114592,128,0,114842:0:0:0:0:
448,192,114592,1,0,0:0:0:0:
64,192,114592,1,0,0:0:0:0:
320,192,114717,1,0,0:0:0:0:
448,192,114842,1,0,0:0:0:0:
192,192,115092,1,0,0:0:0:0:
64,192,115092,128,0,115342:0:0:0:0:
320,192,115092,1,0,0:0:0:0:
448,192,115342,1,0,0:0:0:0:
320,192,115592,128,0,115842:0:0:0:0:
448,192,115592,1,0,0:0:0:0:
192,192,115592,1,0,0:0:0:0:
64,192,115717,1,0,0:0:0:0:
448,192,115842,1,0,0:0:0:0:
192,192,116092,1,0,0:0:0:0:
448,192,116092,1,0,0:0:0:0:
64,192,116092,128,0,116342:0:0:0:0:
320,192,116342,1,0,0:0:0:0:
448,192,116592,128,0,116842:0:0:0:0:
64,192,116592,1,0,0:0:0:0:
192,192,116592,1,0,0:0:0:0:
320,192,116717,1,0,0:0:0:0:
192,192,116842,1,0,0:0:0:0:
320,192,117092,128,0,117342:0:0:0:0:
64,192,117092,1,0,0:0:0:0:
448,192,117092,1,0,0:0:0:0:
192,192,117217,1,0,0:0:0:0:
64,192,117342,1,0,0:0:0:0:
448,192,117467,1,0,0:0:0:0:
192,192,117592,128,0,117842:0:0:0:0:
320,192,117592,1,0,0:0:0:0:
64,192,117592,1,0,0:0:0:0:
448,192,117717,1,0,0:0:0:0:
320,192,117842,1,0,0:0:0:0:
448,192,117967,1,0,0:0:0:0:
64,192,118092,128,0,118342:0:0:0:0:
320,192,118092,1,0,0:0:0:0:
192,192,118092,1,0,0:0:0:0:
448,192,118217,1,0,0:0:0:0:
192,192,118342,1,0,0:0:0:0:
448,192,118467,1,0,0:0:0:0:
320,192,118592,128,0,118842:0:0:0:0:
64,192,118592,1,0,0:0:0:0:
192,192,118592,1,0,0:0:0:0:
448,192,118717,1,0,0:0:0:0:
64,192,118842,1,0,0:0:0:0:
192,192,118967,1,0,0:0:0:0:
448,192,119092,128,0,119342:0:0:0:0:
320,192,119092,1,0,0:0:0:0:
64,192,119092,1,0,0:0:0:0:
192,192,119217,1,0,0:0:0:0:
64,192,119342,1,0,0:0:0:0:
320,192,119467,1,0,0:0:0:0:
192,192,119592,128,0,119842:0:0:0:0:
64,192,119592,1,0,0:0:0:0:
448,192,119592,1,0,0:0:0:0:
320,192,119717,1,0,0:0:0:0:
448,192,119842,1,0,0:0:0:0:
64,192,119967,1,0,0:0:0:0:
320,192,120092,128,0,120342:0:0:0:0:
192,192,120092,1,0,0:0:0:0:
448,192,120092,1,0,0:0:0:0:
64,192,120217,1,0,0:0:0:0:
192,192,120342,1,0,0:0:0:0:
64,192,120467,1,0,0:0:0:0:
192,192,120592,128,0,120842:0:0:0:0:
448,192,120592,1,0,0:0:0:0:
320,192,120592,1,0,0:0:0:0:
64,192,120717,1,0,0:0:0:0:
448,192,120842,1,0,0:0:0:0:
320,192,120967,1,0,0:0:0:0:
64,192,121092,5,0,0:0:0:0:
448,192,121092,1,0,0:0:0:0:
192,192,121217,1,0,0:0:0:0:
64,192,121342,1,0,0:0:0:0:
448,192,121467,1,0,0:0:0:0:
320,192,121592,1,0,0:0:0:0:
448,192,121717,1,0,0:0:0:0:
64,192,121842,1,0,0:0:0:0:
192,192,121967,1,0,0:0:0:0:
64,192,122092,1,0,0:0:0:0:
448,192,122217,1,0,0:0:0:0:
320,192,122342,1,0,0:0:0:0:
448,192,122467,1,0,0:0:0:0:
64,192,122592,1,0,0:0:0:0:
320,192,122717,1,0,0:0:0:0:
192,192,122842,1,0,0:0:0:0:
320,192,122967,1,0,0:0:0:0:
448,192,123092,1,0,0:0:0:0:
64,192,123092,1,0,0:0:0:0:
320,192,123217,1,0,0:0:0:0:
448,192,123342,1,0,0:0:0:0:
64,192,123467,1,0,0:0:0:0:
192,192,123592,1,0,0:0:0:0:
64,192,123717,1,0,0:0:0:0:
448,192,123842,1,0,0:0:0:0:
320,192,123967,1,0,0:0:0:0:
448,192,124092,1,0,0:0:0:0:
64,192,124217,1,0,0:0:0:0:
192,192,124342,1,0,0:0:0:0:
64,192,124467,1,0,0:0:0:0:
320,192,124592,1,0,0:0:0:0:
448,192,124717,1,0,0:0:0:0:
192,192,124842,1,0,0:0:0:0:
448,192,124967,1,0,0:0:0:0:
64,192,125092,1,0,0:0:0:0:
320,192,125092,1,0,0:0:0:0:
192,192,125217,1,0,0:0:0:0:
64,192,125342,1,0,0:0:0:0:
448,192,125467,1,0,0:0:0:0:
320,192,125592,1,0,0:0:0:0:
448,192,125717,1,0,0:0:0:0:
64,192,125842,1,0,0:0:0:0:
192,192,125967,1,0,0:0:0:0:
64,192,126092,1,0,0:0:0:0:
320,192,126092,1,0,0:0:0:0:
448,192,126217,1,0,0:0:0:0:
192,192,126342,1,0,0:0:0:0:
320,192,126342,1,0,0:0:0:0:
448,192,126467,1,0,0:0:0:0:
320,192,126592,1,0,0:0:0:0:
64,192,126592,1,0,0:0:0:0:
448,192,126717,1,0,0:0:0:0:
64,192,126842,1,0,0:0:0:0:
192,192,126842,1,0,0:0:0:0:
448,192,126967,1,0,0:0:0:0:
64,192,127092,1,0,0:0:0:0:
192,192,127092,1,0,0:0:0:0:
320,192,127217,1,0,0:0:0:0:
64,192,127342,1,0,0:0:0:0:
448,192,127467,1,0,0:0:0:0:
192,192,127592,1,0,0:0:0:0:
448,192,127717,1,0,0:0:0:0:
64,192,127842,1,0,0:0:0:0:
320,192,127967,1,0,0:0:0:0:
64,192,128092,1,0,0:0:0:0:
448,192,128217,1,0,0:0:0:0:
192,192,128342,1,0,0:0:0:0:
448,192,128467,1,0,0:0:0:0:
64,192,128592,1,0,0:0:0:0:
320,192,128592,1,0,0:0:0:0:
192,192,128717,1,0,0:0:0:0:
64,192,128842,1,0,0:0:0:0:
448,192,128842,1,0,0:0:0:0:
320,192,128967,1,0,0:0:0:0:
448,192,129092,1,0,0:0:0:0:
64,192,129092,1,0,0:0:0:0:
192,192,129217,1,0,0:0:0:0:
448,192,129342,1,0,0:0:0:0:
64,192,129467,1,0,0:0:0:0:
320,192,129592,1,0,0:0:0:0:
64,192,129717,1,0,0:0:0:0:
448,192,129842,1,0,0:0:0:0:
192,192,129967,1,0,0:0:0:0:
448,192,130092,1,0,0:0:0:0:
64,192,130217,1,0,0:0:0:0:
320,192,130342,1,0,0:0:0:0:
64,192,130467,1,0,0:0:0:0:
320,192,130592,1,0,0:0:0:0:
192,192,130592,1,0,0:0:0:0:
448,192,130717,1,0,0:0:0:0:
192,192,130842,1,0,0:0:0:0:
64,192,130842,1,0,0:0:0:0:
448,192,130967,1,0,0:0:0:0:
64,192,131092,1,0,0:0:0:0:
320,192,131092,1,0,0:0:0:0:
192,192,131217,1,0,0:0:0:0:
64,192,131342,1,0,0:0:0:0:
448,192,131467,1,0,0:0:0:0:
192,192,131592,1,0,0:0:0:0:
448,192,131717,1,0,0:0:0:0:
64,192,131842,1,0,0:0:0:0:
320,192,131967,1,0,0:0:0:0:
64,192,132092,1,0,0:0:0:0:
448,192,132217,1,0,0:0:0:0:
320,192,132342,1,0,0:0:0:0:
448,192,132467,1,0,0:0:0:0:
64,192,132592,1,0,0:0:0:0:
320,192,132592,1,0,0:0:0:0:
192,192,132717,1,0,0:0:0:0:
64,192,132842,1,0,0:0:0:0:
448,192,132842,1,0,0:0:0:0:
320,192,132967,1,0,0:0:0:0:
448,192,133092,1,0,0:0:0:0:
64,192,133092,1,0,0:0:0:0:
192,192,133217,1,0,0:0:0:0:
320,192,133342,1,0,0:0:0:0:
448,192,133467,1,0,0:0:0:0:
64,192,133467,1,0,0:0:0:0:
320,192,133592,1,0,0:0:0:0:
192,192,133717,1,0,0:0:0:0:
64,192,133842,1,0,0:0:0:0:
448,192,133842,1,0,0:0:0:0:
192,192,133967,1,0,0:0:0:0:
320,192,134092,1,0,0:0:0:0:
448,192,134217,1,0,0:0:0:0:
64,192,134217,1,0,0:0:0:0:
320,192,134342,1,0,0:0:0:0:
192,192,134467,1,0,0:0:0:0:
64,192,134592,1,0,0:0:0:0:
448,192,134592,1,0,0:0:0:0:
192,192,134717,1,0,0:0:0:0:
64,192,134842,1,0,0:0:0:0:
448,192,134842,1,0,0:0:0:0:
320,192,134967,1,0,0:0:0:0:
64,192,135092,1,0,0:0:0:0:
448,192,135092,1,0,0:0:0:0:
192,192,135217,1,0,0:0:0:0:
320,192,135342,1,0,0:0:0:0:
448,192,135467,1,0,0:0:0:0:
64,192,135467,1,0,0:0:0:0:
320,192,135592,1,0,0:0:0:0:
192,192,135717,1,0,0:0:0:0:
64,192,135842,1,0,0:0:0:0:
448,192,135842,1,0,0:0:0:0:
192,192,135967,1,0,0:0:0:0:
320,192,136092,1,0,0:0:0:0:
448,192,136217,1,0,0:0:0:0:
64,192,136217,1,0,0:0:0:0:
320,192,136342,1,0,0:0:0:0:
192,192,136467,1,0,0:0:0:0:
64,192,136592,1,0,0:0:0:0:
448,192,136592,1,0,0:0:0:0:
320,192,136717,1,0,0:0:0:0:
64,192,136842,1,0,0:0:0:0:
448,192,136842,1,0,0:0:0:0:
192,192,136967,1,0,0:0:0:0:
448,192,137092,1,0,0:0:0:0:
64,192,137092,1,0,0:0:0:0:
192,192,137217,1,0,0:0:0:0:
320,192,137342,1,0,0:0:0:0:
448,192,137467,1,0,0:0:0:0:
64,192,137467,1,0,0:0:0:0:
320,192,137592,1,0,0:0:0:0:
192,192,137717,1,0,0:0:0:0:
64,192,137842,1,0,0:0:0:0:
448,192,137842,1,0,0:0:0:0:
192,192,137967,1,0,0:0:0:0:
448,192,138092,1,0,0:0:0:0:
320,192,138092,1,0,0:0:0:0:
192,192,138217,1,0,0:0:0:0:
448,192,138342,1,0,0:0:0:0:
64,192,138342,1,0,0:0:0:0:
320,192,138467,1,0,0:0:0:0:
448,192,138592,1,0,0:0:0:0:
64,192,138592,1,0,0:0:0:0:
192,192,138717,1,0,0:0:0:0:
64,192,138842,1,0,0:0:0:0:
448,192,138842,1,0,0:0:0:0:
320,192,138967,1,0,0:0:0:0:
192,192,139092,1,0,0:0:0:0:
64,192,139092,1,0,0:0:0:0:
320,192,139217,1,0,0:0:0:0:
64,192,139342,1,0,0:0:0:0:
320,192,139467,1,0,0:0:0:0:
448,192,139467,1,0,0:0:0:0:
192,192,139592,1,0,0:0:0:0:
448,192,139717,1,0,0:0:0:0:
192,192,139842,1,0,0:0:0:0:
64,192,139842,1,0,0:0:0:0:
320,192,139967,1,0,0:0:0:0:
64,192,140092,1,0,0:0:0:0:
320,192,140217,1,0,0:0:0:0:
448,192,140217,1,0,0:0:0:0:
192,192,140342,1,0,0:0:0:0:
448,192,140467,1,0,0:0:0:0:
192,192,140592,1,0,0:0:0:0:
64,192,140592,1,0,0:0:0:0:
320,192,140717,1,0,0:0:0:0:
192,192,140842,1,0,0:0:0:0:
64,192,140842,1,0,0:0:0:0:
448,192,140967,1,0,0:0:0:0:
64,192,141092,1,0,0:0:0:0:
192,192,141092,1,0,0:0:0:0:
320,192,141217,1,0,0:0:0:0:
64,192,141342,1,0,0:0:0:0:
320,192,141467,1,0,0:0:0:0:
448,192,141467,1,0,0:0:0:0:
192,192,141592,1,0,0:0:0:0:
448,192,141717,1,0,0:0:0:0:
192,192,141842,1,0,0:0:0:0:
64,192,141842,1,0,0:0:0:0:
320,192,141967,1,0,0:0:0:0:
64,192,142092,1,0,0:0:0:0:
320,192,142217,1,0,0:0:0:0:
448,192,142217,1,0,0:0:0:0:
192,192,142342,1,0,0:0:0:0:
448,192,142467,1,0,0:0:0:0:
192,192,142592,1,0,0:0:0:0:
64,192,142592,1,0,0:0:0:0:
448,192,142717,1,0,0:0:0:0:
192,192,142842,1,0,0:0:0:0:
64,192,142842,1,0,0:0:0:0:
320,192,142967,1,0,0:0:0:0:
192,192,143092,1,0,0:0:0:0:
64,192,143092,1,0,0:0:0:0:
320,192,143217,1,0,0:0:0:0:
64,192,143342,1,0,0:0:0:0:
320,192,143467,1,0,0:0:0:0:
448,192,143467,1,0,0:0:0:0:
192,192,143592,1,0,0:0:0:0:
448,192,143717,1,0,0:0:0:0:
192,192,143842,1,0,0:0:0:0:
64,192,143842,1,0,0:0:0:0:
320,192,143967,1,0,0:0:0:0:
64,192,144092,1,0,0:0:0:0:
320,192,144217,1,0,0:0:0:0:
448,192,144217,1,0,0:0:0:0:
192,192,144342,1,0,0:0:0:0:
448,192,144467,1,0,0:0:0:0:
64,192,144592,1,0,0:0:0:0:
320,192,144592,1,0,0:0:0:0:
192,192,144717,1,0,0:0:0:0:
64,192,144842,1,0,0:0:0:0:
448,192,144842,1,0,0:0:0:0:
320,192,144967,1,0,0:0:0:0:
192,192,144967,1,0,0:0:0:0:
448,192,145092,128,0,145592:0:0:0:0:
64,192,145092,1,0,0:0:0:0:
192,192,145217,1,0,0:0:0:0:
320,192,145342,1,0,0:0:0:0:
64,192,145467,1,0,0:0:0:0:
192,192,145592,1,0,0:0:0:0:
320,192,145717,1,0,0:0:0:0:
448,192,145842,128,0,146342:0:0:0:0:
64,192,145842,1,0,0:0:0:0:
192,192,145967,1,0,0:0:0:0:
320,192,146092,1,0,0:0:0:0:
64,192,146217,1,0,0:0:0:0:
192,192,146342,1,0,0:0:0:0:
320,192,146467,1,0,0:0:0:0:
448,192,146592,128,0,146842:0:0:0:0:
64,192,146592,1,0,0:0:0:0:
320,192,146717,1,0,0:0:0:0:
192,192,146842,1,0,0:0:0:0:
320,192,146967,1,0,0:0:0:0:
64,192,147092,128,0,147592:0:0:0:0:
448,192,147092,1,0,0:0:0:0:
320,192,147217,1,0,0:0:0:0:
192,192,147342,1,0,0:0:0:0:
448,192,147467,1,0,0:0:0:0:
320,192,147592,1,0,0:0:0:0:
192,192,147717,1,0,0:0:0:0:
64,192,147842,128,0,148342:0:0:0:0:
448,192,147842,1,0,0:0:0:0:
320,192,147967,1,0,0:0:0:0:
192,192,148092,1,0,0:0:0:0:
448,192,148217,1,0,0:0:0:0:
320,192,148342,1,0,0:0:0:0:
192,192,148467,1,0,0:0:0:0:
64,192,148592,128,0,148842:0:0:0:0:
320,192,148592,1,0,0:0:0:0:
192,192,148717,1,0,0:0:0:0:
448,192,148842,1,0,0:0:0:0:
192,192,148967,1,0,0:0:0:0:
64,192,149092,1,0,0:0:0:0:
320,192,149092,1,0,0:0:0:0:
448,192,149092,128,0,149342:0:0:0:0:
192,192,149217,1,0,0:0:0:0:
320,192,149342,1,0,0:0:0:0:
64,192,149467,1,0,0:0:0:0:
192,192,149592,1,0,0:0:0:0:
320,192,149592,1,0,0:0:0:0:
448,192,149592,128,0,150092:0:0:0:0:
192,192,149842,1,0,0:0:0:0:
320,192,149842,1,0,0:0:0:0:
320,192,150092,1,0,0:0:0:0:
64,192,150092,1,0,0:0:0:0:
320,192,150342,1,0,0:0:0:0:
192,192,150342,1,0,0:0:0:0:
448,192,150342,128,0,150842:0:0:0:0:
64,192,150592,1,0,0:0:0:0:
320,192,150717,1,0,0:0:0:0:
192,192,150842,1,0,0:0:0:0:
192,192,151092,128,0,151592:0:0:0:0:
64,192,151092,1,0,0:0:0:0:
320,192,151217,1,0,0:0:0:0:
448,192,151342,1,0,0:0:0:0:
64,192,151467,1,0,0:0:0:0:
320,192,151592,1,0,0:0:0:0:
448,192,151717,1,0,0:0:0:0:
192,192,151842,128,0,152342:0:0:0:0:
64,192,151842,1,0,0:0:0:0:
320,192,151967,1,0,0:0:0:0:
448,192,152092,1,0,0:0:0:0:
64,192,152217,1,0,0:0:0:0:
320,192,152342,1,0,0:0:0:0:
448,192,152467,1,0,0:0:0:0:
192,192,152592,128,0,152842:0:0:0:0:
64,192,152592,1,0,0:0:0:0:
448,192,152717,1,0,0:0:0:0:
320,192,152842,1,0,0:0:0:0:
448,192,152967,1,0,0:0:0:0:
192,192,153092,1,0,0:0:0:0:
64,192,153092,128,0,153592:0:0:0:0:
320,192,153217,1,0,0:0:0:0:
448,192,153342,1,0,0:0:0:0:
192,192,153467,1,0,0:0:0:0:
320,192,153592,1,0,0:0:0:0:
448,192,153717,1,0,0:0:0:0:
192,192,153842,1,0,0:0:0:0:
64,192,153842,128,0,154342:0:0:0:0:
320,192,153967,1,0,0:0:0:0:
448,192,154092,1,0,0:0:0:0:
192,192,154217,1,0,0:0:0:0:
320,192,154342,1,0,0:0:0:0:
448,192,154467,1,0,0:0:0:0:
320,192,154592,1,0,0:0:0:0:
64,192,154592,128,0,154842:0:0:0:0:
448,192,154717,1,0,0:0:0:0:
192,192,154842,1,0,0:0:0:0:
448,192,154967,1,0,0:0:0:0:
64,192,155092,1,0,0:0:0:0:
320,192,155092,128,0,155592:0:0:0:0:
192,192,155217,1,0,0:0:0:0:
448,192,155342,1,0,0:0:0:0:
64,192,155467,1,0,0:0:0:0:
192,192,155592,1,0,0:0:0:0:
448,192,155717,1,0,0:0:0:0:
320,192,155842,128,0,156342:0:0:0:0:
64,192,155842,1,0,0:0:0:0:
192,192,155967,1,0,0:0:0:0:
448,192,156092,1,0,0:0:0:0:
64,192,156217,1,0,0:0:0:0:
192,192,156342,1,0,0:0:0:0:
448,192,156467,1,0,0:0:0:0:
320,192,156592,128,0,156842:0:0:0:0:
64,192,156592,1,0,0:0:0:0:
192,192,156717,1,0,0:0:0:0:
64,192,156842,1,0,0:0:0:0:
448,192,156967,1,0,0:0:0:0:
320,192,157092,128,0,157592:0:0:0:0:
64,192,157092,1,0,0:0:0:0:
192,192,157217,1,0,0:0:0:0:
448,192,157342,1,0,0:0:0:0:
64,192,157467,1,0,0:0:0:0:
192,192,157592,1,0,0:0:0:0:
448,192,157717,1,0,0:0:0:0:
320,192,157842,1,0,0:0:0:0:
64,192,157842,1,0,0:0:0:0:
192,192,157967,1,0,0:0:0:0:
64,192,158092,1,0,0:0:0:0:
320,192,158092,128,0,158592:0:0:0:0:
192,192,158217,1,0,0:0:0:0:
448,192,158342,1,0,0:0:0:0:
64,192,158467,1,0,0:0:0:0:
192,192,158592,1,0,0:0:0:0:
448,192,158717,1,0,0:0:0:0:
64,192,158842,1,0,0:0:0:0:
320,192,158842,1,0,0:0:0:0:
192,192,158967,1,0,0:0:0:0:
448,192,159092,128,0,159592:0:0:0:0:
64,192,159092,1,0,0:0:0:0:
192,192,159217,1,0,0:0:0:0:
320,192,159342,1,0,0:0:0:0:
64,192,159467,1,0,0:0:0:0:
192,192,159592,1,0,0:0:0:0:
320,192,159717,1,0,0:0:0:0:
448,192,159842,128,0,160592:0:0:0:0:
64,192,159842,1,0,0:0:0:0:
192,192,159967,1,0,0:0:0:0:
320,192,160092,1,0,0:0:0:0:
64,192,160217,1,0,0:0:0:0:
192,192,160342,1,0,0:0:0:0:
320,192,160467,1,0,0:0:0:0:
192,192,160592,1,0,0:0:0:0:
64,192,160717,1,0,0:0:0:0:
192,192,160842,1,0,0:0:0:0:
320,192,160967,1,0,0:0:0:0:
448,192,161092,128,0,161592:0:0:0:0:
64,192,161092,1,0,0:0:0:0:
192,192,161217,1,0,0:0:0:0:
320,192,161342,1,0,0:0:0:0:
64,192,161467,1,0,0:0:0:0:
192,192,161592,1,0,0:0:0:0:
320,192,161717,1,0,0:0:0:0:
64,192,161842,128,0,162342:0:0:0:0:
192,192,161842,1,0,0:0:0:0:
320,192,161967,1,0,0:0:0:0:
448,192,162092,1,0,0:0:0:0:
192,192,162217,1,0,0:0:0:0:
320,192,162342,1,0,0:0:0:0:
448,192,162467,1,0,0:0:0:0:
320,192,162592,128,0,162842:0:0:0:0:
64,192,162592,1,0,0:0:0:0:
192,192,162717,1,0,0:0:0:0:
64,192,162842,1,0,0:0:0:0:
192,192,162967,1,0,0:0:0:0:
448,192,163092,128,0,163592:0:0:0:0:
64,192,163092,1,0,0:0:0:0:
192,192,163217,1,0,0:0:0:0:
320,192,163342,1,0,0:0:0:0:
64,192,163467,1,0,0:0:0:0:
192,192,163592,1,0,0:0:0:0:
320,192,163717,1,0,0:0:0:0:
192,192,163842,128,0,164342:0:0:0:0:
448,192,163842,1,0,0:0:0:0:
320,192,163967,1,0,0:0:0:0:
64,192,164092,1,0,0:0:0:0:
448,192,164217,1,0,0:0:0:0:
320,192,164342,1,0,0:0:0:0:
64,192,164467,1,0,0:0:0:0:
320,192,164592,128,0,164842:0:0:0:0:
192,192,164592,1,0,0:0:0:0:
448,192,164717,1,0,0:0:0:0:
64,192,164842,1,0,0:0:0:0:
448,192,164967,1,0,0:0:0:0:
192,192,165092,128,0,165592:0:0:0:0:
64,192,165092,1,0,0:0:0:0:
320,192,165217,1,0,0:0:0:0:
448,192,165342,1,0,0:0:0:0:
64,192,165467,1,0,0:0:0:0:
320,192,165592,1,0,0:0:0:0:
448,192,165717,1,0,0:0:0:0:
64,192,165842,128,0,166342:0:0:0:0:
192,192,165842,1,0,0:0:0:0:
448,192,165967,1,0,0:0:0:0:
320,192,166092,1,0,0:0:0:0:
448,192,166217,1,0,0:0:0:0:
192,192,166342,1,0,0:0:0:0:
448,192,166467,1,0,0:0:0:0:
192,192,166592,128,0,166842:0:0:0:0:
64,192,166592,1,0,0:0:0:0:
448,192,166717,1,0,0:0:0:0:
320,192,166842,1,0,0:0:0:0:
448,192,166967,1,0,0:0:0:0:
320,192,167092,128,0,167592:0:0:0:0:
64,192,167092,1,0,0:0:0:0:
192,192,167217,1,0,0:0:0:0:
448,192,167342,1,0,0:0:0:0:
64,192,167467,1,0,0:0:0:0:
192,192,167592,1,0,0:0:0:0:
448,192,167717,1,0,0:0:0:0:
64,192,167842,128,0,168342:0:0:0:0:
192,192,167842,1,0,0:0:0:0:
320,192,167967,1,0,0:0:0:0:
448,192,168092,1,0,0:0:0:0:
192,192,168217,1,0,0:0:0:0:
320,192,168342,1,0,0:0:0:0:
448,192,168467,1,0,0:0:0:0:
320,192,168592,128,0,168842:0:0:0:0:
64,192,168592,1,0,0:0:0:0:
192,192,168717,1,0,0:0:0:0:
64,192,168842,1,0,0:0:0:0:
192,192,168967,1,0,0:0:0:0:
448,192,169092,128,0,169592:0:0:0:0:
64,192,169092,1,0,0:0:0:0:
192,192,169217,1,0,0:0:0:0:
320,192,169342,1,0,0:0:0:0:
64,192,169467,1,0,0:0:0:0:
192,192,169592,1,0,0:0:0:0:
320,192,169717,1,0,0:0:0:0:
192,192,169842,128,0,170342:0:0:0:0:
448,192,169842,1,0,0:0:0:0:
320,192,169967,1,0,0:0:0:0:
64,192,170092,1,0,0:0:0:0:
448,192,170217,1,0,0:0:0:0:
320,192,170342,1,0,0:0:0:0:
64,192,170467,1,0,0:0:0:0:
320,192,170592,128,0,170842:0:0:0:0:
192,192,170592,1,0,0:0:0:0:
448,192,170717,1,0,0:0:0:0:
64,192,170842,1,0,0:0:0:0:
448,192,170967,1,0,0:0:0:0:
320,192,171092,128,0,171592:0:0:0:0:
64,192,171092,1,0,0:0:0:0:
192,192,171217,1,0,0:0:0:0:
448,192,171342,1,0,0:0:0:0:
64,192,171467,1,0,0:0:0:0:
192,192,171592,1,0,0:0:0:0:
448,192,171717,1,0,0:0:0:0:
64,192,171842,128,0,172342:0:0:0:0:
192,192,171842,1,0,0:0:0:0:
320,192,171967,1,0,0:0:0:0:
448,192,172092,1,0,0:0:0:0:
192,192,172217,1,0,0:0:0:0:
320,192,172342,1,0,0:0:0:0:
448,192,172467,1,0,0:0:0:0:
320,192,172592,128,0,172842:0:0:0:0:
64,192,172592,1,0,0:0:0:0:
192,192,172717,1,0,0:0:0:0:
64,192,172842,1,0,0:0:0:0:
192,192,172967,1,0,0:0:0:0:
448,192,173092,128,0,173592:0:0:0:0:
64,192,173092,1,0,0:0:0:0:
192,192,173217,1,0,0:0:0:0:
320,192,173342,1,0,0:0:0:0:
64,192,173467,1,0,0:0:0:0:
192,192,173592,1,0,0:0:0:0:
320,192,173717,1,0,0:0:0:0:
448,192,173842,1,0,0:0:0:0:
64,192,173842,1,0,0:0:0:0:
192,192,173967,1,0,0:0:0:0:
320,192,174092,128,0,174592:0:0:0:0:
448,192,174092,1,0,0:0:0:0:
192,192,174217,1,0,0:0:0:0:
64,192,174342,1,0,0:0:0:0:
448,192,174467,1,0,0:0:0:0:
192,192,174592,1,0,0:0:0:0:
64,192,174717,1,0,0:0:0:0:
448,192,174842,1,0,0:0:0:0:
320,192,174967,1,0,0:0:0:0:
192,192,175092,128,0,175592:0:0:0:0:
64,192,175092,1,0,0:0:0:0:
320,192,175217,1,0,0:0:0:0:
448,192,175342,1,0,0:0:0:0:
64,192,175467,1,0,0:0:0:0:
320,192,175592,1,0,0:0:0:0:
448,192,175717,1,0,0:0:0:0:
192,192,175842,128,0,176592:0:0:0:0:
64,192,175842,1,0,0:0:0:0:
320,192,175967,1,0,0:0:0:0:
448,192,176092,1,0,0:0:0:0:
64,192,176217,1,0,0:0:0:0:
320,192,176342,1,0,0:0:0:0:
448,192,176467,1,0,0:0:0:0:
64,192,176592,1,0,0:0:0:0:
320,192,176592,1,0,0:0:0:0:
448,192,176717,1,0,0:0:0:0:
320,192,176842,1,0,0:0:0:0:
448,192,176967,1,0,0:0:0:0:
192,192,176967,1,0,0:0:0:0:
64,192,177092,5,0,0:0:0:0:
320,192,177092,1,0,0:0:0:0:
192,192,177342,1,0,0:0:0:0:
192,192,177842,1,0,0:0:0:0:
192,192,178342,1,0,0:0:0:0:
192,192,178842,1,0,0:0:0:0:
448,192,179092,1,0,0:0:0:0:
320,192,179092,1,0,0:0:0:0:
192,192,179342,1,0,0:0:0:0:
192,192,179842,1,0,0:0:0:0:
192,192,180342,1,0,0:0:0:0:
64,192,180592,1,0,0:0:0:0:
192,192,180842,1,0,0:0:0:0:
448,192,181092,1,0,0:0:0:0:
192,192,181092,1,0,0:0:0:0:
320,192,181342,1,0,0:0:0:0:
320,192,181842,1,0,0:0:0:0:
192,192,182092,1,0,0:0:0:0:
448,192,182092,1,0,0:0:0:0:
320,192,182342,1,0,0:0:0:0:
64,192,182592,1,0,0:0:0:0:
448,192,182592,1,0,0:0:0:0:
320,192,182842,1,0,0:0:0:0:
64,192,183092,1,0,0:0:0:0:
320,192,183092,1,0,0:0:0:0:
192,192,183342,1,0,0:0:0:0:
192,192,183842,1,0,0:0:0:0:
192,192,184342,1,0,0:0:0:0:
192,192,184842,1,0,0:0:0:0:
448,192,185092,1,0,0:0:0:0:
320,192,185092,1,0,0:0:0:0:
192,192,185342,1,0,0:0:0:0:
192,192,185842,1,0,0:0:0:0:
192,192,186342,1,0,0:0:0:0:
64,192,186592,1,0,0:0:0:0:
192,192,186842,1,0,0:0:0:0:
448,192,187092,1,0,0:0:0:0:
192,192,187092,1,0,0:0:0:0:
320,192,187342,1,0,0:0:0:0:
320,192,187842,1,0,0:0:0:0:
320,192,188342,1,0,0:0:0:0:
320,192,188842,1,0,0:0:0:0:
64,192,189092,5,0,0:0:0:0:
320,192,189092,1,0,0:0:0:0:
192,192,189342,1,0,0:0:0:0:
192,192,189842,1,0,0:0:0:0:
192,192,190342,1,0,0:0:0:0:
192,192,190842,1,0,0:0:0:0:
320,192,191092,1,0,0:0:0:0:
448,192,191092,1,0,0:0:0:0:
192,192,191342,1,0,0:0:0:0:
192,192,191842,1,0,0:0:0:0:
192,192,192342,1,0,0:0:0:0:
64,192,192592,1,0,0:0:0:0:
192,192,192842,1,0,0:0:0:0:
448,192,193092,1,0,0:0:0:0:
192,192,193092,1,0,0:0:0:0:
320,192,193342,1,0,0:0:0:0:
320,192,193842,1,0,0:0:0:0:
448,192,194092,1,0,0:0:0:0:
192,192,194092,1,0,0:0:0:0:
320,192,194342,1,0,0:0:0:0:
64,192,194592,1,0,0:0:0:0:
448,192,194592,1,0,0:0:0:0:
320,192,194842,1,0,0:0:0:0:
64,192,195092,1,0,0:0:0:0:
320,192,195092,1,0,0:0:0:0:
192,192,195342,1,0,0:0:0:0:
192,192,195842,1,0,0:0:0:0:
192,192,196342,1,0,0:0:0:0:
192,192,196842,1,0,0:0:0:0:
448,192,197092,1,0,0:0:0:0:
320,192,197092,1,0,0:0:0:0:
192,192,197342,1,0,0:0:0:0:
192,192,197842,1,0,0:0:0:0:
192,192,198342,1,0,0:0:0:0:
64,192,198592,1,0,0:0:0:0:
192,192,198842,1,0,0:0:0:0:
192,192,199092,1,0,0:0:0:0:
448,192,199092,1,0,0:0:0:0:
320,192,199342,1,0,0:0:0:0:
320,192,199842,1,0,0:0:0:0:
320,192,200342,1,0,0:0:0:0:
320,192,200842,1,0,0:0:0:0:
64,192,201092,128,0,205592:0:0:0:0:
192,192,201092,128,0,206092:0:0:0:0:
448,192,201092,1,0,0:0:0:0:
320,192,202592,1,0,0:0:0:0:
320,192,203092,128,0,206592:0:0:0:0:
448,192,203092,128,0,207092:0:0:0:0:
