osu file format v14

[General]
AudioFilename: green light.mp3
AudioLeadIn: 0
PreviewTime: 13977
Countdown: 0
SampleSet: Soft
StackLeniency: 0.6
Mode: 0
LetterboxInBreaks: 0
EpilepsyWarning: 1
WidescreenStoryboard: 1

[Editor]
Bookmarks: 14979,24036,33092,42149,51205,60262,69319,78375,87432,96488,105545,114602,123658,132715,141771,150828,159885,168941,177998,187054
DistanceSpacing: 0.8
BeatDivisor: 4
GridSize: 4
TimelineZoom: 1

[Metadata]
Title:Lv Guang
TitleUnicode:綠光
Artist:Stefanie Sun
ArtistUnicode:孫燕姿
Creator:liangv587
Version:Normal
Source:
Tags:green lights yan zi 绿光 孙燕姿 moonlightleaf
BeatmapID:737909
BeatmapSetID:333449

[Difficulty]
HPDrainRate:4
CircleSize:3
OverallDifficulty:4
ApproachRate:5
SliderMultiplier:2.4
SliderTickRate:1

[Events]
//Background and Video events
0,0,"gl.jpg",0,0
//Break Periods
2,69642,77299
//Storyboard Layer 0 (Background)
//Storyboard Layer 1 (Fail)
//Storyboard Layer 2 (Pass)
//Storyboard Layer 3 (Foreground)
//Storyboard Sound Samples

[TimingPoints]
15109,565.984341099896,4,2,1,70,1,0
33079,-100,4,2,1,70,0,0
51190,-100,4,2,1,70,0,0
87413,-100,4,2,1,70,0,0
132692,-125,4,2,1,70,0,0
150945,-100,4,2,1,80,0,1
169056,-100,4,2,1,70,0,0

[Colours]
Combo1 : 128,128,255
Combo2 : 0,128,0
Combo3 : 0,128,255
Combo4 : 128,255,128

[HitObjects]
256,192,10581,12,0,13977,0:0:0:0:
182,45,15108,6,0,P|136:59|81:106,2,120,6|2|8,1:0|0:1|0:0,0:0:0:0:
367,94,16240,2,0,P|412:79|467:32,2,120,2|2|8,0:1|0:1|0:0,0:0:0:0:
265,257,17372,6,0,B|315:292|382:278|382:278|449:262|497:296,2,240,2|8|2,0:1|0:0|0:1,0:0:0:0:
168,262,18787,2,0,P|114:287|54:265,2,120,2|8|2,0:1|0:0|0:0,0:0:0:0:
213,177,19636,6,0,P|273:159|332:191,2,120,2|2|8,1:0|0:1|0:0,0:0:0:0:
20,171,20768,2,0,P|15:105|19:45,2,120,2|2|8,0:1|0:1|0:0,0:0:0:0:
120,335,21900,5,2,0:1:0:0:
214,351,22183,1,2,0:1:0:0:
309,338,22466,2,0,B|347:290|338:222|338:222|326:154|364:109,1,240,8|2,0:0|0:1,0:0:0:0:
448,69,23315,1,2,0:1:0:0:
488,155,23598,2,0,P|491:208|467:280,1,120,8|2,0:0|3:2,0:0:0:0:
425,354,24164,6,0,P|368:336|309:337,1,120,4|2,1:2|0:1,0:0:0:0:
214,351,24730,1,8,0:0:0:0:
48,254,25296,2,0,P|111:258|173:249,1,120,2|2,0:1|0:1,0:0:0:0:
258,218,25862,1,8,0:0:0:0:
270,26,26428,6,0,B|216:0|151:26|151:26|85:50|33:27,2,240,2|8|2,0:1|0:0|0:1,0:0:0:0:
354,73,27843,1,2,0:1:0:0:
273,124,28126,2,0,P|215:137|154:126,1,120,8|2,0:0|0:0,0:0:0:0:
59,136,28692,6,0,P|42:194|47:253,2,120,2|2|8,0:1|0:1|0:0,0:0:0:0:
196,272,29824,2,0,P|253:259|320:265,1,120,2|2,0:1|0:1,0:0:0:0:
409,248,30390,2,0,P|432:195|425:123,1,120,8|2,0:0|0:0,0:0:0:0:
339,169,30956,6,0,B|267:176|228:132|228:132|220:65|272:21,2,240,2|8|2,0:1|0:0|0:1,0:0:0:0:
354,73,32371,1,2,0:1:0:0:
428,133,32654,2,0,P|432:193|409:248,1,120,8|2,0:0|0:0,0:0:0:0:
313,263,33220,6,0,B|272:302|274:371|274:371|194:363|185:299,1,240,6|2,1:0|1:0,0:0:0:0:
207,208,34069,2,0,P|113:98|113:231,1,360,2|2,0:0|1:0,0:0:0:0:
313,263,35484,6,0,B|365:282|391:347|391:347|461:308|444:246,1,240,2|2,1:0|1:0,0:0:0:0:
380,178,36333,2,0,P|406:42|470:174,1,360,2|2,0:0|1:0,0:0:0:0:
312,262,37748,6,0,P|248:164|256:46,1,240,2|2,1:0|1:0,0:0:0:0:
163,23,38597,2,0,P|159:198|260:348,1,360,2|2,0:0|1:0,0:0:0:0:
363,185,40012,6,0,B|413:75|413:75|476:188,1,240,2|2,1:0|1:0,0:0:0:0:
422,262,40861,2,0,B|371:372|371:372|314:267|314:267|184:273,1,360,2|2,0:0|1:0,0:0:0:0:
28,369,42276,6,0,B|8:251|8:251|29:129,1,240,4|2,1:2|1:0,0:0:0:0:
124,131,43125,2,0,B|144:249|144:249|122:370|122:370|241:362,1,360,2|2,0:0|1:0,0:0:0:0:
262,171,44540,6,0,B|239:43|239:43|355:34,1,240,4|2,1:2|1:0,0:0:0:0:
432,81,45389,2,0,L|453:201,1,120,2|2,0:0|1:0,0:0:0:0:
392,274,45955,2,0,B|404:338|404:338|346:343,1,120,2|2,0:0|1:0,0:0:0:0:
298,260,46521,1,2,0:0:0:0:
262,171,46804,6,0,P|149:158|59:236,1,240,2|2,1:0|1:0,0:0:0:0:
95,327,47653,2,0,P|207:339|297:261,1,240,2|2,0:0|0:0,0:0:0:0:
344,175,48502,1,2,1:0:0:0:
306,86,48785,1,2,0:0:0:0:
261,171,49068,6,0,P|330:256|422:197,1,240,2|2,1:0|1:0,0:0:0:0:
424,101,49917,2,0,L|306:86,1,120,2|0,0:0|0:0,0:0:0:0:
305,85,51331,6,0,P|260:44|204:24,2,120,4|2|8,1:2|0:1|0:0,0:0:0:0:
118,133,52463,2,0,P|62:153|18:195,2,120,2|2|8,0:1|0:1|0:0,0:0:0:0:
304,185,53595,6,0,B|355:206|377:271|377:271|401:336|457:360,2,240,2|8|2,0:1|0:0|0:1,0:0:0:0:
214,216,55010,2,0,P|210:275|231:330,2,120,2|8|2,0:1|0:0|3:2,0:0:0:0:
230,121,55859,6,0,P|170:103|109:109,2,120,2|2|8,0:1|0:1|0:0,0:0:0:0:
425,144,56991,2,0,P|430:78|426:18,2,120,2|2|8,0:1|0:1|0:0,0:0:0:0:
392,335,58123,5,2,0:1:0:0:
298,351,58406,1,2,0:1:0:0:
203,338,58689,2,0,B|165:290|174:222|174:222|186:154|148:109,1,240,8|2,0:0|0:1,0:0:0:0:
63,67,59538,1,2,0:1:0:0:
22,153,59821,2,0,P|23:221|40:276,1,120,8|2,0:0|3:2,0:0:0:0:
87,354,60387,6,0,P|144:336|203:337,1,120,4|2,1:0|0:1,0:0:0:0:
298,351,60953,1,8,0:0:0:0:
464,254,61519,2,0,P|401:258|339:249,1,120,2|2,0:1|0:1,0:0:0:0:
254,218,62085,1,8,0:0:0:0:
242,26,62651,6,0,B|296:0|361:26|361:26|427:50|479:27,2,240,2|8|2,0:1|0:0|0:1,0:0:0:0:
158,73,64066,1,2,0:1:0:0:
239,124,64349,2,0,P|297:137|358:126,1,120,8|2,0:0|3:2,0:0:0:0:
453,136,64915,6,0,P|470:194|465:253,2,120,2|2|8,0:1|0:1|0:0,0:0:0:0:
316,272,66047,2,0,P|259:259|192:265,1,120,2|2,0:1|0:1,0:0:0:0:
103,248,66613,2,0,P|80:195|87:123,1,120,8|2,0:0|3:2,0:0:0:0:
173,169,67179,6,0,B|245:176|284:132|284:132|292:65|240:21,2,240,2|8|2,0:1|0:0|0:1,0:0:0:0:
158,73,68594,1,2,0:1:0:0:
84,133,68877,2,0,P|80:193|103:248,2,120,12|2|0,0:0|1:2|0:0,0:0:0:0:
173,168,78499,6,0,P|239:238|143:244,1,240,2|8,0:0|0:3,0:0:0:0:
332,280,79631,2,0,P|381:303|430:354,2,120,2|2|8,0:0|0:0|0:3,0:0:0:0:
469,145,80763,6,0,P|448:51|390:128,1,240,2|8,0:0|0:3,0:0:0:0:
211,53,81895,2,0,P|152:47|86:60,2,120,2|2|8,0:0|0:0|0:3,0:0:0:0:
76,190,83027,6,0,P|96:283|155:208,1,240,2|8,0:0|0:3,0:0:0:0:
306,326,84159,2,0,P|363:353|429:355,2,120,2|2|8,0:0|0:0|0:3,0:0:0:0:
238,147,85291,6,0,B|267:31|267:31|208:54,1,180,2|2,0:1|0:1,0:0:0:0:
340,115,86140,2,0,B|459:104|459:104|418:56,2,180,2|0|8,0:1|3:0|0:3,0:0:0:0:
281,297,87554,6,0,B|258:358|192:370|192:370|131:322|147:262,1,240,6|8,0:0|0:3,0:0:0:0:
162,173,88403,2,0,B|142:55|142:55|41:124|41:124|54:244,1,360,2|8,0:0|0:3,0:0:0:0:
244,214,89818,6,0,B|311:193|355:243|355:243|414:206|474:244,1,240,2|8,0:0|0:3,0:0:0:0:
506,151,90667,2,0,B|485:33|485:33|411:132|411:132|385:9,1,360,2|8,0:0|0:3,0:0:0:0:
194,50,92082,6,0,P|133:150|145:268,1,240,2|8,0:0|0:3,0:0:0:0:
81,340,92931,2,0,P|35:173|109:2,1,360,2|8,0:0|0:3,0:0:0:0:
281,83,94346,6,0,B|295:129|290:203|290:203|335:147|388:118,1,240,2|8,0:0|0:3,0:0:0:0:
402,217,95195,2,0,B|354:286|311:295|311:295|247:307|210:253|210:253|185:212|200:130,1,360,2|8,0:0|0:3,0:0:0:0:
33,36,96610,6,0,B|43:159|43:159|86:184|86:184|92:267,1,240,6|8,0:1|0:3,0:0:0:0:
102,346,97459,2,0,B|165:340|165:340|204:378|204:378|242:334|242:334|229:211|229:211|292:204,1,360,2|8,0:0|0:3,0:0:0:0:
480,183,98874,6,0,B|503:55|503:55|387:46,1,240,6|8,0:0|0:3,0:0:0:0:
316,104,99723,2,0,L|193:94,1,120,6|2,0:0|0:1,0:0:0:0:
145,175,100289,2,0,B|157:239|157:239|99:244,1,120,6|8,0:1|0:3,0:0:0:0:
48,163,100855,1,0,0:0:0:0:
108,88,101138,6,0,B|213:97|213:97|244:231,1,240,2|8,0:0|0:3,0:0:0:0:
216,320,101987,2,0,B|268:330|318:309|338:249|338:249|317:157,1,240,2|6,0:0|0:1,0:0:0:0:
293,73,102836,1,8,0:3:0:0:
374,20,103119,1,0,0:0:0:0:
451,80,103402,6,0,B|444:136|413:169|413:169|432:249|432:249|407:316,1,240,2|8,0:0|0:3,0:0:0:0:
329,358,104251,2,0,L|216:320,1,120,2|0,0:0|1:0,0:0:0:0:
215,319,105666,6,0,P|156:344|85:343,2,120,4|2|8,1:2|0:1|0:0,0:0:0:0:
115,154,106798,2,0,P|71:118|28:44,2,120,2|2|8,0:1|0:1|0:0,0:0:0:0:
284,244,107930,6,0,B|319:194|305:127|305:127|289:60|323:12,2,240,2|8|2,0:1|0:0|0:1,0:0:0:0:
316,334,109345,2,0,P|370:359|432:341,2,120,2|8|2,0:1|0:0|3:2,0:0:0:0:
379,261,110194,6,0,P|438:248|492:271,2,120,2|2|8,0:1|0:1|0:0,0:0:0:0:
214,160,111326,2,0,P|204:97|211:35,2,120,2|2|8,0:1|0:1|0:0,0:0:0:0:
304,329,112458,5,2,0:1:0:0:
213,360,112741,1,2,0:1:0:0:
117,347,113024,2,0,B|82:296|96:229|96:229|112:162|78:114,1,240,8|2,0:0|0:1,0:0:0:0:
9,50,113873,1,2,0:1:0:0:
103,30,114156,2,0,P|162:32|221:63,1,120,8|2,0:0|3:2,0:0:0:0:
280,129,114722,6,0,P|345:125|408:133,1,120,4|2,1:0|0:1,0:0:0:0:
493,152,115288,1,8,0:0:0:0:
327,248,115854,2,0,P|264:252|202:243,1,120,2|2,0:1|0:1,0:0:0:0:
117,210,116420,1,8,0:0:0:0:
242,358,116986,6,0,B|296:384|361:358|361:358|427:334|479:357,2,240,2|8|2,0:1|0:0|0:1,0:0:0:0:
158,311,118401,1,2,0:1:0:0:
239,260,118684,2,0,P|297:247|358:258,1,120,8|2,0:0|3:2,0:0:0:0:
453,248,119250,6,0,P|470:190|465:131,2,120,2|2|8,0:1|0:1|0:0,0:0:0:0:
316,112,120382,2,0,P|259:125|192:119,1,120,2|2,0:1|0:1,0:0:0:0:
103,136,120948,2,0,P|80:189|87:261,1,120,8|2,0:0|3:2,0:0:0:0:
173,215,121514,6,0,B|245:208|284:252|284:252|288:318|240:363,2,240,2|8|2,0:1|0:0|0:1,0:0:0:0:
158,311,122929,1,2,0:1:0:0:
84,251,123212,2,0,P|80:191|103:136,1,120,12|0,0:0|1:0,0:0:0:0:
194,108,123777,6,0,P|232:60|253:-4,2,120,2|2|8,0:1|0:1|0:0,0:0:0:0:
284,277,124909,2,0,P|387:327|467:233,1,240,2|8,0:1|0:0,0:0:0:0:
474,153,125758,1,0,3:0:0:0:
411,80,126041,6,0,P|352:83|288:104,1,120,2|2,0:1|0:1,0:0:0:0:
250,186,126607,1,8,0:0:0:0:
160,355,127173,2,0,P|45:284|59:191,1,240,2|8,0:1|0:0,0:0:0:0:
143,154,128022,1,0,3:0:0:0:
231,195,128305,6,0,P|293:203|358:195,1,120,2|2,0:1|0:1,0:0:0:0:
436,155,128871,1,8,0:0:0:0:
279,42,129437,2,0,P|167:46|144:156,1,240,2|8,0:1|0:0,0:0:0:0:
231,195,130286,1,0,3:0:0:0:
160,259,130569,6,0,P|107:265|41:259,2,120,2|2|8,0:1|0:1|0:0,0:0:0:0:
344,312,131701,2,0,P|401:307|465:312,2,120,2|0|8,3:1|0:0|0:1,0:0:0:0:
460,198,132833,6,0,P|481:109|413:42,1,192,6|8,0:1|0:3,0:0:0:0:
291,133,133965,2,0,P|199:129|162:40,1,192,2|8,0:1|0:1,0:0:0:0:
38,139,135097,2,0,P|26:228|101:285,1,192,2|8,0:1|0:3,0:0:0:0:
242,226,136229,2,0,P|296:308|238:379,1,192,2|8,0:1|0:1,0:0:0:0:
394,327,137361,6,0,P|449:257|398:174,1,192,2|8,0:1|0:3,0:0:0:0:
267,105,138493,2,0,P|297:44|411:64,1,192,2|8,0:1|0:1,0:0:0:0:
315,181,139625,2,0,P|214:188|126:164,1,192,2|8,0:1|0:3,0:0:0:0:
12,268,140757,2,0,P|90:297|204:316,1,192,2|8,0:1|0:1,0:0:0:0:
340,260,141889,6,0,P|394:193|458:251,1,192,2|8,0:1|0:3,0:0:0:0:
341,351,143021,2,0,P|249:346|144:321,1,192,2|8,0:1|0:1,0:0:0:0:
232,192,144153,2,0,P|290:113|381:81,1,192,2|8,0:1|0:3,0:0:0:0:
233,22,145285,2,0,P|167:90|120:176,1,192,2|8,0:1|0:1,0:0:0:0:
151,323,146417,6,0,P|267:296|303:225,1,192,0|8,0:1|0:3,0:0:0:0:
337,89,147549,2,0,P|416:144|451:236,1,192,2|8,0:1|0:1,0:0:0:0:
300,238,148681,2,0,P|205:233|109:215,2,192,2|8|2,0:1|0:3|0:1,0:0:0:0:
300,238,150945,6,0,P|367:242|424:236,2,120,4|2|8,1:2|0:1|0:0,0:0:0:0:
339,49,152077,2,0,P|398:46|466:29,2,120,2|2|8,0:1|0:1|0:0,0:0:0:0:
216,196,153209,6,0,B|159:174|133:110|133:110|108:46|53:25,2,240,2|8|2,0:1|0:0|0:1,0:0:0:0:
230,291,154624,2,0,P|193:337|129:349,2,120,2|8|2,0:1|0:0|3:2,0:0:0:0:
141,255,155473,6,0,P|82:270|44:315,2,120,2|2|8,0:1|0:1|0:0,0:0:0:0:
312,168,156605,2,0,P|322:105|315:43,2,120,2|2|8,0:1|0:1|0:0,0:0:0:0:
208,329,157737,5,2,0:1:0:0:
299,360,158020,1,2,0:1:0:0:
395,347,158303,2,0,B|430:296|416:229|416:229|400:162|434:114,1,240,8|2,0:0|0:1,0:0:0:0:
503,50,159152,1,2,0:1:0:0:
409,30,159435,2,0,P|350:32|291:63,1,120,8|2,0:0|3:2,0:0:0:0:
232,129,160001,6,0,P|167:125|104:133,1,120,6|2,0:1|0:1,0:0:0:0:
19,152,160567,1,8,0:0:0:0:
185,248,161133,2,0,P|248:252|310:243,1,120,2|2,0:1|0:1,0:0:0:0:
395,210,161699,1,8,0:0:0:0:
270,358,162265,6,0,B|216:384|151:358|151:358|85:334|33:357,2,240,2|8|2,0:1|0:0|0:1,0:0:0:0:
354,311,163680,1,2,0:1:0:0:
273,260,163963,2,0,P|215:247|154:258,1,120,8|2,0:0|3:2,0:0:0:0:
59,248,164529,6,0,P|42:190|47:131,2,120,2|2|8,0:1|0:1|0:0,0:0:0:0:
196,112,165661,2,0,P|253:125|320:119,1,120,2|2,0:1|0:1,0:0:0:0:
409,136,166227,2,0,P|432:189|425:261,1,120,8|2,0:0|3:2,0:0:0:0:
339,215,166793,6,0,B|267:208|228:252|228:252|224:318|272:363,2,240,2|8|2,0:1|0:0|0:1,0:0:0:0:
354,311,168208,1,2,0:1:0:0:
428,251,168491,2,0,P|432:191|409:136,1,120,8|2,0:0|0:0,0:0:0:0:
313,120,169056,6,0,P|286:61|294:4,2,120,4|0|8,3:2|1:0|3:0,0:0:0:0:
124,160,170188,2,0,P|87:115|70:55,2,120,0|0|8,3:0|1:0|3:0,0:0:0:0:
136,352,171320,6,0,P|65:356|16:344,1,120,0|0,0:0|1:0,0:0:0:0:
21,248,171886,2,0,B|82:233|141:257|141:257|195:278|258:258,1,240,8|0,3:0|0:0,0:0:0:0:
298,171,172735,1,0,1:0:0:0:
352,249,173018,1,8,3:0:0:0:
385,59,173584,6,0,P|444:53|497:79,2,120,0|0|8,3:0|1:0|3:0,0:0:0:0:
206,131,174716,2,0,P|186:78|194:16,2,120,0|0|8,3:0|1:0|3:0,0:0:0:0:
274,310,175848,6,0,P|345:314|394:302,1,120,0|0,3:0|3:0,0:0:0:0:
384,206,176414,2,0,B|323:191|264:215|264:215|210:236|147:216,1,240,8|0,3:0|0:0,0:0:0:0:
71,159,177263,1,0,1:0:0:0:
61,254,177546,1,8,3:0:0:0:
206,131,178112,6,0,P|265:112|329:105,2,120,2|2|8,0:1|0:1|0:1,0:0:0:0:
274,310,179244,2,0,P|345:314|394:302,2,120,2|2|8,0:1|0:1|0:1,0:0:0:0:
114,200,180376,6,0,B|78:208|32:205|32:205|25:259|74:284|54:368,2,240,0|8|0,0:0|0:1|0:0,0:0:0:0:
207,175,181791,1,2,0:1:0:0:
296,141,182074,2,0,P|294:62|278:9,1,120,8|0,0:1|3:0,0:0:0:0:
377,43,182640,6,0,P|440:42|515:26,1,120,2|2,3:1|3:1,0:0:0:0:
477,126,183206,2,0,B|464:188|482:246|482:246|464:304|479:366,2,240,8|2|8,3:2|3:1|3:2,0:0:0:0:
335,255,184904,5,8,1:2:0:0:
146,293,185470,1,8,1:2:0:0:
204,110,186036,1,8,1:0:0:0:
269,181,186319,1,2,1:0:0:0:
176,202,186602,1,2,1:0:0:0:
