osu file format v14

[General]
AudioFilename: green light.mp3
AudioLeadIn: 0
PreviewTime: 13977
Countdown: 0
SampleSet: Soft
StackLeniency: 0.6
Mode: 0
LetterboxInBreaks: 0
EpilepsyWarning: 1
WidescreenStoryboard: 1

[Editor]
Bookmarks: 14979,15108,24036,33092,42149,51205,60262,69319,78375,87432,96488,105545,114602,123658,132715,141771,150828,159885,168941,177998,187054
DistanceSpacing: 1.2
BeatDivisor: 4
GridSize: 4
TimelineZoom: 1

[Metadata]
Title:Lv Guang
TitleUnicode:綠光
Artist:Stefanie Sun
ArtistUnicode:孫燕姿
Creator:liangv587
Version:Insane
Source:
Tags:green lights yan zi 绿光 孙燕姿 moonlightleaf
BeatmapID:737908
BeatmapSetID:333449

[Difficulty]
HPDrainRate:6
CircleSize:4
OverallDifficulty:8
ApproachRate:9
SliderMultiplier:3.2
SliderTickRate:2

[Events]
//Background and Video events
0,0,"gl.jpg",0,0
//Break Periods
2,78698,84691
//Storyboard Layer 0 (Background)
//Storyboard Layer 1 (Fail)
//Storyboard Layer 2 (Pass)
//Storyboard Layer 3 (Foreground)
//Storyboard Sound Samples

[TimingPoints]
15109,565.984341099896,4,2,1,70,1,0
33079,-133.333333333333,4,2,1,70,0,0
51190,-100,4,2,1,70,0,0
87413,-133.333333333333,4,2,1,70,0,0
105524,-100,4,2,1,70,0,0
132692,-133.333333333333,4,2,1,70,0,0
149671,-100,4,2,1,70,0,0
150945,-90.9090909090909,4,2,1,80,0,1
169056,-100,4,2,1,70,0,0

[Colours]
Combo1 : 128,128,255
Combo2 : 0,128,0
Combo3 : 0,128,255
Combo4 : 128,255,128

[HitObjects]
256,192,10581,12,0,13977,0:0:0:0:
479,330,15108,6,0,P|450:347|398:345,1,80,6|0,1:0|3:0,0:0:0:0:
422,252,15391,2,0,B|407:197|407:197|424:91,1,160,2|8,0:1|0:0,0:0:0:0:
180,135,16099,1,0,3:0:0:0:
103,72,16240,2,0,P|63:70|28:89,1,80,2|0,0:1|3:0,0:0:0:0:
89,164,16523,2,0,B|105:265|105:265|90:320,1,160,2|8,0:1|0:0,0:0:0:0:
267,100,17231,6,0,P|344:81|422:94,1,160,0|0,3:0|3:0,0:0:0:0:
488,165,17655,2,0,L|483:256,1,80,2|0,0:1|3:0,0:0:0:0:
349,362,17938,2,0,B|334:306|334:306|355:196,1,160,8|2,0:0|0:0,0:0:0:0:
246,349,18363,2,0,L|146:360,1,80,0|2,3:0|0:1,0:0:0:0:
257,266,18646,1,8,0:0:0:0:
224,179,18787,1,2,0:1:0:0:
495,45,19070,1,8,0:0:0:0:
188,98,19353,1,2,0:0:0:0:
483,244,19636,6,0,P|444:255|392:255,1,80,2|0,1:0|3:0,0:0:0:0:
224,179,19919,2,0,P|311:162|384:169,1,160,2|8,0:1|0:0,0:0:0:0:
74,337,20627,1,0,3:0:0:0:
19,248,20768,2,0,P|17:212|24:163,1,80,2|0,0:1|3:0,0:0:0:0:
138,27,21051,2,0,P|137:114|119:187,2,160,2|8|0,0:1|0:0|0:0,0:0:0:0:
179,285,21900,5,2,0:1:0:0:
324,136,22183,1,2,0:1:0:0:
388,353,22466,2,0,P|468:323|487:251,1,160,8|2,0:0|0:0,0:0:0:0:
467,154,22891,1,0,3:0:0:0:
315,255,23032,2,0,L|394:260,1,80,2|8,0:1|0:0,0:0:0:0:
249,192,23315,1,2,0:1:0:0:
406,56,23598,1,8,0:0:0:0:
160,200,23881,2,0,L|65:193,1,80,2|0,3:2|3:0,0:0:0:0:
225,110,24164,6,0,L|226:18,1,80,4|0,1:2|3:0,0:0:0:0:
324,136,24447,1,2,0:1:0:0:
60,274,24730,2,0,L|219:286,1,160,8|0,0:0|0:0,0:0:0:0:
324,294,25155,1,0,3:0:0:0:
122,361,25296,2,0,L|27:354,1,80,2|0,0:1|3:0,0:0:0:0:
208,370,25579,1,2,0:1:0:0:
487,229,25862,2,0,L|327:216,1,160,8|0,0:0|0:0,0:0:0:0:
219,286,26287,6,0,B|160:200|160:200|224:205,1,160,0|0,3:0|3:0,0:0:0:0:
324,294,26711,1,2,0:1:0:0:
208,370,26853,1,0,3:0:0:0:
327,216,26994,2,0,B|331:110|331:110|270:140,1,160,8|2,0:0|0:0,0:0:0:0:
426,155,27419,2,0,L|501:117,1,80,0|2,3:0|0:1,0:0:0:0:
487,229,27702,1,8,0:0:0:0:
482,332,27843,1,2,0:1:0:0:
320,374,28126,1,8,0:0:0:0:
427,53,28409,1,2,0:0:0:0:
215,204,28692,6,0,L|130:197,1,80,2|0,0:1|3:0,0:0:0:0:
219,286,28975,1,2,0:1:0:0:
122,101,29258,1,8,0:0:0:0:
42,355,29683,1,0,3:0:0:0:
110,276,29824,2,0,L|189:282,1,80,2|0,0:1|3:0,0:0:0:0:
75,187,30107,2,0,B|88:120|88:120|52:25,1,160,2|8,0:1|0:0,0:0:0:0:
7,266,30673,1,2,0:0:0:0:
213,24,30956,5,2,0:1:0:0:
227,267,31239,1,2,0:1:0:0:
335,70,31522,2,0,P|423:51|497:69,1,160,8|2,0:0|0:0,0:0:0:0:
492,170,31947,1,0,3:0:0:0:
409,233,32088,2,0,P|366:232|324:222,1,80,2|8,0:1|0:0,0:0:0:0:
248,113,32371,2,0,P|252:199|225:273,1,160,2|8,0:1|0:0,0:0:0:0:
145,364,32937,1,2,0:0:0:0:
327,337,33220,6,0,P|384:336|450:348,1,120.000004577637,6|0,1:0|0:0,0:0:0:0:
492,170,33786,2,0,P|429:155|369:154,1,120.000004577637,2|2,1:0|0:0,0:0:0:0:
227,212,34352,1,2,1:0:0:0:
327,337,34635,1,0,0:0:0:0:
373,153,34918,1,2,1:0:0:0:
274,28,35201,1,2,0:0:0:0:
139,242,35484,6,0,B|87:270|43:242|43:242|80:184|44:154|68:100,1,240.000009155274,2|2,1:0|1:0,0:0:0:0:
228,212,36333,1,2,0:0:0:0:
327,337,36616,2,0,P|275:367|208:361,1,120.000004577637,2|0,1:0|0:0,0:0:0:0:
204,287,37040,1,0,0:0:0:0:
228,212,37182,2,0,P|280:182|347:188,1,120.000004577637,2|2,1:0|0:0,0:0:0:0:
356,260,37606,1,0,0:0:0:0:
330,108,37748,6,0,B|326:78|326:78|419:113,1,120.000004577637,6|0,1:0|0:0,0:0:0:0:
419,187,38172,1,0,0:0:0:0:
427,265,38314,2,0,B|429:295|429:295|504:245,1,120.000004577637,2|2,1:0|0:0,0:0:0:0:
489,89,38880,1,2,1:0:0:0:
338,184,39163,1,0,0:0:0:0:
373,339,39446,1,2,1:0:0:0:
225,289,39729,1,2,0:0:0:0:
190,134,40012,6,0,P|200:65|253:35,1,120.000004577637,2|0,1:0|0:0,0:0:0:0:
251,203,40578,1,2,1:0:0:0:
143,316,40861,2,0,P|78:319|19:310,1,120.000004577637,2|2,0:0|1:0,0:0:0:0:
86,135,41427,2,0,P|106:189|82:242,2,120.000004577637,0|2|2,0:0|1:0|0:0,0:0:0:0:
225,289,42276,6,0,P|290:292|349:283,1,120.000004577637,4|0,1:2|0:0,0:0:0:0:
490,229,42842,1,2,1:0:0:0:
348,51,43125,2,0,L|346:170,1,120.000004577637,2|2,0:0|1:0,0:0:0:0:
345,327,43691,1,0,0:0:0:0:
437,153,43974,2,0,L|438:33,1,120.000004577637,2|2,1:0|0:0,0:0:0:0:
256,190,44540,6,0,B|193:203|146:173|121:128|121:128|91:169|109:209,1,240.000009155274,4|2,1:2|1:0,0:0:0:0:
222,87,45389,2,0,P|185:37|126:15,1,120.000004577637,4|2,0:0|1:0,0:0:0:0:
9,232,45955,2,0,P|46:282|105:304,1,120.000004577637,4|2,0:1|1:0,0:0:0:0:
254,295,46521,1,2,0:0:0:0:
222,87,46804,6,0,L|179:146,1,60.0000022888184,2|0,1:0|0:0,0:0:0:0:
317,112,47087,2,0,L|293:56,1,60.0000022888184
256,190,47370,2,0,L|328:197,1,60.0000022888184,2|0,1:0|0:0,0:0:0:0:
408,133,47653,1,2,0:0:0:0:
462,351,47936,1,2,1:0:0:0:
498,154,48219,2,0,P|490:89|450:49,1,120.000004577637,4|2,0:1|1:0,0:0:0:0:
297,17,48785,1,2,0:0:0:0:
255,189,49068,6,0,L|323:192,1,60.0000022888184,2|0,1:0|0:0,0:0:0:0:
393,196,49351,1,0,0:0:0:0:
254,295,49634,2,0,L|186:292,1,60.0000022888184,2|0,1:0|0:0,0:0:0:0:
116,288,49917,1,2,0:0:0:0:
33,122,50200,2,0,L|92:124,1,60.0000022888184,0|0,0:0|3:0,0:0:0:0:
106,202,50483,2,0,P|158:171|169:114,2,120.000004577637,0|0|2,0:0|3:0|0:0,0:0:0:0:
111,37,51331,6,0,L|31:33,1,80,4|0,1:2|3:0,0:0:0:0:
237,42,51614,2,0,P|269:112|237:190,2,160,2|8|0,0:1|0:0|0:0,0:0:0:0:
170,116,52322,1,0,3:0:0:0:
241,185,52463,2,0,L|342:170,1,80,2|0,0:1|3:0,0:0:0:0:
174,259,52746,2,0,P|142:189|174:111,2,160,2|8|0,0:1|0:0|0:0,0:0:0:0:
278,265,53454,6,0,B|369:251|369:251|437:257,1,160,0|0,3:0|3:0,0:0:0:0:
472,355,53878,1,2,0:1:0:0:
368,342,54020,1,0,3:0:0:0:
458,177,54161,2,0,P|474:99|454:22,1,160,8|2,0:0|0:0,0:0:0:0:
389,105,54586,2,0,L|306:98,1,80,0|2,3:0|0:1,0:0:0:0:
369,17,54869,1,8,0:0:0:0:
299,185,55010,2,0,B|367:191|367:191|458:177,2,160,2|8|2,0:1|0:0|3:2,0:0:0:0:
194,174,55718,1,0,3:0:0:0:
266,100,55859,6,0,L|258:18,1,80,2|0,0:1|3:0,0:0:0:0:
194,174,56142,2,0,L|211:339,2,160,2|8|0,0:1|0:0|0:0,0:0:0:0:
178,70,56850,1,0,3:0:0:0:
102,141,56991,2,0,L|20:149,1,80,2|0,0:1|3:0,0:0:0:0:
178,70,57274,2,0,L|337:53,2,160,2|8|2,0:1|0:0|3:2,0:0:0:0:
102,141,57982,1,0,3:0:0:0:
76,43,58123,6,0,L|92:202,1,160,2|2,0:1|0:1,0:0:0:0:
112,339,58689,1,8,0:0:0:0:
189,146,58972,1,2,0:0:0:0:
202,249,59114,2,0,L|281:241,1,80,0|2,3:0|0:1,0:0:0:0:
385,227,59397,1,8,0:0:0:0:
419,338,59538,2,0,P|418:272|442:178,1,160,2|8,0:1|0:0,0:0:0:0:
483,85,59963,1,0,1:0:0:0:
328,160,60104,2,0,L|310:237,1,80,2|0,3:2|3:0,0:0:0:0:
266,100,60387,6,0,L|284:23,1,80,4|0,1:0|3:0,0:0:0:0:
189,146,60670,2,0,P|152:201|80:265,2,160,2|8|0,0:1|0:0|0:0,0:0:0:0:
181,41,61378,1,0,3:0:0:0:
328,160,61519,2,0,P|379:163|412:156,1,80,2|0,0:1|3:0,0:0:0:0:
281,240,61802,1,2,0:1:0:0:
13,211,62085,2,0,P|32:147|82:65,1,160,8|0,0:0|0:0,0:0:0:0:
124,206,62510,6,0,P|167:275|240:330,1,160,0|0,3:0|3:0,0:0:0:0:
331,336,62934,1,2,0:1:0:0:
387,247,63076,1,0,3:0:0:0:
328,159,63217,2,0,P|251:132|160:133,1,160,8|2,0:0|0:0,0:0:0:0:
235,35,63642,2,0,P|276:28|315:28,1,80,0|2,3:0|0:1,0:0:0:0:
399,88,63925,1,8,0:0:0:0:
173,131,64066,2,0,P|89:121|18:74,1,160,2|8,0:1|0:0,0:0:0:0:
399,88,64632,2,0,P|438:88|479:81,1,80,2|0,3:2|3:0,0:0:0:0:
314,28,64915,6,0,P|272:28|234:35,1,80,2|0,0:1|3:0,0:0:0:0:
328,159,65198,2,0,P|396:199|475:208,2,160,2|8|0,0:1|0:0|0:0,0:0:0:0:
256,78,65906,1,0,3:0:0:0:
231,227,66047,2,0,P|233:268|246:308,1,80,2|0,0:1|3:0,0:0:0:0:
337,353,66330,1,2,0:1:0:0:
162,361,66613,2,0,P|138:288|133:202,1,160,8|2,0:0|3:2,0:0:0:0:
221,148,67038,1,0,3:0:0:0:
181,52,67179,6,0,P|104:88|28:93,1,160,2|2,0:1|0:1,0:0:0:0:
235,180,67745,2,0,P|312:144|388:139,1,160,8|0,0:0|0:0,0:0:0:0:
323,251,68170,2,0,P|324:294|339:345,1,80,0|2,3:0|0:1,0:0:0:0:
412,226,68453,1,8,0:0:0:0:
244,304,68594,2,0,P|172:286|115:214,1,160,2|12,0:1|0:0,0:0:0:0:
136,119,69019,1,0,3:0:0:0:
21,198,69160,2,0,P|23:238|36:278,1,80,2|0,1:2|1:0,0:0:0:0:
235,180,69443,6,0,P|249:95|208:28,1,160,0|2,0:0|0:0,0:0:0:0:
111,16,69867,1,0,0:0:0:0:
318,64,70009,2,0,P|361:65|405:59,1,80,2|0,0:3|0:0,0:0:0:0:
497,31,70292,1,2,0:0:0:0:
468,130,70433,1,0,0:0:0:0:
314,184,70575,2,0,P|274:183|234:179,1,80
370,248,70858,2,0,P|371:291|375:328,1,80,2|0,0:0|0:0,0:0:0:0:
394,167,71141,1,2,0:3:0:0:
141,361,71424,2,0,P|94:354|55:340,1,80,2|0,0:0|0:0,0:0:0:0:
164,271,71707,6,0,P|211:278|250:292,1,80
73,209,71990,2,0,P|67:123|75:36,1,160,2|2,0:0|0:3,0:0:0:0:
171,15,72414,1,0,0:0:0:0:
154,170,72556,2,0,P|193:177|237:178,1,80,2|0,0:0|0:0,0:0:0:0:
301,99,72839,2,0,P|262:92|218:91,1,80
330,214,73122,2,0,P|324:293|330:373,1,160,2|2,0:0|0:3,0:0:0:0:
433,358,73546,1,0,0:0:0:0:
434,253,73688,1,2,0:0:0:0:
178,250,73971,5,0,0:0:0:0:
177,355,74113,1,0,0:0:0:0:
88,301,74254,2,0,L|7:294,1,80,2|0,0:0|0:0,0:0:0:0:
270,299,74537,2,0,L|349:305,1,80,2|0,0:3|0:0,0:0:0:0:
87,187,74820,2,0,L|6:180,1,80,2|0,0:0|0:0,0:0:0:0:
179,145,75103,1,0,0:0:0:0:
269,185,75244,2,0,L|348:191,2,80,0|2|0,0:0|0:0|0:0,0:0:0:0:
98,85,75669,2,0,L|18:78,2,80,2|0|2,0:3|0:0|0:0,0:0:0:0:
368,25,76235,6,0,L|362:105,1,80
257,93,76518,2,0,L|263:11,1,80,2|0,0:0|0:0,0:0:0:0:
468,35,76801,2,0,B|459:117|459:117|470:193,1,160,2|2,0:3|0:0,0:0:0:0:
454,330,77225,2,0,L|369:337,1,80
262,345,77508,1,2,0:3:0:0:
334,259,77650,2,0,L|413:252,2,80,2|0|2,0:0|0:0|0:3,0:0:0:0:
222,268,78074,1,0,0:0:0:0:
293,180,78216,2,0,B|390:172|390:172|445:140,1,160,2|4,0:0|0:0,0:0:0:0:
218,111,85291,6,0,L|134:128,2,80,2|0|2,0:1|0:0|0:0,0:0:0:0:
292,37,85715,2,0,L|387:42,2,80,2|0|2,0:1|0:0|0:0,0:0:0:0:
293,180,86140,2,0,P|250:252|180:283,1,160,2|0,0:1|0:0,0:0:0:0:
81,306,86564,1,0,3:0:0:0:
330,285,86706,2,0,B|415:290|415:290|485:324,1,160,2|8,1:0|0:1,0:0:0:0:
139,211,87554,6,0,P|82:210|16:222,1,120.000004577637,6|0,0:0|0:0,0:0:0:0:
28,45,88120,2,0,P|87:36|149:38,1,120.000004577637,8|2,0:3|0:0,0:0:0:0:
293,180,88686,1,0,0:0:0:0:
166,363,88969,1,0,0:0:0:0:
20,220,89252,1,8,0:3:0:0:
147,37,89535,2,0,L|188:80,1,60.0000022888184
293,180,89818,6,0,P|243:199|173:203,2,120.000004577637,2|0|8,0:0|0:0|0:3,0:0:0:0:
344,32,90667,1,2,0:0:0:0:
280,282,90950,2,0,P|341:306|399:306,1,120.000004577637
469,284,91374,1,0,0:0:0:0:
456,206,91516,2,0,P|457:146|480:91,1,120.000004577637,8|0,0:3|0:0,0:0:0:0:
317,29,92082,6,0,P|257:32|201:52,1,120.000004577637,2|0,0:0|0:0,0:0:0:0:
152,113,92506,1,0,0:0:0:0:
214,159,92648,2,0,P|234:215|237:274,1,120.000004577637,8|2,0:3|0:0,0:0:0:0:
197,342,93072,1,0,0:0:0:0:
132,297,93214,2,0,P|111:240|108:181,1,120.000004577637
92,365,93780,1,8,0:3:0:0:
302,319,94063,1,0,0:0:0:0:
352,141,94346,6,0,P|344:82|317:29,1,120.000004577637,2|0,0:0|0:0,0:0:0:0:
214,159,94912,1,8,0:3:0:0:
305,285,95195,2,0,P|370:288|429:279,1,120.000004577637,2|0,0:0|0:0,0:0:0:0:
441,70,95761,2,0,P|449:129|476:182,2,120.000004577637,0|8|0,0:0|0:3|0:0,0:0:0:0:
225,245,96610,5,6,0:1:0:0:
131,369,96893,2,0,P|66:372|7:363,1,120.000004577637,2|8,0:1|0:3,0:0:0:0:
125,84,97459,2,0,L|127:203,1,120.000004577637,2|0,0:0|0:0,0:0:0:0:
131,369,98025,1,0,0:0:0:0:
30,164,98308,2,0,L|29:44,1,120.000004577637,8|0,0:3|0:0,0:0:0:0:
225,245,98874,6,0,L|227:369,2,120.000004577637,6|0|8,0:0|0:0|0:3,0:0:0:0:
221,88,99723,1,6,0:0:0:0:
291,121,99865,2,0,L|364:118,1,60.0000022888184,2|2,3:1|0:1,0:0:0:0:
295,278,100289,2,0,L|427:273,1,120.000004577637,6|8,0:1|0:3,0:0:0:0:
223,166,100855,1,0,0:0:0:0:
409,33,101138,6,0,L|289:37,1,120.000004577637,2|0,0:0|0:0,0:0:0:0:
458,190,101704,1,8,0:3:0:0:
379,194,101846,2,0,L|317:198,1,60.0000022888184,0|2,0:0|0:0,0:0:0:0:
295,278,102129,1,0,3:0:0:0:
216,282,102271,2,0,L|154:286,1,60.0000022888184,2|0,0:1|0:0,0:0:0:0:
131,369,102553,2,0,B|119:290|119:290|78:268,1,120.000004577637,6|8,0:1|0:3,0:0:0:0:
299,365,103119,1,0,0:0:0:0:
414,273,103402,6,0,L|473:269,1,60.0000022888184,2|0,0:0|0:0,0:0:0:0:
379,194,103685,1,0,0:0:0:0:
379,194,103827,1,0,0:0:0:0:
291,121,103968,2,0,L|231:124,1,60.0000022888184,8|0,0:3|0:0,0:0:0:0:
326,49,104251,1,2,0:0:0:0:
326,49,104393,1,0,0:0:0:0:
295,199,104534,2,0,L|297:263,1,60.0000022888184,0|0,1:0|1:0,0:0:0:0:
412,111,104817,2,0,L|410:51,1,60.0000022888184,2|2,0:1|0:1,0:0:0:0:
210,203,105100,2,0,L|150:206,2,60.0000022888184,0|0|0,3:0|3:0|3:0,0:0:0:0:
27,101,105666,6,0,L|21:20,1,80,4|0,1:2|3:0,0:0:0:0:
118,118,105949,2,0,P|114:200|81:272,2,160,2|8|0,0:1|0:0|0:0,0:0:0:0:
27,101,106657,1,0,3:0:0:0:
174,45,106798,2,0,L|258:59,1,80,2|0,0:1|3:0,0:0:0:0:
210,203,107081,2,0,P|261:266|330:305,2,160,2|8|0,0:1|0:0|0:0,0:0:0:0:
289,135,107788,6,0,B|366:131|366:131|444:73,1,160,0|0,3:0|3:0,0:0:0:0:
347,19,108213,1,2,0:1:0:0:
252,58,108355,1,0,3:0:0:0:
325,216,108496,2,0,B|402:212|402:212|480:154,1,160,8|2,0:0|0:0,0:0:0:0:
408,300,108921,2,0,L|329:305,1,80,0|2,3:0|0:1,0:0:0:0:
231,344,109204,1,8,0:0:0:0:
159,268,109345,2,0,P|84:258|-2:283,2,160,2|8|2,0:1|0:0|3:2,0:0:0:0:
231,344,110053,1,0,3:0:0:0:
226,181,110194,6,0,P|195:163|137:146,1,80,2|0,0:1|3:0,0:0:0:0:
252,58,110477,2,0,P|327:68|413:43,2,160,2|8|0,0:1|0:0|0:0,0:0:0:0:
152,24,111185,1,0,3:0:0:0:
153,148,111326,2,0,P|115:161|75:167,1,80,2|0,0:1|3:0,0:0:0:0:
159,268,111609,2,0,P|227:294|317:302,2,160,2|8|2,0:1|0:0|3:2,0:0:0:0:
240,201,112317,1,0,3:0:0:0:
339,170,112458,6,0,P|418:178|494:203,1,160,2|2,0:1|0:1,0:0:0:0:
157,368,113024,1,8,0:0:0:0:
75,167,113307,1,2,0:0:0:0:
5,245,113449,2,0,L|13:329,1,80,0|2,3:0|0:1,0:0:0:0:
84,246,113732,1,8,0:0:0:0:
153,147,113873,2,0,B|131:89|161:41|161:41|135:40|109:31,1,160,2|8,0:1|0:0,0:0:0:0:
18,61,114298,1,0,1:0:0:0:
246,100,114439,2,0,L|340:90,1,80,2|0,3:2|3:0,0:0:0:0:
238,260,114722,6,0,L|158:268,1,80,4|0,1:0|3:0,0:0:0:0:
370,186,115005,2,0,B|395:242|378:296|378:296|408:304|424:321,2,160,2|8|0,0:1|0:0|0:0,0:0:0:0:
325,91,115713,1,0,3:0:0:0:
237,178,115854,2,0,L|157:186,1,80,2|0,0:1|3:0,0:0:0:0:
246,100,116137,1,2,0:1:0:0:
452,75,116420,2,0,P|471:153|472:234,1,160,8|0,0:0|0:0,0:0:0:0:
370,186,116844,6,0,P|351:108|350:27,1,160,0|0,3:0|3:0,0:0:0:0:
246,100,117269,1,2,0:1:0:0:
141,98,117411,1,0,3:0:0:0:
84,246,117552,2,0,P|101:319|178:342,1,160,8|2,0:0|0:0,0:0:0:0:
109,170,117977,2,0,P|63:164|30:159,1,80,0|2,3:0|0:1,0:0:0:0:
193,161,118260,1,8,0:0:0:0:
158,267,118401,2,0,P|252:269|316:255,1,160,2|8,0:1|0:0,0:0:0:0:
141,98,118967,2,0,P|103:93|56:82,1,80,2|0,3:2|3:0,0:0:0:0:
184,32,119250,6,0,P|222:37|269:48,1,80,2|0,0:1|3:0,0:0:0:0:
347,130,119533,2,0,P|272:156|193:161,2,160,2|8|0,0:1|0:0|0:0,0:0:0:0:
360,25,120241,1,0,3:0:0:0:
343,232,120382,2,0,P|337:272|320:311,1,80,2|0,0:1|3:0,0:0:0:0:
226,348,120665,1,2,0:1:0:0:
400,371,120948,2,0,P|430:300|442:215,1,160,8|2,0:0|3:2,0:0:0:0:
343,232,121372,1,0,3:0:0:0:
347,130,121514,6,0,P|431:134|504:110,1,160,2|2,0:1|0:1,0:0:0:0:
193,161,122080,2,0,P|108:156|35:180,1,160,8|2,0:0|0:0,0:0:0:0:
142,283,122505,2,0,P|141:326|126:377,1,80,0|2,3:0|0:1,0:0:0:0:
42,307,122788,1,8,0:0:0:0:
226,348,122929,2,0,P|298:330|355:258,1,160,2|12,0:1|0:0,0:0:0:0:
287,183,123354,1,0,3:0:0:0:
450,245,123495,2,0,P|448:285|435:325,1,80,0|0,1:0|1:0,0:0:0:0:
386,170,123777,6,0,P|404:91|473:38,1,160,2|2,0:1|0:1,0:0:0:0:
279,62,124343,2,0,B|212:68|212:68|113:39,1,160,8|0,0:0|0:0,0:0:0:0:
33,293,124909,2,0,B|197:275|197:275|277:299,1,240,2|2,0:1|0:1,0:0:0:0:
178,191,125475,2,0,L|93:201,1,80,8|0,0:0|0:0,0:0:0:0:
61,102,125758,2,0,L|143:92,1,80,0|0,3:0|0:0,0:0:0:0:
240,121,126041,5,2,0:1:0:0:
166,368,126324,1,2,0:1:0:0:
278,220,126607,2,0,L|360:210,2,80,8|0|0,0:0|0:0|0:0,0:0:0:0:
471,327,127173,2,0,P|458:241|463:160,1,160,2|0,0:1|0:0,0:0:0:0:
491,67,127598,1,2,0:1:0:0:
319,111,127739,2,0,L|239:120,2,80,8|0|0,0:0|0:0|3:0,0:0:0:0:
87,30,128305,6,0,L|82:109,1,80,2|0,0:1|0:0,0:0:0:0:
154,270,128588,2,0,L|158:190,1,80,2|0,0:1|0:0,0:0:0:0:
64,360,128871,2,0,P|135:366|232:359,1,160,8|0,0:0|0:0,0:0:0:0:
259,261,129296,1,0,0:0:0:0:
239,120,129437,2,0,B|158:96|77:120|77:120|70:204,1,240,2|2,0:1|0:1,0:0:0:0:
260,340,130003,2,0,L|259:261,1,80,8|0,0:0|0:0,0:0:0:0:
461,168,130286,2,0,L|462:250,1,80,0|0,3:0|0:0,0:0:0:0:
351,144,130569,5,2,0:1:0:0:
497,50,130852,1,2,0:1:0:0:
337,247,131135,2,0,L|259:261,2,80,8|0|0,0:0|0:0|0:0,0:0:0:0:
158,190,131701,2,0,B|153:278|153:278|162:352,1,160,2|0,3:1|0:0,0:0:0:0:
384,343,132267,1,8,0:1:0:0:
342,33,132833,6,0,P|402:31|461:40,1,120.000004577637,6|0,0:1|0:0,0:0:0:0:
396,205,133399,1,8,0:3:0:0:
239,119,133682,2,0,L|242:59,1,60.0000022888184,2|0,0:0|0:0,0:0:0:0:
169,149,133965,2,0,P|109:151|50:141,1,120.000004577637,2|2,0:1|0:0,0:0:0:0:
139,13,134531,1,8,0:1:0:0:
31,235,134814,6,0,B|22:297|22:297|41:359,2,120.000004577637,2|2|2,0:0|0:1|0:0,0:0:0:0:
248,285,135663,2,0,L|121:290,1,120.000004577637,8|0,0:3|0:0,0:0:0:0:
109,213,136088,1,0,0:0:0:0:
156,151,136229,2,0,L|160:78,1,60.0000022888184,2|0,0:1|0:0,0:0:0:0:
201,215,136512,1,0,0:0:0:0:
433,145,136795,1,8,0:1:0:0:
475,210,136937,2,0,L|467:329,1,120.000004577637,2|0,0:0|0:0,0:0:0:0:
354,367,137361,6,0,L|361:247,1,120.000004577637,2|0,0:1|0:0,0:0:0:0:
449,117,137927,1,8,0:3:0:0:
267,362,138210,2,0,L|203:360,1,60.0000022888184,2|0,0:0|0:0,0:0:0:0:
248,285,138493,2,0,L|228:156,1,120.000004577637,2|2,0:1|0:0,0:0:0:0:
316,36,139059,1,8,0:1:0:0:
167,287,139342,6,0,L|42:292,2,120.000004577637,2|2|2,0:0|0:1|0:0,0:0:0:0:
52,87,140191,2,0,L|70:205,1,120.000004577637,8|0,0:3|0:0,0:0:0:0:
149,203,140616,1,0,0:0:0:0:
161,126,140757,2,0,L|150:66,1,60.0000022888184,2|0,0:1|0:0,0:0:0:0:
232,157,141040,2,0,L|293:154,1,60.0000022888184
241,234,141323,2,0,L|360:229,1,120.000004577637,8|0,0:1|0:0,0:0:0:0:
374,152,141747,1,0,0:0:0:0:
390,75,141889,6,0,B|335:55|335:55|266:55,1,120.000004577637,2|0,0:1|0:0,0:0:0:0:
195,56,142313,1,0,0:0:0:0:
161,126,142455,2,0,L|130:192,2,60.0000022888184,8|0|2,0:3|0:0|0:0,0:0:0:0:
360,228,143021,1,2,0:1:0:0:
470,73,143304,1,2,0:0:0:0:
440,226,143587,1,8,0:1:0:0:
279,320,143870,6,0,B|219:315|219:315|167:287,1,120.000004577637,2|2,0:0|0:1,0:0:0:0:
27,173,144436,2,0,L|30:236,1,60.0000022888184,2|0,0:0|0:0,0:0:0:0:
161,185,144719,2,0,L|160:125,1,60.0000022888184,8|0,0:3|0:0,0:0:0:0:
292,77,145002,2,0,L|294:137,1,60.0000022888184,2|0,0:0|0:0,0:0:0:0:
425,87,145285,2,0,L|423:29,2,60.0000022888184,2|0|0,0:1|0:0|0:0,0:0:0:0:
465,328,145851,1,8,0:1:0:0:
387,319,145992,2,0,P|369:260|370:198,1,120.000004577637,2|0,0:0|0:0,0:0:0:0:
287,240,146417,6,0,L|228:232,1,60.0000022888184,2|0,0:1|0:0,0:0:0:0:
166,285,146700,2,0,L|181:344,1,60.0000022888184
85,260,146983,2,0,L|47:307,2,60.0000022888184,8|0|0,0:3|0:0|0:0,0:0:0:0:
23,87,147549,1,2,0:1:0:0:
42,169,147690,2,0,P|110:182|171:184,1,120.000004577637,2|0,0:0|0:0,0:0:0:0:
209,114,148115,2,0,L|194:55,1,60.0000022888184,8|0,0:1|0:0,0:0:0:0:
293,110,148398,2,0,L|309:167,1,60.0000022888184
351,49,148681,6,0,P|410:52|469:64,1,120.000004577637,2|0,0:1|0:0,0:0:0:0:
491,145,149105,1,0,0:0:0:0:
443,214,149247,2,0,L|382:233,2,60.0000022888184,8|0|0,0:3|0:0|0:0,0:0:0:0:
265,359,149813,6,0,P|226:361|185:357,1,80,2|0,0:1|1:0,0:0:0:0:
207,207,150096,2,0,P|228:239|245:277,1,80,2|0,0:1|1:0,0:0:0:0:
104,332,150379,2,0,P|121:297|145:263,1,80,2|0,0:1|3:0,0:0:0:0:
243,283,150662,1,2,0:1:0:0:
182,352,150803,1,0,3:0:0:0:
70,262,150945,6,0,P|62:220|66:167,1,88.000002685547,4|0,1:2|3:0,0:0:0:0:
143,80,151228,2,0,P|151:122|147:175,1,88.000002685547,2|0,0:1|1:0,0:0:0:0:
236,48,151511,2,0,P|325:46|422:60,1,176.000005371094,8|0,0:0|0:0,0:0:0:0:
462,150,151935,1,0,3:0:0:0:
415,304,152077,2,0,P|367:304|325:294,1,88.000002685547,2|0,0:1|3:0,0:0:0:0:
285,193,152360,2,0,P|333:193|375:203,1,88.000002685547,2|0,0:1|1:0,0:0:0:0:
244,271,152643,2,0,P|157:276|66:261,1,176.000005371094,8|0,0:0|0:0,0:0:0:0:
148,166,153067,6,0,B|165:122|144:80|144:80|99:60|55:91,1,176.000005371094,0|0,3:0|3:0,0:0:0:0:
84,191,153492,1,2,0:1:0:0:
212,205,153633,1,0,3:0:0:0:
154,341,153775,2,0,B|117:359|67:345|67:345|52:306|69:262,1,176.000005371094,8|2,0:0|0:0,0:0:0:0:
244,271,154199,2,0,L|338:278,1,88.000002685547,0|2,3:0|0:1,0:0:0:0:
232,344,154482,1,8,0:0:0:0:
285,193,154624,2,0,B|289:79|289:79|244:36,2,176.000005371094,2|8|2,0:1|0:0|3:2,0:0:0:0:
184,229,155331,1,0,3:0:0:0:
306,349,155473,6,0,L|400:355,1,88.000002685547,2|0,0:1|3:0,0:0:0:0:
368,168,155756,2,0,B|372:53|372:53|423:101,2,176.000005371094,2|8|0,0:1|0:0|0:0,0:0:0:0:
459,236,156463,1,0,3:0:0:0:
331,277,156605,2,0,L|244:271,1,88.000002685547,2|0,0:1|3:0,0:0:0:0:
144,337,156888,2,0,L|231:343,1,88.000002685547,2|0,0:1|1:0,0:0:0:0:
212,205,157171,2,0,B|97:195|97:195|45:163,1,176.000005371094,8|2,0:0|3:2,0:0:0:0:
57,57,157595,1,0,3:0:0:0:
136,126,157737,6,0,B|241:134|241:134|306:104,1,176.000005371094,2|2,0:1|0:1,0:0:0:0:
371,21,158161,1,0,1:0:0:0:
475,39,158303,2,0,B|507:85|507:85|509:205,1,176.000005371094,8|2,0:0|0:0,0:0:0:0:
365,209,158727,2,0,L|406:129,1,88.000002685547,0|2,3:0|0:1,0:0:0:0:
398,306,159010,1,8,0:0:0:0:
231,344,159152,2,0,L|144:338,1,88.000002685547,2|0,0:1|1:0,0:0:0:0:
49,290,159435,1,8,0:0:0:0:
84,191,159576,1,0,1:0:0:0:
178,239,159717,2,0,L|265:245,1,88.000002685547,2|0,3:2|3:0,0:0:0:0:
173,132,160001,6,0,P|165:90|168:37,1,88.000002685547,6|0,0:1|3:0,0:0:0:0:
282,83,160284,2,0,P|290:125|286:177,1,88.000002685547,2|0,0:1|1:0,0:0:0:0:
379,291,160567,2,0,P|377:202|391:105,1,176.000005371094,8|0,0:0|0:0,0:0:0:0:
463,40,160991,1,0,3:0:0:0:
467,240,161133,2,0,P|459:283|448:325,1,88.000002685547,2|0,0:1|3:0,0:0:0:0:
287,334,161415,2,0,P|294:290|306:249,1,88.000002685547,2|0,0:1|1:0,0:0:0:0:
218,115,161698,2,0,P|220:204|206:300,1,176.000005371094,8|0,0:0|0:0,0:0:0:0:
40,174,162123,6,0,B|33:116|66:69|66:69|98:87|105:121,1,176.000005371094,0|0,3:0|3:0,0:0:0:0:
104,255,162548,1,2,0:1:0:0:
47,343,162689,1,0,3:0:0:0:
238,294,162830,2,0,B|270:300|287:333|287:333|241:366|183:359,1,176.000005371094,8|2,0:0|0:0,0:0:0:0:
186,206,163255,2,0,P|234:200|285:204,1,88.000002685547,0|2,3:0|0:1,0:0:0:0:
377,224,163538,1,8,0:0:0:0:
212,126,163680,2,0,B|179:89|197:42|197:42|238:20|281:47,2,176.000005371094,2|8|2,0:1|0:0|3:2,0:0:0:0:
323,109,164387,1,0,3:0:0:0:
103,32,164529,6,0,P|98:75|106:126,1,88.000002685547,2|0,0:1|3:0,0:0:0:0:
273,202,164811,2,0,P|229:200|186:206,1,88.000002685547,2|0,0:1|1:0,0:0:0:0:
66,303,165094,2,0,P|153:315|237:293,1,176.000005371094,8|0,0:0|0:0,0:0:0:0:
350,216,165519,1,0,3:0:0:0:
323,109,165661,2,0,P|279:109|237:123,1,88.000002685547,2|0,0:1|3:0,0:0:0:0:
414,131,165943,2,0,P|436:92|444:49,1,88.000002685547,2|0,0:1|1:0,0:0:0:0:
350,216,166226,2,0,B|384:248|438:241|438:241|432:298|406:327,1,176.000005371094,8|2,0:0|3:2,0:0:0:0:
318,353,166651,1,0,3:0:0:0:
237,293,166793,6,0,B|212:243|228:185|228:185|237:153|224:121,1,176.000005371094,2|2,0:1|0:1,0:0:0:0:
136,63,167217,1,0,1:0:0:0:
59,165,167359,2,0,B|105:179|155:166|155:166|143:208|148:246,1,176.000005371094,8|0,0:0|0:0,0:0:0:0:
78,342,167783,2,0,P|118:337|175:337,1,88.000002685547,0|2,3:0|0:1,0:0:0:0:
274,359,168066,1,8,0:0:0:0:
288,235,168208,2,0,P|294:190|295:148,1,88.000002685547,2|0,0:1|3:0,0:0:0:0:
223,49,168490,1,8,0:0:0:0:
348,85,168632,1,0,1:0:0:0:
224,122,168774,2,0,P|183:130|132:130,1,88.000002685547,2|0,0:0|0:0,0:0:0:0:
349,72,169056,6,0,P|391:65|434:67,1,80,4|0,3:2|3:0,0:0:0:0:
300,4,169339,1,0,1:0:0:0:
220,265,169622,2,0,P|140:267|62:252,1,160,8|0,3:0|0:0,0:0:0:0:
10,160,170047,1,2,0:0:0:0:
224,122,170188,2,0,P|261:124|305:132,1,80,0|0,3:0|3:0,0:0:0:0:
399,150,170471,1,0,1:0:0:0:
319,382,170754,2,0,P|318:308|329:222,1,160,8|0,3:0|0:0,0:0:0:0:
459,230,171179,6,0,L|465:309,1,80,2|0,0:0|1:0,0:0:0:0:
508,153,171462,1,0,3:0:0:0:
447,66,171603,1,0,1:0:0:0:
447,66,171745,1,0,3:0:0:0:
328,222,171886,2,0,P|289:230|238:229,1,80,8|0,3:0|0:0,0:0:0:0:
149,222,172169,1,0,3:0:0:0:
26,83,172311,2,0,B|37:39|68:21|68:21|121:108|60:176,1,240,2|0,3:2|1:0,0:0:0:0:
261,19,173018,1,8,3:0:0:0:
248,230,173301,1,2,0:0:0:0:
41,342,173584,5,0,3:0:0:0:
140,312,173726,1,0,3:0:0:0:
242,329,173867,1,0,1:0:0:0:
465,309,174150,2,0,P|485:226|483:147,1,160,8|0,3:0|0:0,0:0:0:0:
449,53,174575,1,2,0:0:0:0:
310,112,174716,2,0,P|314:154|320:191,1,80,0|0,3:0|3:0,0:0:0:0:
361,287,174999,1,0,1:0:0:0:
149,222,175282,2,0,P|129:139|131:60,1,160,8|0,3:0|0:0,0:0:0:0:
242,329,175848,6,0,P|165:358|83:366,1,160,0|0,3:0|3:0,0:0:0:0:
4,302,176273,1,2,0:0:0:0:
44,206,176414,2,0,P|48:167|46:116,1,80,8|0,3:0|0:0,0:0:0:0:
86,280,176697,1,0,3:0:0:0:
130,143,176839,2,0,P|227:108|215:218,1,240,2|0,3:2|0:0,0:0:0:0:
88,366,177546,2,0,P|165:337|247:329,1,160,8|2,3:0|0:0,0:0:0:0:
449,348,178112,6,0,L|443:269,1,80,2|0,0:1|3:0,0:0:0:0:
432,164,178395,1,2,0:1:0:0:
329,343,178678,2,0,P|331:263|343:184,1,160,8|0,0:1|3:0,0:0:0:0:
211,22,179244,2,0,L|217:101,1,80,2|0,0:1|3:0,0:0:0:0:
228,210,179527,1,2,0:1:0:0:
93,29,179810,2,0,P|100:107|119:187,1,160,8|0,0:1|3:0,0:0:0:0:
82,313,180234,6,0,P|71:274|55:237,1,80,2|2,0:0|0:1,0:0:0:0:
7,145,180517,1,0,3:0:0:0:
154,259,180659,2,0,P|193:254|236:244,1,80,2|0,0:1|3:0,0:0:0:0:
301,104,180942,2,0,P|368:72|458:72,1,160,8|0,0:1|0:0,0:0:0:0:
343,184,181366,2,0,P|349:224|350:268,1,80,2|2,0:0|0:1,0:0:0:0:
339,367,181649,1,0,3:0:0:0:
235,354,181791,2,0,P|195:358|153:369,2,80,2|0|8,0:1|3:0|0:1,0:0:0:0:
476,332,182357,1,0,3:0:0:0:
232,245,182640,6,0,P|226:205|224:165,1,80,2|0,3:1|3:0,0:0:0:0:
350,263,182923,1,2,3:1:0:0:
350,263,183064,1,0,3:0:0:0:
493,100,183206,2,0,P|498:60|500:20,1,80,8|0,3:2|3:0,0:0:0:0:
381,115,183489,1,0,3:0:0:0:
381,115,183630,1,0,3:0:0:0:
189,55,183772,2,0,P|149:49|109:47,1,80,2|0,3:1|3:0,0:0:0:0:
176,178,184055,1,2,3:1:0:0:
176,178,184196,1,0,3:0:0:0:
235,354,184338,2,0,P|322:355|406:342,1,160,8|0,3:2|3:0,0:0:0:0:
31,144,184904,5,8,1:2:0:0:
479,144,185470,1,8,1:2:0:0:
116,344,186036,1,8,1:0:0:0:
254,20,186319,1,2,1:0:0:0:
394,344,186602,1,2,1:0:0:0:
