osu file format v14

[General]
AudioFilename: green light.mp3
AudioLeadIn: 0
PreviewTime: 13977
Countdown: 0
SampleSet: Soft
StackLeniency: 0.6
Mode: 0
LetterboxInBreaks: 0
EpilepsyWarning: 1
WidescreenStoryboard: 1

[Editor]
Bookmarks: 14979,24036,33092,42149,51205,60262,69319,78375,87432,96488,105545,114602,123658,132715,141771,150828,159885,168941,177998,187054
DistanceSpacing: 1.1
BeatDivisor: 4
GridSize: 4
TimelineZoom: 1

[Metadata]
Title:Lv Guang
TitleUnicode:綠光
Artist:Stefanie Sun
ArtistUnicode:孫燕姿
Creator:liangv587
Version:Hard
Source:
Tags:green lights yan zi 绿光 孙燕姿 moonlightleaf
BeatmapID:737907
BeatmapSetID:333449

[Difficulty]
HPDrainRate:5
CircleSize:4
OverallDifficulty:6
ApproachRate:7.5
SliderMultiplier:2.8
SliderTickRate:2

[Events]
//Background and Video events
0,0,"gl.jpg",0,0
//Break Periods
2,78499,84466
//Storyboard Layer 0 (Background)
//Storyboard Layer 1 (Fail)
//Storyboard Layer 2 (Pass)
//Storyboard Layer 3 (Foreground)
//Storyboard Sound Samples

[TimingPoints]
15109,565.984341099896,4,2,1,70,1,0
33079,-133.333333333333,4,2,1,70,0,0
51190,-100,4,2,1,70,0,0
87413,-133.333333333333,4,2,1,70,0,0
105100,-111.111111111111,4,2,1,70,0,0
105524,-100,4,2,1,70,0,0
132692,-133.333333333333,4,2,1,70,0,0
149671,-100,4,2,1,70,0,0
150945,-90.9090909090909,4,2,1,70,0,1
169056,-100,4,2,1,70,0,0

[Colours]
Combo1 : 128,128,255
Combo2 : 0,128,0
Combo3 : 0,128,255
Combo4 : 128,255,128

[HitObjects]
256,192,10581,12,0,13977,0:0:0:0:
425,323,15108,6,0,L|496:313,2,70,6|0|2,1:0|3:0|0:1,0:0:0:0:
458,172,15674,2,0,B|503:95|450:28|450:28|427:63|443:91,1,210,8|0,0:0|3:0,0:0:0:0:
363,71,16240,2,0,P|321:75|280:73,1,70,2|0,0:1|3:0,0:0:0:0:
315,148,16523,2,0,P|313:217|304:287,1,140,2|8,0:1|0:0,0:0:0:0:
84,357,17231,6,0,P|76:299|74:217,1,140,0|0,3:0|3:0,0:0:0:0:
148,238,17655,2,0,P|179:238|221:228,1,70,2|0,0:1|3:0,0:0:0:0:
228,153,17938,2,0,P|168:152|89:137,1,140,8|2,0:0|0:0,0:0:0:0:
81,59,18363,2,0,P|41:57|-1:65,2,70,0|2|8,3:0|0:1|0:0,0:0:0:0:
157,68,18787,1,2,0:1:0:0:
222,229,19070,1,8,0:0:0:0:
89,137,19353,1,2,0:0:0:0:
232,81,19636,6,0,P|271:80|319:83,2,70,2|0|2,1:0|3:0|0:1,0:0:0:0:
148,238,20202,2,0,B|144:313|173:374|173:374|203:358|223:312,1,210,8|0,0:0|3:0,0:0:0:0:
294,309,20768,2,0,L|356:340,1,70,2|0,0:1|3:0,0:0:0:0:
374,265,21051,2,0,P|437:244|513:234,2,140,2|8|0,0:1|0:0|0:0,0:0:0:0:
222,229,21900,5,2,0:1:0:0:
368,180,22183,1,2,0:1:0:0:
280,15,22466,2,0,P|273:86|278:164,1,140,8|2,0:0|0:0,0:0:0:0:
198,154,22891,2,0,P|161:153|117:156,2,70,0|2|8,3:0|0:1|0:0,0:0:0:0:
222,229,23315,1,2,0:1:0:0:
270,375,23598,1,8,0:0:0:0:
374,265,23881,1,2,3:2:0:0:
215,311,24164,6,0,P|180:323|145:346,2,70,4|0|2,1:2|3:0|0:1,0:0:0:0:
67,265,24730,2,0,B|45:202|42:126|42:126|73:153|108:157,1,210,8|0,0:0|3:0,0:0:0:0:
106,69,25296,2,0,P|70:46|32:36,1,70,2|0,0:1|3:0,0:0:0:0:
171,21,25579,2,0,P|241:25|311:34,2,140,2|8|0,0:1|0:0|0:0,0:0:0:0:
180,98,26287,6,0,P|249:107|319:111,1,140,0|0,3:0|3:0,0:0:0:0:
389,78,26711,2,0,P|405:43|412:11,1,70,2|0,0:1|3:0,0:0:0:0:
456,118,26994,2,0,P|460:176|462:278,1,140,8|2,0:0|0:0,0:0:0:0:
409,314,27419,2,0,P|376:332|341:347,2,70,0|2|8,3:0|0:1|0:0,0:0:0:0:
383,241,27843,1,2,0:1:0:0:
254,326,28126,1,8,0:0:0:0:
283,174,28409,1,2,0:0:0:0:
177,286,28692,6,0,P|143:302|102:310,2,70,2|0|2,0:1|3:0|0:1,0:0:0:0:
188,131,29258,2,0,B|123:99|50:107|50:107|60:142|56:177,1,210,8|0,0:0|3:0,0:0:0:0:
50,251,29824,2,0,P|43:280|23:319,1,70,2|0,0:1|3:0,0:0:0:0:
100,333,30107,2,0,P|164:373|231:357,2,140,2|8|2,0:1|0:0|0:0,0:0:0:0:
248,292,30956,6,0,P|316:283|372:324,1,140,2|2,0:1|0:1,0:0:0:0:
459,148,31522,2,0,P|408:100|341:82,1,140,8|2,0:0|0:0,0:0:0:0:
264,83,31947,1,0,3:0:0:0:
195,116,32088,2,0,P|194:152|199:190,1,70,2|8,0:1|0:0,0:0:0:0:
265,224,32371,1,2,0:1:0:0:
199,42,32654,1,8,0:0:0:0:
119,173,32937,1,2,0:0:0:0:
285,153,33220,6,0,P|331:194|335:244,1,105.000004005432,6|0,1:0|0:0,0:0:0:0:
317,348,33786,1,2,1:0:0:0:
218,288,34069,2,0,P|165:284|113:294,1,105.000004005432,2|2,0:0|1:0,0:0:0:0:
13,350,34635,1,0,0:0:0:0:
19,234,34918,2,0,P|47:189|93:159,1,105.000004005432,2|2,1:0|0:0,0:0:0:0:
231,86,35484,6,0,P|182:86|125:77,1,105.000004005432,2|0,1:0|0:0,0:0:0:0:
20,31,36050,1,2,1:0:0:0:
89,160,36333,2,0,P|100:216|100:272,1,105.000004005432,2|2,0:0|1:0,0:0:0:0:
63,373,36899,1,0,0:0:0:0:
185,285,37182,2,0,P|189:217|186:175,1,105.000004005432,2|2,1:0|0:0,0:0:0:0:
307,279,37748,6,0,P|368:287|422:266,1,105.000004005432,4|0,1:2|0:0,0:0:0:0:
503,207,38314,1,2,1:0:0:0:
464,21,38597,2,0,P|423:43|390:92,1,105.000004005432,2|2,0:0|1:0,0:0:0:0:
366,203,39163,1,0,0:0:0:0:
317,80,39446,2,0,P|264:75|209:86,1,105.000004005432,2|2,1:0|0:0,0:0:0:0:
83,179,40012,6,0,P|128:189|186:185,1,105.000004005432,2|0,1:0|0:0,0:0:0:0:
300,163,40578,1,2,1:0:0:0:
461,162,40861,2,0,P|464:209|455:277,1,105.000004005432,2|2,0:0|1:0,0:0:0:0:
405,369,41427,1,0,0:0:0:0:
317,256,41710,2,0,P|256:248|201:256,1,105.000004005432,2|2,1:0|0:0,0:0:0:0:
43,345,42276,6,0,P|103:350|153:344,1,105.000004005432,4|0,1:2|0:0,0:0:0:0:
261,325,42842,1,2,1:0:0:0:
123,256,43125,2,0,P|115:205|117:149,1,105.000004005432,2|2,0:0|1:0,0:0:0:0:
131,36,43691,1,0,0:0:0:0:
226,158,43974,2,0,P|278:159|330:152,1,105.000004005432,2|2,1:0|0:0,0:0:0:0:
463,89,44540,5,4,1:2:0:0:
391,217,44823,1,0,0:0:0:0:
373,71,45106,1,2,1:0:0:0:
471,179,45389,2,0,P|478:224|475:291,1,105.000004005432,4|2,0:0|1:0,0:0:0:0:
360,350,45955,2,0,P|353:305|356:238,1,105.000004005432,4|2,0:1|1:0,0:0:0:0:
404,141,46521,1,2,0:0:0:0:
280,256,46804,6,0,L|226:250,3,52.5000020027161,2|0|0|0,1:0|0:0|0:0|0:0,0:0:0:0:
216,322,47370,2,0,L|161:303,3,52.5000020027161,2|0|2|0,1:0|0:0|0:0|0:0,0:0:0:0:
107,353,47936,1,2,1:0:0:0:
16,241,48219,2,0,P|67:218|123:211,1,105.000004005432,4|2,0:1|1:0,0:0:0:0:
230,204,48785,1,2,0:0:0:0:
59,140,49068,6,0,P|55:48|151:62,1,210.000008010865,2|2,1:0|1:0,0:0:0:0:
291,58,49917,2,0,L|366:49,2,52.5000020027161,2|0|0,0:0|0:0|0:0,0:0:0:0:
230,109,50341,1,0,3:0:0:0:
301,143,50483,2,0,P|308:188|302:256,2,105.000004005432,0|0|2,0:0|3:0|0:0,0:0:0:0:
428,56,51331,6,0,L|499:66,2,70,4|0|2,1:2|3:0|0:1,0:0:0:0:
394,213,51897,2,0,B|373:299|443:348|443:348|415:351|371:347,1,210,8|0,0:0|3:0,0:0:0:0:
310,347,52463,2,0,P|271:357|231:377,1,70,2|0,0:1|3:0,0:0:0:0:
168,350,52746,2,0,P|166:281|157:211,1,140,2|8,0:1|0:0,0:0:0:0:
25,19,53454,6,0,P|17:77|15:159,1,140,0|0,3:0|3:0,0:0:0:0:
89,139,53878,2,0,P|120:139|162:149,1,70,2|0,0:1|3:0,0:0:0:0:
168,224,54161,2,0,P|108:225|29:240,1,140,8|2,0:0|0:0,0:0:0:0:
69,306,54586,2,0,P|43:313|1:344,2,70,0|2|8,3:0|0:1|0:0,0:0:0:0:
139,336,55010,1,2,0:1:0:0:
265,247,55293,1,8,0:0:0:0:
157,147,55576,1,2,3:2:0:0:
235,324,55859,6,0,P|274:325|322:322,2,70,2|0|2,0:1|3:0|0:1,0:0:0:0:
157,147,56425,2,0,B|153:72|182:11|182:11|205:53|225:67,1,210,8|0,0:0|3:0,0:0:0:0:
300,76,56991,2,0,P|331:53|354:29,1,70,2|0,0:1|3:0,0:0:0:0:
374,119,57274,2,0,P|437:140|513:150,2,140,2|8|2,0:1|0:0|3:2,0:0:0:0:
229,173,58123,5,2,0:1:0:0:
368,203,58406,1,2,0:1:0:0:
294,373,58689,2,0,P|287:302|292:224,1,140,8|2,0:0|0:0,0:0:0:0:
214,249,59114,2,0,P|177:250|133:247,2,70,0|2|8,3:0|0:1|0:0,0:0:0:0:
229,173,59538,1,2,0:1:0:0:
292,37,59821,2,0,P|323:21|360:12,1,70,8|0,0:0|1:0,0:0:0:0:
305,123,60104,2,0,P|310:153|304:194,1,70,2|0,3:2|3:0,0:0:0:0:
216,84,60387,6,0,P|181:72|146:49,2,70,4|0|2,1:0|3:0|0:1,0:0:0:0:
67,119,60953,2,0,B|45:182|42:258|42:258|73:231|108:227,1,210,8|0,0:0|3:0,0:0:0:0:
106,315,61519,2,0,P|70:338|32:348,1,70,2|0,0:1|3:0,0:0:0:0:
171,363,61802,2,0,P|241:359|311:350,2,140,2|8|0,0:1|0:0|0:0,0:0:0:0:
180,286,62510,6,0,P|249:277|319:273,1,140,0|0,3:0|3:0,0:0:0:0:
389,306,62934,2,0,P|405:341|412:373,1,70,2|0,0:1|3:0,0:0:0:0:
456,266,63217,2,0,P|460:208|462:106,1,140,8|2,0:0|0:0,0:0:0:0:
409,70,63642,2,0,P|376:52|341:37,2,70,0|2|8,3:0|0:1|0:0,0:0:0:0:
383,143,64066,1,2,0:1:0:0:
254,58,64349,1,8,0:0:0:0:
283,210,64632,1,2,3:2:0:0:
177,98,64915,6,0,P|143:82|102:74,2,70,2|0|2,0:1|3:0|0:1,0:0:0:0:
188,253,65481,2,0,B|123:285|50:277|50:277|60:242|56:207,1,210,8|0,0:0|3:0,0:0:0:0:
50,133,66047,2,0,P|43:104|23:65,1,70,2|0,0:1|3:0,0:0:0:0:
100,51,66330,2,0,P|164:11|231:27,2,140,2|8|2,0:1|0:0|3:2,0:0:0:0:
248,92,67179,6,0,P|309:124|376:106,1,140,2|2,0:1|0:1,0:0:0:0:
459,236,67745,2,0,P|408:284|341:302,1,140,8|0,0:0|0:0,0:0:0:0:
264,301,68170,1,0,3:0:0:0:
195,268,68311,2,0,P|194:232|199:194,1,70,2|8,0:1|0:0,0:0:0:0:
265,160,68594,1,2,0:1:0:0:
199,342,68877,1,12,0:0:0:0:
126,202,69160,5,2,3:2:0:0:
109,126,69302,2,0,P|143:71|237:55,1,140,0|0,3:0|0:0,0:0:0:0:
288,72,69726,2,0,P|319:72|369:59,1,70,2|0,0:0|0:0,0:0:0:0:
432,78,70009,2,0,B|446:142|415:161|433:218,1,140,2|2,0:3|0:0,0:0:0:0:
468,285,70433,1,0,0:0:0:0:
418,343,70575,2,0,P|386:357|351:359,1,70,0|0,0:0|0:0,0:0:0:0:
366,281,70858,2,0,P|344:216|345:139,1,140,2|2,0:0|0:3,0:0:0:0:
275,312,71424,2,0,P|241:318|203:339,1,70,2|0,0:0|0:0,0:0:0:0:
134,354,71707,6,0,P|99:354|64:346,1,70,0|0,0:0|0:0,0:0:0:0:
73,269,71990,2,0,P|66:235|51:201,1,70,2|0,0:0|0:0,0:0:0:0:
122,175,72273,2,0,P|162:170|202:174,1,70,2|0,0:3|0:0,0:0:0:0:
268,192,72556,2,0,B|278:123|234:112|247:47,1,140,2|0,0:0|0:0,0:0:0:0:
311,16,72980,1,0,0:0:0:0:
362,73,73122,2,0,P|372:150|344:207,1,140,2|2,0:0|0:3,0:0:0:0:
296,264,73546,1,0,0:0:0:0:
219,257,73688,2,0,B|183:220|192:167|192:167|161:149|161:149|175:110|170:64,1,210,2|0,0:0|0:0,0:0:0:0:
105,32,74254,6,0,P|70:30|25:16,1,70,2|0,0:0|0:0,0:0:0:0:
37,98,74537,2,0,P|35:140|30:169,1,70,2|0,0:3|0:0,0:0:0:0:
19,244,74820,2,0,P|55:240|93:245,1,70,2|0,0:0|0:0,0:0:0:0:
102,319,75103,2,0,P|145:365|214:335,1,140,0|2,0:0|0:0,0:0:0:0:
284,361,75527,2,0,P|318:367|368:360,2,70,0|2|0,0:0|0:3|0:0,0:0:0:0:
476,232,76235,6,0,P|487:267|490:301,2,70,0|0|2,0:0|0:0|0:0,0:0:0:0:
402,208,76659,1,0,0:0:0:0:
352,148,76801,2,0,P|350:71|383:3,2,140,2|2|0,0:3|0:0|0:0,0:0:0:0:
329,221,77508,1,2,0:3:0:0:
257,249,77650,2,0,P|188:257|117:245,1,140,2|2,0:0|0:3,0:0:0:0:
111,168,78074,2,0,L|122:99,1,70,0|2,0:0|0:0,0:0:0:0:
122,98,85291,6,0,L|47:108,2,70,2|0|2,0:1|0:0|0:0,0:0:0:0:
186,55,85715,2,0,L|265:43,2,70,2|0|2,0:1|0:0|0:0,0:0:0:0:
194,132,86140,2,0,B|210:273|210:273|280:263,1,210,2|0,0:1|3:0,0:0:0:0:
316,196,86706,1,2,0:1:0:0:
135,319,86989,1,8,0:1:0:0:
364,329,87554,6,0,L|477:336,2,105.000004005432,6|0|8,0:0|0:0|0:3,0:0:0:0:
337,216,88403,2,0,B|324:158|370:120|370:120|430:139|443:197,1,210.000008010865,2|0,0:0|0:0,0:0:0:0:
276,263,89252,2,0,L|171:256,1,105.000004005432,8|0,0:3|0:0,0:0:0:0:
33,201,89818,6,0,L|30:316,2,105.000004005432,2|0|8,0:0|0:0|0:3,0:0:0:0:
114,118,90667,2,0,B|126:60|80:22|80:22|20:41|7:99,1,210.000008010865,2|0,0:0|0:0,0:0:0:0:
146,189,91516,2,0,L|260:176,1,105.000004005432,8|0,0:3|0:0,0:0:0:0:
299,72,92082,6,0,L|191:69,2,105.000004005432,2|0|8,0:0|0:0|0:3,0:0:0:0:
398,131,92931,2,0,B|439:209|373:248|402:337,1,210.000008010865,2|0,0:0|0:0,0:0:0:0:
288,362,93780,2,0,P|264:319|253:260,1,105.000004005432,8|0,0:3|0:0,0:0:0:0:
144,305,94346,2,0,P|90:313|33:312,2,105.000004005432,2|0|8,0:0|0:0|0:3,0:0:0:0:
181,195,95195,2,0,P|183:134|177:87,1,105.000004005432,2|0,0:0|0:0,0:0:0:0:
55,65,95761,1,0,0:0:0:0:
107,168,96044,1,8,0:3:0:0:
178,77,96327,1,0,0:0:0:0:
260,160,96610,6,0,P|259:220|253:265,1,105.000004005432,6|2,0:1|0:1,0:0:0:0:
211,372,97176,1,8,0:3:0:0:
112,311,97459,2,0,B|60:276|46:228|46:228|65:172|108:150,1,210.000008010865,2|0,0:0|0:0,0:0:0:0:
209,94,98308,1,8,0:3:0:0:
181,206,98591,1,0,0:0:0:0:
244,302,98874,6,0,P|294:315|360:320,1,105.000004005432,6|0,0:0|0:0,0:0:0:0:
423,232,99440,2,0,P|372:218|307:214,1,105.000004005432,8|6,0:3|0:0,0:0:0:0:
287,148,99865,2,0,L|309:96,1,52.5000020027161,2|2,3:1|0:1,0:0:0:0:
195,21,100289,2,0,P|135:22|77:32,1,105.000004005432,6|8,0:1|0:3,0:0:0:0:
11,140,100855,1,0,0:0:0:0:
86,253,101138,6,0,P|139:252|194:243,1,105.000004005432,2|0,0:0|0:0,0:0:0:0:
320,213,101704,2,0,P|313:268|317:332,1,105.000004005432,8|2,0:3|0:0,0:0:0:0:
379,353,102129,2,0,L|438:341,1,52.5000020027161,0|2,3:0|0:1,0:0:0:0:
501,213,102553,1,6,0:1:0:0:
426,86,102836,1,8,0:3:0:0:
397,230,103119,1,0,0:0:0:0:
293,126,103402,6,0,B|268:78|288:23|288:23|337:-6|394:22,1,210.000008010865,2|8,0:0|0:3,0:0:0:0:
320,213,104251,2,0,L|269:254,1,52.5000020027161,2|0,0:0|0:0,0:0:0:0:
229,176,104534,2,0,L|205:231,3,52.5000020027161,0|0|2|2,1:0|1:0|0:1|0:1,0:0:0:0:
138,190,105100,2,0,L|134:265,3,62.9999980773926,0|0|0|0,3:0|3:0|3:0|0:0,0:0:0:0:
47,261,105666,6,0,L|68:336,2,70,4|0|2,1:2|3:0|0:1,0:0:0:0:
161,117,106232,2,0,B|75:120|46:40|46:40|86:28|105:49,1,210,8|0,0:0|3:0,0:0:0:0:
180,45,106798,2,0,P|222:49|263:47,1,70,2|0,0:1|3:0,0:0:0:0:
233,124,107081,2,0,P|234:196|224:270,1,140,2|8,0:1|0:0,0:0:0:0:
437,357,107789,6,0,P|445:299|447:217,1,140,0|0,3:0|3:0,0:0:0:0:
372,238,108213,2,0,P|341:238|299:228,1,70,2|0,0:1|3:0,0:0:0:0:
306,152,108496,2,0,P|366:151|445:136,1,140,8|2,0:0|0:0,0:0:0:0:
439,59,108921,2,0,P|479:57|521:65,2,70,0|2|8,3:0|0:1|0:0,0:0:0:0:
363,68,109345,1,2,0:1:0:0:
298,229,109628,1,8,0:0:0:0:
444,136,109911,1,2,3:2:0:0:
288,81,110194,6,0,P|249:80|201:83,2,70,2|0|2,0:1|3:0|0:1,0:0:0:0:
372,238,110760,2,0,B|376:313|347:374|347:374|317:358|297:312,1,210,8|0,0:0|3:0,0:0:0:0:
226,309,111326,2,0,P|194:320|164:340,1,70,2|0,0:1|3:0,0:0:0:0:
146,265,111609,2,0,P|83:244|7:234,2,140,2|8|2,0:1|0:0|3:2,0:0:0:0:
298,229,112458,5,2,0:1:0:0:
152,180,112741,1,2,0:1:0:0:
240,15,113024,2,0,P|247:86|242:164,1,140,8|2,0:0|0:0,0:0:0:0:
322,154,113449,2,0,P|359:153|403:156,2,70,0|2|8,3:0|0:1|0:0,0:0:0:0:
298,229,113873,1,2,0:1:0:0:
228,367,114156,2,0,P|191:366|156:361,1,70,8|0,0:0|1:0,0:0:0:0:
232,294,114439,2,0,P|226:268|226:223,1,70,2|0,3:2|3:0,0:0:0:0:
294,334,114722,6,0,P|329:346|364:369,2,70,4|0|2,1:0|3:0|0:1,0:0:0:0:
453,265,115288,2,0,B|475:202|478:126|478:126|447:153|412:157,1,210,8|0,0:0|3:0,0:0:0:0:
414,69,115854,2,0,P|450:46|488:36,1,70,2|0,0:1|3:0,0:0:0:0:
349,21,116137,2,0,P|279:25|209:34,2,140,2|8|0,0:1|0:0|0:0,0:0:0:0:
340,98,116845,6,0,P|271:107|201:111,1,140,0|0,3:0|3:0,0:0:0:0:
131,78,117269,2,0,P|115:43|108:11,1,70,2|0,0:1|3:0,0:0:0:0:
64,118,117552,2,0,P|60:176|58:278,1,140,8|2,0:0|0:0,0:0:0:0:
111,314,117977,2,0,P|123:341|149:376,2,70,0|2|8,3:0|0:1|0:0,0:0:0:0:
137,241,118401,1,2,0:1:0:0:
228,367,118684,1,8,0:0:0:0:
291,205,118967,2,0,P|335:207|365:213,1,70,2|0,3:2|3:0,0:0:0:0:
343,286,119250,6,0,P|377:302|418:310,2,70,2|0|2,0:1|3:0|0:1,0:0:0:0:
332,131,119816,2,0,B|397:99|470:107|470:107|460:142|464:177,1,210,8|0,0:0|3:0,0:0:0:0:
470,251,120382,2,0,P|477:280|497:319,1,70,2|0,0:1|3:0,0:0:0:0:
420,333,120665,2,0,P|356:373|289:357,2,140,2|8|2,0:1|0:0|3:2,0:0:0:0:
272,292,121514,6,0,P|211:260|144:278,1,140,2|2,0:1|0:1,0:0:0:0:
61,148,122080,2,0,P|112:100|179:82,1,140,8|2,0:0|0:0,0:0:0:0:
256,83,122505,1,0,3:0:0:0:
325,116,122646,2,0,P|326:152|321:190,1,70,2|8,0:1|0:0,0:0:0:0:
255,224,122929,1,2,0:1:0:0:
319,42,123212,2,0,L|391:20,2,70,12|0|0,0:0|3:0|1:0,0:0:0:0:
407,168,123777,6,0,B|413:233|413:233|362:308,1,140,2|2,0:1|0:1,0:0:0:0:
256,153,124343,1,8,0:0:0:0:
26,341,124909,2,0,B|13:201|13:201|74:233,1,210,2|2,0:1|0:1,0:0:0:0:
96,307,125475,1,8,0:0:0:0:
139,159,125758,1,0,3:0:0:0:
177,308,126041,5,2,0:1:0:0:
231,149,126324,1,2,0:1:0:0:
256,314,126607,1,8,0:0:0:0:
471,261,127173,2,0,B|484:121|484:121|423:153,1,210,2|2,0:1|0:1,0:0:0:0:
401,227,127739,1,8,0:0:0:0:
358,79,128022,1,0,3:0:0:0:
320,228,128305,5,2,0:1:0:0:
266,69,128588,1,2,0:1:0:0:
241,234,128871,1,8,0:0:0:0:
51,122,129437,2,0,B|38:262|38:262|99:230,1,210,2|2,0:1|0:1,0:0:0:0:
121,156,130003,1,8,0:0:0:0:
164,304,130286,1,0,3:0:0:0:
202,155,130569,5,2,0:1:0:0:
256,314,130852,1,2,0:1:0:0:
281,149,131135,1,8,0:0:0:0:
409,292,131701,2,0,L|422:152,2,140,2|0|8,3:1|0:0|0:1,0:0:0:0:
291,57,132833,6,0,P|188:37|79:65,1,210.000008010865,6|8,0:1|0:3,0:0:0:0:
24,331,133965,1,2,0:1:0:0:
140,283,134248,1,2,0:0:0:0:
121,156,134531,1,8,0:1:0:0:
157,358,134814,6,0,P|208:364|263:360,1,105.000004005432,2|2,0:0|0:1,0:0:0:0:
377,310,135380,1,2,0:0:0:0:
492,359,135663,1,8,0:3:0:0:
283,217,136229,2,0,P|232:211|177:215,1,105.000004005432,2|0,0:1|0:0,0:0:0:0:
63,265,136795,1,8,0:1:0:0:
332,149,137361,6,0,P|386:152|438:164,2,105.000004005432,2|0|8,0:1|0:0|0:3,0:0:0:0:
81,178,138493,1,2,0:1:0:0:
146,70,138776,1,2,0:0:0:0:
271,83,139059,1,8,0:1:0:0:
384,28,139342,6,0,P|435:33|489:50,1,105.000004005432,2|2,0:0|0:1,0:0:0:0:
435,163,139908,2,0,P|414:211|402:264,1,105.000004005432,2|8,0:0|0:3,0:0:0:0:
470,368,140474,1,0,0:0:0:0:
303,296,140757,2,0,P|251:290|185:294,2,105.000004005432,2|0|8,0:1|0:0|0:1,0:0:0:0:
60,366,141889,6,0,P|51:259|85:154,1,210.000008010865,2|8,0:1|0:3,0:0:0:0:
301,40,143021,1,2,0:1:0:0:
175,55,143304,1,2,0:0:0:0:
51,30,143587,1,8,0:1:0:0:
193,158,143870,6,0,P|189:221|180:264,1,105.000004005432,2|2,0:0|0:1,0:0:0:0:
303,296,144436,2,0,P|307:233|316:190,1,105.000004005432,2|8,0:0|0:3,0:0:0:0:
381,84,145002,1,2,0:0:0:0:
443,193,145285,2,0,P|439:256|430:299,2,105.000004005432,2|0|8,0:1|0:0|0:1,0:0:0:0:
253,360,146417,5,2,0:1:0:0:
137,356,146700,2,0,P|77:339|34:317,1,105.000004005432,0|8,0:0|0:3,0:0:0:0:
54,78,147549,1,2,0:1:0:0:
169,74,147832,2,0,P|229:78|276:93,1,105.000004005432,0|8,0:0|0:1,0:0:0:0:
430,296,148681,5,2,0:1:0:0:
314,290,148964,2,0,P|262:280|213:261,1,105.000004005432,0|8,0:0|0:3,0:0:0:0:
415,41,149813,6,0,L|485:91,1,70,2|0,0:1|1:0,0:0:0:0:
406,122,150096,2,0,L|437:192,1,70,2|0,0:1|1:0,0:0:0:0:
357,188,150379,2,0,L|340:255,1,70,2|0,0:1|3:0,0:0:0:0:
278,209,150662,2,0,L|225:254,1,70,2|0,0:1|3:0,0:0:0:0:
196,182,150945,6,0,L|115:202,2,77.0000023498536,4|0|2,1:2|3:0|0:1,0:0:0:0:
180,335,151511,2,0,B|120:369|37:344|37:344|52:300|48:251,1,231.000007049561,8|0,0:0|3:0,0:0:0:0:
22,188,152077,2,0,P|22:157|31:113,1,77.0000023498536,2|0,0:1|3:0,0:0:0:0:
68,44,152360,2,0,P|144:35|221:32,2,154.000004699707,2|8|0,0:1|0:0|0:0,0:0:0:0:
105,112,153068,6,0,P|181:110|258:100,1,154.000004699707,0|0,3:0|3:0,0:0:0:0:
307,41,153492,2,0,P|343:33|386:36,1,77.0000023498536,2|0,0:1|3:0,0:0:0:0:
355,107,153775,2,0,P|354:169|332:261,1,154.000004699707,8|2,0:0|0:0,0:0:0:0:
409,273,154200,2,0,P|441:281|485:313,2,77.0000023498536,0|2|8,3:0|0:1|0:0,0:0:0:0:
358,331,154624,1,2,0:1:0:0:
224,254,154907,1,8,0:0:0:0:
421,198,155190,1,2,3:2:0:0:
268,339,155473,6,0,P|227:340|177:337,2,77.0000023498536,2|0|2,0:1|3:0|0:1,0:0:0:0:
237,168,156039,2,0,B|158:164|88:195|88:195|138:218|158:262,1,231.000007049561,8|0,0:0|3:0,0:0:0:0:
84,288,156605,2,0,P|71:322|44:354,1,77.0000023498536,2|0,0:1|3:0,0:0:0:0:
20,241,156888,2,0,P|17:158|42:91,2,154.000004699707,2|8|2,0:1|0:0|3:2,0:0:0:0:
155,315,157737,5,2,0:1:0:0:
129,102,158020,1,2,0:1:0:0:
224,254,158303,2,0,P|298:261|379:256,1,154.000004699707,8|2,0:0|0:0,0:0:0:0:
446,292,158728,2,0,P|443:331|437:370,2,77.0000023498536,0|2|8,3:0|0:1|0:0,0:0:0:0:
443,214,159152,1,2,0:1:0:0:
347,52,159435,1,8,0:0:0:0:
211,182,159718,1,2,3:2:0:0:
414,119,160001,6,0,P|448:85|467:46,2,77.0000023498536,6|0|2,0:1|3:0|0:1,0:0:0:0:
265,60,160567,2,0,B|208:32|119:24|119:24|136:72|129:107,1,231.000007049561,8|0,0:0|3:0,0:0:0:0:
94,171,161133,2,0,P|96:209|110:244,1,77.0000023498536,2|0,0:1|3:0,0:0:0:0:
109,322,161416,2,0,B|63:337|13:318|13:318|9:256,2,154.000004699707,2|8|0,0:1|0:0|0:0,0:0:0:0:
186,320,162124,6,0,P|268:320|339:332,1,154.000004699707,0|0,3:0|3:0,0:0:0:0:
415,343,162548,2,0,P|444:311|462:277,1,77.0000023498536,2|0,0:1|3:0,0:0:0:0:
458,204,162831,2,0,P|453:125|463:37,1,154.000004699707,8|2,0:0|0:0,0:0:0:0:
386,27,163256,2,0,P|347:19|295:25,2,77.0000023498536,0|2|8,3:0|0:1|0:0,0:0:0:0:
376,103,163680,1,2,0:1:0:0:
326,248,163963,1,8,0:0:0:0:
265,82,164245,2,0,P|226:79|185:69,1,77.0000023498536,2|0,3:2|3:0,0:0:0:0:
117,101,164529,6,0,P|111:132|110:179,2,77.0000023498536,2|0|2,0:1|3:0|0:1,0:0:0:0:
14,217,165095,2,0,B|31:277|104:329|104:329|138:278|168:264,1,231.000007049561,8|0,0:0|3:0,0:0:0:0:
237,279,165661,2,0,P|244:309|265:350,1,77.0000023498536,2|0,0:1|3:0,0:0:0:0:
342,347,165944,2,0,P|383:280|367:210,2,154.000004699707,2|8|2,0:1|0:0|3:2,0:0:0:0:
292,200,166793,6,0,P|258:136|275:60,1,154.000004699707,2|2,0:1|0:1,0:0:0:0:
418,116,167359,2,0,P|469:169|492:252,1,154.000004699707,8|0,0:0|0:0,0:0:0:0:
491,322,167784,1,0,3:0:0:0:
418,350,167925,2,0,P|380:351|341:346,1,77.0000023498536,2|8,0:1|0:0,0:0:0:0:
268,319,168208,1,2,0:1:0:0:
196,183,168490,2,0,P|200:228|198:268,1,77.0000023498536,8|0,0:0|1:0,0:0:0:0:
187,336,168773,1,2,0:0:0:0:
32,359,169056,6,0,P|32:322|37:274,1,70,4|0,3:2|3:0,0:0:0:0:
64,217,169339,2,0,P|75:146|72:68,2,140,0|8|0,1:0|3:0|0:0,0:0:0:0:
170,104,170188,2,0,P|209:98|257:102,1,70,0|0,3:0|3:0,0:0:0:0:
296,151,170471,2,0,P|300:228|292:291,2,140,0|8|0,1:0|3:0|0:0,0:0:0:0:
364,114,171179,6,0,P|380:184|383:256,1,140,2|0,0:0|3:0,0:0:0:0:
379,329,171603,2,0,P|413:332|455:327,1,70,0|0,1:0|3:0,0:0:0:0:
467,253,171886,2,0,P|461:181|441:115,1,140,8|0,3:0|3:0,0:0:0:0:
402,49,172311,2,0,B|335:37|269:64|269:64|300:40|321:6,1,210,2|0,3:2|1:0,0:0:0:0:
169,48,173018,2,0,P|93:49|19:37,1,140,8|2,3:0|0:0,0:0:0:0:
15,192,173584,6,0,P|52:192|100:187,1,70,0|0,3:0|3:0,0:0:0:0:
157,160,173867,2,0,P|228:149|306:152,2,140,0|8|0,1:0|3:0|0:0,0:0:0:0:
292,234,174716,2,0,P|326:233|361:238,1,70,0|0,3:0|3:0,0:0:0:0:
438,237,174999,2,0,P|445:313|442:377,2,140,0|8|0,1:0|3:0|0:0,0:0:0:0:
320,337,175848,6,0,P|249:346|165:340,1,140,0|0,3:0|3:0,0:0:0:0:
103,334,176273,1,2,0:0:0:0:
121,259,176414,2,0,P|128:188|124:120,1,140,8|0,3:0|3:0,0:0:0:0:
169,48,176839,2,0,B|240:25|305:52|305:52|278:81|241:94,1,210,2|0,3:2|0:0,0:0:0:0:
93,53,177546,1,8,3:0:0:0:
48,200,177829,1,2,0:0:0:0:
212,162,178112,6,0,P|249:157|297:157,1,70,2|0,0:1|3:0,0:0:0:0:
355,180,178395,2,0,P|424:179|504:172,2,140,2|8|0,0:1|0:1|3:0,0:0:0:0:
211,237,179244,2,0,P|213:276|218:308,1,70,2|0,0:1|3:0,0:0:0:0:
280,354,179527,2,0,P|356:347|420:350,2,140,2|8|0,0:1|0:1|3:0,0:0:0:0:
207,381,180234,6,0,P|138:377|66:363,1,140,2|0,0:0|3:0,0:0:0:0:
71,285,180659,2,0,P|104:274|138:267,1,70,2|0,0:1|3:0,0:0:0:0:
211,237,180942,2,0,P|218:166|214:98,1,140,8|0,0:1|0:0,0:0:0:0:
142,127,181367,2,0,B|71:150|6:123|6:123|33:94|70:81,1,210,2|2,0:0|0:1,0:0:0:0:
205,23,182074,1,8,0:1:0:0:
145,198,182357,1,0,3:0:0:0:
297,218,182640,6,0,L|311:287,3,70,2|0|2|0,3:1|3:0|3:1|3:0,0:0:0:0:
374,242,183206,2,0,L|454:288,1,70,8|0,3:2|3:0,0:0:0:0:
440,199,183489,2,0,L|510:183,1,70,0|0,3:0|3:0,0:0:0:0:
466,118,183772,2,0,L|480:44,3,70,2|0|2|0,3:1|3:0|3:1|3:0,0:0:0:0:
402,62,184338,1,8,3:2:0:0:
275,149,184621,1,0,3:0:0:0:
134,86,184904,5,8,1:2:0:0:
322,329,185470,1,8,1:2:0:0:
330,21,186036,1,8,1:0:0:0:
246,171,186319,1,2,1:0:0:0:
322,329,186602,1,2,1:0:0:0:
