osu file format v4

[General]
AudioFilename: Kurumi.mp3
AudioLeadIn: 0
AudioHash: 2ab89aaaaead9dbf2de34921685ef573
PreviewTime: -1
SampleSet: Soft
EditorBookmarks: 5865,17403,29711,42018

[Metadata]
Title:Kiss Kara Hajimaru Miracle
Artist:Steel Angels
Creator:Hitoshirenu Shourai
Version:Normal

[Difficulty]
HPDrainRate:3
CircleSize:3
OverallDifficulty:3
SliderMultiplier: 1.4
SliderTickRate: 1

[Events]
1,0,"Kurumi2.avi"
2,54141,56757
3,0,163,162,255

[TimingPoints]
6250,384.61038961039,4,2,0

[HitObjects]
128,96,6250,1,0,
256,96,7019,1,0,
384,96,7788,1,0,
256,192,8557,1,0,
128,288,9326,1,0,
256,288,10095,1,0,
384,288,10865,1,0,
256,192,11634,1,0,
448,64,12403,6,0,B|448:64|448:352,1,280
64,320,13942,2,0,B|64:320|64:32,1,280
256,64,15480,5,0,
256,192,16249,1,0,
256,288,16826,1,0,
384,288,18557,5,0,
256,288,19326,1,0,
128,288,20095,1,0,
128,192,20865,1,0,
128,96,21634,1,0,
256,96,22403,1,0,
384,96,23172,1,0,
256,192,23942,1,0,
256,320,24711,5,0,
176,256,25480,1,0,
96,192,26249,1,0,
176,128,27018,1,0,
256,64,27788,1,0,
336,128,28557,1,0,
416,192,29326,1,0,
336,272,30095,1,0,
128,96,30865,5,0,
256,96,31634,1,0,
384,96,32403,1,0,
384,192,33172,1,0,
384,288,33941,1,0,
256,288,34711,1,0,
128,288,35480,1,0,
128,192,36249,1,0,
256,64,37018,5,0,
176,128,37788,1,0,
96,192,38557,1,0,
176,256,39326,1,0,
256,320,40095,1,0,
336,256,40864,1,0,
416,192,41634,1,0,
256,192,42403,1,0,
128,288,43172,5,0,
256,288,43941,1,0,
384,288,44711,1,0,
384,192,45480,1,0,
384,96,46249,1,0,
256,96,47018,1,0,
128,96,47787,1,0,
128,192,48557,1,0,
384,96,49326,5,0,
256,96,50095,1,0,
128,96,50864,1,0,
128,192,51634,1,0,
128,288,52403,1,0,
256,288,53172,1,0,
384,288,53941,1,0,
192,96,58557,6,0,B|192:96|57:217|192:352,1,280
256,288,59710,1,0,
332,339,60095,6,0,B|332:339|455:217|320:96,1,280
256,192,61249,1,0,
128,128,61633,6,0,B|128:128|256:32|416:128,1,280
448,192,62787,1,0,
391,269,63172,6,0,B|391:269|256:352|128:256,1,280
384,288,64710,5,0,
256,288,65095,1,0,
128,288,65480,1,0,
256,192,65864,1,0,
128,96,66249,5,0,
256,96,66633,1,0,
384,96,67018,1,0,
256,192,67403,1,0,
416,192,67787,5,0,
256,192,68556,1,0,
144,192,69133,1,0,
416,64,70864,5,0,
416,192,71249,1,0,
416,320,71633,1,0,
256,320,72018,1,0,
96,320,72402,5,0,
96,192,72787,1,0,
96,64,73172,1,0,
256,64,73556,1,0,
416,192,73941,5,0,
256,192,74710,1,0,
144,192,75287,1,0,
256,320,77018,5,0,
256,192,77787,1,0,
256,96,78364,1,0,
416,192,80095,6,0,B|416:192|416:272,2,70
256,192,80864,1,0,
96,192,81249,2,0,B|96:192|96:112,2,70
176,112,82018,1,0,
320,112,82402,2,0,B|320:112|400:112,2,70
256,192,83075,12,0,85095
