osu file format v14

[General]
AudioFilename: Cold Green Eyes.mp3
AudioLeadIn: 0
PreviewTime: 44246
Countdown: 0
SampleSet: Soft
StackLeniency: 0.4
Mode: 0
LetterboxInBreaks: 0
WidescreenStoryboard: 0

[Editor]
Bookmarks: 66315
DistanceSpacing: 1.4
BeatDivisor: 4
GridSize: 4
TimelineZoom: 1

[Metadata]
Title:Cold Green Eyes ft. Roos Denayer
TitleUnicode:Cold Green Eyes ft. Roos Denayer
Artist:Station Earth
ArtistUnicode:Station Earth
Creator:Bearizm
Version:apple's Insane
Source:
Tags:Asphyxia HootOwlStar appleeaterx dnb drum and bass liquid liquicity Galaxy of Dreams
BeatmapID:827932
BeatmapSetID:371128

[Difficulty]
HPDrainRate:6
CircleSize:4
OverallDifficulty:7.5
ApproachRate:9
SliderMultiplier:1.6
SliderTickRate:1

[Events]
//Background and Video events
0,0,"thx for modding.jpg",0,0
//Break Periods
//Storyboard Layer 0 (Background)
//Storyboard Layer 1 (Fail)
//Storyboard Layer 2 (Pass)
//Storyboard Layer 3 (Foreground)
//Storyboard Sound Samples

[TimingPoints]
109,344.827586206897,4,2,19,50,1,0
22177,-133.333333333333,4,2,19,50,0,0
44246,-100,4,2,19,50,0,0
45626,-100,4,2,19,70,0,0
66315,-100,4,2,19,70,0,1
88384,-100,4,2,19,50,0,0
110453,-133.333333333333,4,2,19,50,0,0
132522,-133.333333333333,4,2,19,20,0,0

[Colours]
Combo1 : 160,160,255
Combo2 : 192,192,192
Combo3 : 128,128,128
Combo4 : 128,255,128

[HitObjects]
144,52,22177,6,0,L|152:176,1,120.000004577637,2|0,0:0|0:0,0:0:0:0:
240,148,22695,2,0,L|224:292,1,120.000004577637
316,284,23212,2,0,L|304:352,1,60.0000022888184
396,204,23557,6,0,P|428:268|416:324,1,120.000004577637,2|0,0:0|0:0,0:0:0:0:
308,200,24074,1,0,0:0:0:0:
356,124,24246,2,0,L|424:116,1,60.0000022888184
492,156,24591,2,0,L|500:84,1,60.0000022888184
416,28,24936,38,0,P|360:4|292:32,1,120.000004577637,2|0,0:0|0:0,0:0:0:0:
248,80,25453,1,0,0:0:0:0:
172,44,25626,2,0,L|96:36,1,60.0000022888184
48,92,25971,2,0,P|32:144|36:164,1,60.0000022888184
100,232,26315,6,0,P|148:224|228:216,1,120.000004577637,2|0,0:0|0:0,0:0:0:0:
292,256,26833,1,0,0:0:0:0:
340,188,27005,2,0,P|328:136|328:116,1,60.0000022888184
400,84,27350,2,0,L|472:92,1,60.0000022888184
448,200,27695,38,0,L|432:328,1,120.000004577637,2|0,0:0|0:0,0:0:0:0:
360,360,28212,2,0,P|327:352|288:348,1,60.0000022888184
216,352,28557,1,0,0:0:0:0:
156,292,28729,2,0,P|112:296|72:292,1,60.0000022888184
128,172,29074,6,0,L|272:164,1,120.000004577637,2|0,0:0|0:0,0:0:0:0:
316,120,29591,1,0,0:0:0:0:
400,136,29764,2,0,L|480:124,1,60.0000022888184
504,200,30109,2,0,L|492:272,1,60.0000022888184
412,344,30453,38,0,P|360:348|308:300,1,120.000004577637,2|0,0:0|0:0,0:0:0:0:
320,220,30971,1,0,0:0:0:0:
244,252,31143,2,0,P|200:260|160:256,1,60.0000022888184
120,204,31488,2,0,P|112:164|112:140,1,60.0000022888184
148,68,31833,6,0,L|128:4,2,60.0000022888184,2|0|0,0:0|0:0|0:0,0:0:0:0:
204,132,32350,1,0,0:0:0:0:
252,200,32522,2,0,L|244:268,2,60.0000022888184
292,124,33040,1,0,0:0:0:0:
368,232,33212,38,0,P|448:224|512:204,1,120.000004577637,2|0,0:0|0:0,0:0:0:0:
508,132,33729,1,0,0:0:0:0:
444,76,33902,2,0,P|452:40|464:4,1,60.0000022888184
376,116,34246,2,0,P|356:88|344:56,1,60.0000022888184
288,132,34591,6,0,P|232:96|160:108,1,120.000004577637,2|0,0:0|0:0,0:0:0:0:
108,140,35109,2,0,P|84:184|76:208,1,60.0000022888184
172,282,35453,2,0,P|169:252|160:224,1,60.0000022888184
88,284,35798,1,0,0:0:0:0:
144,364,35971,38,0,P|180:372|248:320,1,120.000004577637,2|0,0:0|0:0,0:0:0:0:
300,264,36488,1,0,0:0:0:0:
372,308,36660,2,0,P|356:352|352:364,1,60.0000022888184
456,324,37005,2,0,P|492:308|520:296,1,60.0000022888184
424,240,37350,6,0,P|416:200|412:116,1,120.000004577637,2|0,0:0|0:0,0:0:0:0:
428,40,37867,2,0,P|384:32|356:20,1,60.0000022888184
288,12,38212,1,0,0:0:0:0:
312,92,38384,2,0,P|296:128|288:160,1,60.0000022888184
312,228,38729,38,0,P|288:196|200:196,1,120.000004577637,2|0,0:0|0:0,0:0:0:0:
96,312,39419,2,0,P|154:313|195:272,1,120.000004577637
140,108,40109,2,0,P|109:157|124:213,1,120.000004577637
196,172,40626,1,0,0:0:0:0:
236,100,40798,1,0,0:0:0:0:
236,100,40971,1,0,0:0:0:0:
184,36,41143,1,0,0:0:0:0:
184,36,41315,1,0,0:0:0:0:
284,168,41488,6,0,P|344:156|412:148,1,120.000004577637,2|0,0:0|0:0,0:0:0:0:
480,180,42005,1,0,0:0:0:0:
484,96,42177,2,0,P|472:56|464:32,1,60.0000022888184
412,240,42522,2,0,P|400:280|392:304,2,60.0000022888184
256,192,42953,12,0,43902,0:0:0:0:
100,304,44246,6,0,P|148:320|236:244,1,160,6|8,0:0|0:0,0:0:0:0:
264,172,44764,1,0,0:0:0:0:
356,192,44936,2,0,P|372:236|364:284,1,80,0|0,0:0|3:0,0:0:0:0:
296,332,45281,2,0,L|208:320,1,80,8|0,0:0|0:0,0:0:0:0:
140,140,45626,5,2,0:0:0:0:
172,240,45798,1,0,0:0:0:0:
48,184,45971,1,8,0:0:0:0:
72,76,46143,1,0,0:0:0:0:
237,146,46315,2,0,P|238:105|224:68,1,80,0|0,0:0|3:0,0:0:0:0:
247,303,46660,2,0,P|291:291|335:290,1,80,8|0,0:0|0:0,0:0:0:0:
461,325,47005,38,0,P|428:258|458:161,1,160,2|8,0:0|0:0,0:0:0:0:
480,87,47522,1,0,0:0:0:0:
303,70,47695,2,0,P|347:97|400:97,1,80,0|0,0:0|3:0,0:0:0:0:
317,274,48040,2,0,P|319:230|297:187,1,80,8|0,0:0|0:0,0:0:0:0:
70,258,48384,6,0,L|263:242,1,160,2|8,0:0|0:0,0:0:0:0:
91,155,48902,1,0,0:0:0:0:
205,29,49074,2,0,L|190:128,1,80,0|0,0:0|3:0,0:0:0:0:
151,338,49419,1,8,0:0:0:0:
70,258,49591,1,0,0:0:0:0:
244,270,49764,38,0,P|306:284|392:215,1,160,2|8,0:0|0:0,0:0:0:0:
366,141,50281,1,0,0:0:0:0:
474,324,50453,2,0,P|418:341|379:322,1,80,0|0,0:0|3:0,0:0:0:0:
269,175,50798,2,0,L|278:74,1,80,8|0,0:0|0:0,0:0:0:0:
264,359,51143,6,0,P|201:346|78:329,1,160,2|8,0:0|0:0,0:0:0:0:
37,263,51660,1,0,0:0:0:0:
97,93,51833,1,0,0:0:0:0:
8,141,52005,1,0,3:0:0:0:
137,194,52177,2,0,P|182:193|226:179,1,80,8|0,0:0|0:0,0:0:0:0:
328,55,52522,38,0,L|308:245,1,160,2|8,0:0|0:0,0:0:0:0:
216,49,53040,1,0,0:0:0:0:
415,135,53212,2,0,L|518:123,1,80,0|0,0:0|3:0,0:0:0:0:
436,307,53557,2,0,L|357:298,1,80,8|0,0:0|0:0,0:0:0:0:
173,272,53902,5,2,0:0:0:0:
256,320,54074,1,0,0:0:0:0:
85,218,54246,1,8,0:0:0:0:
168,176,54418,1,0,0:0:0:0:
83,320,54591,1,0,0:0:0:0:
0,272,54764,1,0,3:0:0:0:
106,113,54936,1,8,0:0:0:0:
85,218,55109,1,0,3:0:0:0:
38,65,55281,38,0,P|105:28|183:89,1,160,2|8,0:0|0:0,0:0:0:0:
242,133,55798,1,0,0:0:0:0:
317,78,55971,2,0,L|403:69,1,80,0|0,0:0|3:0,0:0:0:0:
352,260,56315,1,8,0:0:0:0:
256,224,56488,1,0,0:0:0:0:
424,192,56660,6,0,P|455:245|426:339,1,160,2|8,0:0|0:0,0:0:0:0:
265,325,57177,1,0,0:0:0:0:
352,260,57350,1,0,0:0:0:0:
348,375,57522,1,0,3:0:0:0:
170,283,57695,2,0,P|168:341|175:377,1,80,8|0,0:0|0:0,0:0:0:0:
352,260,58040,38,0,L|341:87,1,160,2|8,0:0|0:0,0:0:0:0:
396,16,58557,1,0,0:0:0:0:
252,24,58729,2,0,L|236:124,1,80,0|0,0:0|3:0,0:0:0:0:
112,188,59074,2,0,L|99:109,1,80,8|0,0:0|0:0,0:0:0:0:
212,228,59419,5,2,0:0:0:0:
132,292,59591,1,0,0:0:0:0:
284,300,59764,1,8,0:0:0:0:
200,376,59936,1,0,0:0:0:0:
364,376,60109,2,0,P|416:368|448:356,1,80,0|0,0:0|3:0,0:0:0:0:
488,224,60453,2,0,P|449:211|410:206,1,80,8|0,0:0|0:0,0:0:0:0:
292,84,60798,38,0,P|352:96|448:24,1,160,2|8,0:0|0:0,0:0:0:0:
244,0,61315,1,0,0:0:0:0:
176,60,61488,2,0,P|160:108|160:144,1,80,0|0,0:0|3:0,0:0:0:0:
264,200,61833,2,0,L|352:188,1,80,8|0,0:0|0:0,0:0:0:0:
220,300,62177,6,0,B|124:336|152:276|56:308,1,160,2|8,0:0|0:0,0:0:0:0:
176,220,62695,1,0,0:0:0:0:
320,288,62867,2,0,P|312:336|308:376,1,80,0|0,0:0|3:0,0:0:0:0:
276,176,63212,2,0,P|271:136|264:96,1,80,8|0,0:0|0:0,0:0:0:0:
364,204,63557,38,0,P|408:196|456:196,1,80,2|0,0:0|0:0,0:0:0:0:
232,260,63902,2,0,P|192:258|152:251,1,80,8|0,0:0|0:0,0:0:0:0:
80,152,64246,1,0,0:0:0:0:
192,104,64419,1,0,3:0:0:0:
72,272,64591,2,0,P|60:320|60:360,1,80,8|0,0:0|0:0,0:0:0:0:
232,260,64936,5,2,0:0:0:0:
200,356,65109,1,0,0:0:0:0:
324,244,65281,1,8,0:0:0:0:
168,184,65453,1,0,0:0:0:0:
292,336,65626,1,0,0:0:0:0:
140,284,65798,1,0,3:0:0:0:
264,172,65971,2,8,P|320:160|368:148,1,80,8|0,0:0|3:0,0:0:0:0:
200,356,66315,38,0,P|152:348|36:332,1,160,6|8,0:0|0:0,0:0:0:0:
168,184,66833,2,0,P|120:192|72:204,1,80
256,264,67177,1,0,3:0:0:0:
264,68,67350,2,0,P|312:76|360:88,1,80,8|0,0:0|0:0,0:0:0:0:
424,216,67695,6,0,P|356:232|276:156,1,160,2|8,0:0|0:0,0:0:0:0:
178,283,68212,2,0,P|222:270|261:263,1,80
104,356,68557,1,0,3:0:0:0:
80,240,68729,2,0,P|64:188|76:144,1,80,8|0,0:0|0:0,0:0:0:0:
200,28,69074,38,0,L|180:200,1,160,2|8,0:0|0:0,0:0:0:0:
372,72,69591,2,0,L|292:80,1,80
268,168,69936,1,0,3:0:0:0:
356,284,70109,1,8,0:0:0:0:
364,180,70281,1,0,0:0:0:0:
304,360,70453,6,0,P|364:372|448:284,1,160,2|8,0:0|0:0,0:0:0:0:
264,284,70971,1,0,0:0:0:0:
264,284,71143,2,0,P|216:268|164:284,1,80,0|0,0:0|3:0,0:0:0:0:
36,352,71488,2,0,P|75:355|112:340,1,80,8|0,0:0|0:0,0:0:0:0:
96,116,71833,38,0,P|64:184|104:260,1,160,2|8,0:0|0:0,0:0:0:0:
144,40,72350,2,0,P|92:28|44:52,1,80
184,120,72695,1,0,3:0:0:0:
292,16,72867,2,0,L|384:12,1,80,8|0,0:0|0:0,0:0:0:0:
448,144,73212,6,0,L|272:128,1,160,2|8,0:0|0:0,0:0:0:0:
216,292,73729,1,0,0:0:0:0:
298,220,73902,1,0,0:0:0:0:
184,120,74074,1,0,3:0:0:0:
312,317,74246,2,0,L|364:309|416:301,1,80,8|0,0:0|0:0,0:0:0:0:
170,215,74591,38,0,P|102:211|-6:199,1,160,2|8,0:0|0:0,0:0:0:0:
184,120,75109,1,0,0:0:0:0:
286,140,75281,2,0,L|293:196|298:224,1,80,0|0,0:0|3:0,0:0:0:0:
392,324,75626,2,0,P|400:280|404:240,1,80,8|0,0:0|0:0,0:0:0:0:
456,84,75971,5,2,0:0:0:0:
508,168,76143,1,0,0:0:0:0:
360,108,76315,1,8,0:0:0:0:
384,16,76488,1,0,0:0:0:0:
414,200,76660,1,0,0:0:0:0:
299,186,76833,1,0,3:0:0:0:
396,304,77005,2,0,P|448:296|488:284,1,80,8|0,0:0|3:0,0:0:0:0:
244,110,77350,38,0,P|212:170|244:262,1,160,2|8,0:0|0:0,0:0:0:0:
151,89,77867,1,0,0:0:0:0:
151,89,78040,2,0,P|107:73|63:85,1,80,0|0,0:0|3:0,0:0:0:0:
299,186,78385,2,0,P|338:190|374:175,1,80,8|0,0:0|0:0,0:0:0:0:
184,205,78729,6,0,L|156:365,1,160,2|8,0:0|0:0,0:0:0:0:
60,180,79246,2,0,L|80:268,1,80
140,104,79591,1,0,3:0:0:0:
264,252,79764,2,0,L|248:332,1,80,8|0,0:0|0:0,0:0:0:0:
245,121,80109,38,0,P|305:129|393:53,1,160,2|8,0:0|0:0,0:0:0:0:
286,35,80626,1,0,0:0:0:0:
391,188,80798,2,0,P|430:197|479:189,1,80,0|0,0:0|3:0,0:0:0:0:
264,252,81143,2,0,P|262:295|276:344,1,80,8|0,0:0|0:0,0:0:0:0:
124,204,81488,6,0,L|148:24,1,160,2|8,0:0|0:0,0:0:0:0:
286,35,82005,1,0,0:0:0:0:
303,157,82177,2,0,L|223:163,1,80,0|0,0:0|3:0,0:0:0:0:
379,78,82522,2,0,L|458:71,1,80,8|0,0:0|0:0,0:0:0:0:
426,199,82867,38,0,P|410:275|406:379,1,160,2|8,0:0|0:0,0:0:0:0:
505,250,83384,1,0,0:0:0:0:
319,323,83557,2,0,P|275:319|231:303,1,80,0|0,0:0|3:0,0:0:0:0:
267,136,83902,2,0,P|285:176|293:222,1,80,8|0,0:0|0:0,0:0:0:0:
144,266,84246,6,0,P|169:229|205:199,1,80,2|0,0:0|0:0,0:0:0:0:
93,368,84591,2,0,P|61:324|63:203,1,160,8|0,0:0|0:0,0:0:0:0:
144,162,85109,1,0,3:0:0:0:
52,11,85281,1,8,0:0:0:0:
46,124,85453,1,0,0:0:0:0:
194,3,85626,38,0,P|210:59|210:99,2,80,2|0|8,0:0|0:0|0:0,0:0:0:0:
232,193,86143,2,0,P|288:213|381:151,1,160,0|0,0:0|3:0,0:0:0:0:
395,62,86660,2,0,P|335:62|307:86,1,80,8|0,0:0|0:0,0:0:0:0:
399,270,87005,5,2,0:0:0:0:
372,168,87177,1,0,0:0:0:0:
482,335,87350,1,8,0:0:0:0:
506,214,87522,1,0,0:0:0:0:
365,359,87695,2,0,P|301:347|257:343,1,80,0|0,0:0|3:0,0:0:0:0:
165,364,88040,1,8,0:0:0:0:
248,250,88212,1,0,3:0:0:0:
44,321,88384,38,0,L|68:129,1,160,6|8,0:0|0:0,0:0:0:0:
144,48,88902,1,0,0:0:0:0:
147,67,88988,1,0,0:0:0:0:
151,87,89074,1,0,0:0:0:0:
60,75,89246,1,0,3:0:0:0:
168,176,89419,2,0,P|216:168|256:160,1,80,8|0,0:0|0:0,0:0:0:0:
368,40,89764,6,0,P|344:160|336:216,1,160,2|8,0:0|0:0,0:0:0:0:
440,112,90281,2,0,L|488:104,2,40
280,48,90626,2,0,L|232:40,2,40,0|0|8,3:0|0:0|0:0,0:0:0:0:
336,124,90971,1,0,0:0:0:0:
232,212,91143,38,0,P|224:264|232:304,1,80,2|0,0:0|0:0,0:0:0:0:
452,256,91488,2,0,P|416:224|312:260,1,160,8|0,0:0|0:0,0:0:0:0:
304,344,92005,1,0,3:0:0:0:
216,372,92177,2,0,P|156:376|116:348,1,80,8|0,0:0|0:0,0:0:0:0:
72,268,92522,6,0,L|76:180,1,80,2|0,0:0|0:0,0:0:0:0:
104,160,92781,1,0,0:0:0:0:
104,160,92867,2,0,L|108:80,1,80,8|0,0:0|0:0,0:0:0:0:
180,16,93212,1,0,0:0:0:0:
264,64,93384,1,0,3:0:0:0:
183,168,93557,2,0,P|131:160|95:160,1,80,8|0,0:0|0:0,0:0:0:0:
288,160,93902,38,0,P|332:148|360:16,1,160,0|8,0:0|0:0,0:0:0:0:
452,152,94419,2,0,L|460:248,1,80
416,356,94764,1,0,3:0:0:0:
304,240,94936,1,8,0:0:0:0:
384,272,95109,1,0,0:0:0:0:
264,336,95281,6,0,P|200:320|100:304,1,160,2|8,0:0|0:0,0:0:0:0:
16,248,95798,2,0,P|8:304|12:344,1,80
88,180,96143,1,0,3:0:0:0:
88,180,96229,1,0,0:0:0:0:
88,180,96315,2,0,P|72:136|68:88,1,80,8|0,0:0|0:0,0:0:0:0:
160,28,96660,38,0,L|320:20,1,160,2|8,0:0|0:0,0:0:0:0:
216,120,97177,2,0,L|264:116,2,40
336,152,97522,1,0,3:0:0:0:
320,260,97695,2,0,P|280:248|252:216,1,80,8|0,0:0|0:0,0:0:0:0:
416,232,98040,6,0,L|428:320,1,80,2|0,0:0|0:0,0:0:0:0:
440,120,98384,2,0,L|464:32,1,80,8|0,0:0|0:0,0:0:0:0:
336,152,98729,2,0,L|248:140,1,80,0|0,0:0|3:0,0:0:0:0:
180,200,99074,1,8,0:0:0:0:
168,84,99246,1,0,3:0:0:0:
120,272,99419,38,0,P|180:296|272:228,2,160,2|8|0,0:0|0:0|0:0,0:0:0:0:
36,208,100281,1,0,3:0:0:0:
96,128,100453,2,0,L|88:40,1,80,8|0,0:0|0:0,0:0:0:0:
248,0,100798,6,0,L|240:168,1,160,2|8,0:0|0:0,0:0:0:0:
336,188,101315,1,0,0:0:0:0:
436,96,101488,2,0,L|356:84,1,80,0|0,0:0|3:0,0:0:0:0:
348,72,101746,1,0,0:0:0:0:
336,60,101833,1,8,0:0:0:0:
456,4,102005,1,0,0:0:0:0:
492,184,102177,38,0,P|505:222|500:264,1,80,2|0,0:0|0:0,0:0:0:0:
412,336,102522,2,0,L|308:324,1,80,8|0,0:0|0:0,0:0:0:0:
228,252,102867,1,0,0:0:0:0:
220,364,103040,1,0,3:0:0:0:
312,236,103212,2,0,P|320:188|316:128,1,80,8|0,0:0|0:0,0:0:0:0:
216,88,103557,6,0,P|272:112|360:64,1,160,2|8,0:0|0:0,0:0:0:0:
148,28,104074,1,0,0:0:0:0:
120,112,104246,2,0,P|64:104|28:96,1,80,0|0,0:0|3:0,0:0:0:0:
176,208,104591,2,0,P|124:228|84:240,1,80,8|0,0:0|0:0,0:0:0:0:
280,184,104936,38,0,P|292:264|292:352,1,160,2|8,0:0|0:0,0:0:0:0:
400,248,105453,1,0,0:0:0:0:
400,248,105540,1,0,0:0:0:0:
400,248,105626,2,0,P|444:232|488:224,1,80,0|0,0:0|3:0,0:0:0:0:
388,108,105971,2,0,P|348:99|311:85,1,80,8|0,0:0|0:0,0:0:0:0:
185,177,106315,6,0,P|167:99|164:20,1,160,2|8,0:0|0:0,0:0:0:0:
248,56,106833,1,0,0:0:0:0:
88,136,107005,2,0,P|40:124|4:108,1,80,0|0,0:0|3:0,0:0:0:0:
248,56,107350,2,0,P|285:41|324:32,2,80,8|0|2,0:0|0:0|0:0,0:0:0:0:
256,192,107781,12,0,110109,0:0:0:0:
88,308,110453,6,0,P|140:320|200:272,1,120.000004577637,2|0,0:0|0:0,0:0:0:0:
252,224,110971,2,0,P|304:212|364:260,1,120.000004577637
412,308,111488,2,0,L|404:372,1,60.0000022888184
488,256,111833,6,0,P|492:192|484:128,2,120.000004577637,2|0|0,0:0|0:0|0:0,0:0:0:0:
408,196,112695,2,0,P|364:184|284:172,1,120.000004577637
192,76,113212,38,0,P|252:76|268:72,2,60.0000022888184,2|0|0,0:0|0:0|0:0,0:0:0:0:
140,12,113729,2,0,P|156:64|140:152,1,120.000004577637
100,196,114246,2,0,P|72:160|68:120,1,60.0000022888184
184,212,114591,6,0,L|200:360,1,120.000004577637,2|0,0:0|0:0,0:0:0:0:
360,372,115281,2,0,L|372:252,1,120.000004577637
444,208,115798,1,0,0:0:0:0:
392,88,115971,38,0,P|336:64|264:88,1,120.000004577637,2|0,0:0|0:0,0:0:0:0:
216,132,116488,2,0,L|232:4,1,120.000004577637
128,32,117005,2,0,L|136:100,1,60.0000022888184
168,212,117350,6,0,P|124:204|40:196,1,120.000004577637,2|0,0:0|0:0,0:0:0:0:
8,272,117867,1,0,0:0:0:0:
32,349,118040,2,0,L|100:341,2,60.0000022888184
8,272,118557,1,0,0:0:0:0:
177,307,118729,38,0,P|229:292|312:274,1,120.000004577637
398,156,121143,6,0,P|446:148|478:140,1,60.0000022888184
324,120,121488,38,0,P|272:108|192:96,1,120.000004577637,2|0,0:0|0:0,0:0:0:0:
76,228,122177,2,0,P|132:216|152:216,2,60.0000022888184
16,288,122695,1,0,0:0:0:0:
92,328,122867,6,0,P|152:335|208:304,1,120.000004577637,2|0,0:0|0:0,0:0:0:0:
256,240,123384,2,0,P|244:200|236:172,1,60.0000022888184
292,116,123729,2,0,P|300:68|300:36,1,60.0000022888184
220,24,124074,1,0,0:0:0:0:
128,96,124246,38,0,P|148:160|164:236,1,120.000004577637,2|0,0:0|0:0,0:0:0:0:
144,296,124764,1,0,0:0:0:0:
76,248,124936,2,0,P|48:260|8:272,2,60.0000022888184
144,296,125453,1,0,0:0:0:0:
228,312,125626,6,0,P|264:300|344:288,1,120.000004577637,2|0,0:0|0:0,0:0:0:0:
368,208,126143,2,0,P|352:172|348:136,1,60.0000022888184
432,268,126488,2,0,P|428:312|420:336,1,60.0000022888184
460,180,126833,1,0,0:0:0:0:
368,208,127005,38,0,L|232:192,1,120.000004577637,2|0,0:0|0:0,0:0:0:0:
216,52,127695,2,0,L|352:68,1,120.000004577637
428,192,128384,6,0,P|452:252|440:308,1,120.000004577637,2|0,0:0|0:0,0:0:0:0:
364,340,128902,1,0,0:0:0:0:
292,296,129074,1,0,0:0:0:0:
292,296,129246,1,0,0:0:0:0:
216,336,129419,1,0,0:0:0:0:
216,336,129591,1,0,0:0:0:0:
144,232,129764,6,0,P|192:200|260:216,1,120.000004577637,2|0,0:0|0:0,0:0:0:0:
336,220,130281,2,0,L|320:96,1,120.000004577637
256,44,130798,2,0,P|199:59|145:35,1,120.000004577637
256,192,131229,12,0,132522,0:0:0:0:
