osu file format v14

[General]
AudioFilename: Cold Green Eyes.mp3
AudioLeadIn: 0
PreviewTime: 44246
Countdown: 0
SampleSet: Soft
StackLeniency: 0.7
Mode: 0
LetterboxInBreaks: 0
WidescreenStoryboard: 0

[Editor]
DistanceSpacing: 1.4
BeatDivisor: 4
GridSize: 4
TimelineZoom: 1

[Metadata]
Title:Cold Green Eyes ft. Roos Denayer
TitleUnicode:Cold Green Eyes ft. Roos Denayer
Artist:Station Earth
ArtistUnicode:Station Earth
Creator:Bearizm
Version:Divine
Source:
Tags:Asphyxia HootOwlStar appleeaterx dnb drum and bass liquid liquicity Galaxy of Dreams
BeatmapID:814293
BeatmapSetID:371128

[Difficulty]
HPDrainRate:6
CircleSize:4
OverallDifficulty:8.5
ApproachRate:9.2
SliderMultiplier:1.6
SliderTickRate:1

[Events]
//Background and Video events
0,0,"thx for modding.jpg",0,0
//Break Periods
//Storyboard Layer 0 (Background)
//Storyboard Layer 1 (Fail)
//Storyboard Layer 2 (Pass)
//Storyboard Layer 3 (Foreground)
//Storyboard Sound Samples

[TimingPoints]
109,344.827586206897,4,2,1,50,1,0
22177,-133.333333333333,4,2,1,50,0,0
44246,-100,4,2,1,80,0,1
44333,-100,4,2,1,80,0,0
47005,-100,4,2,2,80,0,0
47177,-100,4,2,1,80,0,0
52522,-100,4,2,2,80,0,0
52695,-100,4,2,1,80,0,0
58040,-100,4,2,2,80,0,0
58212,-100,4,2,1,80,0,0
63557,-100,4,2,2,80,0,0
63902,-100,4,2,1,80,0,0
66315,-100,4,2,1,80,0,1
88384,-100,4,2,1,80,0,0
110453,-133.333333333333,4,2,1,60,0,0
131229,-133.333333333333,4,2,1,5,0,0

[Colours]
Combo1 : 160,160,255
Combo2 : 192,192,192
Combo3 : 128,128,128
Combo4 : 128,255,128

[HitObjects]
256,192,11143,5,2,0:3:0:0:
256,192,11229,12,8,15281,0:1:0:0:
256,192,16660,5,2,0:3:0:0:
256,192,16746,12,8,20798,0:1:0:0:
88,116,22177,38,0,L|96:240,1,120.000004577637,2|0,0:3|0:0,0:0:0:0:
172,196,22695,2,0,P|220:232|280:228,1,120.000004577637,2|0,0:0|0:0,0:0:0:0:
360,204,23212,2,0,L|352:264,1,60.0000022888184
244,152,23557,5,2,0:0:0:0:
244,152,23902,1,0,0:0:0:0:
312,100,24074,1,0,0:0:0:0:
232,132,24246,1,0,0:0:0:0:
248,48,24419,1,0,0:0:0:0:
212,124,24591,1,0,0:0:0:0:
168,52,24764,1,0,0:0:0:0:
184,192,24936,38,0,L|196:320,1,120.000004577637,2|0,0:0|0:0,0:0:0:0:
272,348,25453,2,0,P|320:312|376:324,1,120.000004577637,2|0,0:0|0:0,0:0:0:0:
460,320,25971,2,0,P|476:292|484:264,1,60.0000022888184
480,180,26315,5,2,0:0:0:0:
480,180,26660,1,0,0:0:0:0:
400,200,26833,1,0,0:0:0:0:
340,100,27005,1,0,0:0:0:0:
420,116,27177,1,0,0:0:0:0:
320,220,27350,1,0,0:0:0:0:
400,200,27522,1,0,0:0:0:0:
496,308,27695,38,0,P|440:276|388:284,1,120.000004577637,2|0,0:0|0:0,0:0:0:0:
308,340,28212,2,0,L|300:220,1,120.000004577637,2|0,0:0|0:0,0:0:0:0:
220,300,28729,2,0,P|192:288|164:280,1,60.0000022888184
80,284,29074,5,2,0:0:0:0:
80,284,29419,1,2,0:0:0:0:
56,204,29591,1,0,0:0:0:0:
68,296,29764,1,2,0:0:0:0:
176,200,29936,2,0,P|184:168|188:136,2,60.0000022888184,2|0|2,0:0|0:0|0:0,0:0:0:0:
136,84,30453,38,0,P|196:100|244:72,1,120.000004577637
288,0,30971,1,0,0:0:0:0:
328,76,31143,2,0,P|320:112|320:136,1,60.0000022888184
404,144,31488,2,0,P|412:108|412:84,1,60.0000022888184
356,240,31833,6,0,L|416:236,1,60.0000022888184,2|0,0:3|0:0,0:0:0:0:
460,308,32177,2,0,L|400:312,1,60.0000022888184
316,316,32522,1,0,0:0:0:0:
276,244,32695,2,0,P|292:216|300:188,2,60.0000022888184
144,316,33212,38,0,L|24:304,1,120.000004577637,2|0,0:3|0:0,0:0:0:0:
24,304,33902,1,2,0:0:0:0:
76,236,34074,1,0,0:0:0:0:
32,164,34246,1,2,0:0:0:0:
20,328,34419,1,2,0:0:0:0:
40,140,34591,5,2,0:0:0:0:
128,300,34764,2,0,L|188:296,1,60.0000022888184,2|0,0:0|0:0,0:0:0:0:
300,248,35109,2,0,L|240:244,1,60.0000022888184,2|0,0:0|0:0,0:0:0:0:
120,316,35453,2,0,L|180:312,1,60.0000022888184,2|0,0:0|0:0,0:0:0:0:
308,264,35798,1,2,0:0:0:0:
136,192,35971,38,0,P|160:140|156:76,1,120.000004577637
156,78,36660,1,2,0:0:0:0:
236,48,36833,1,0,0:0:0:0:
132,88,37005,1,2,0:0:0:0:
280,128,37177,1,2,0:0:0:0:
136,192,37350,6,0,L|76:188,1,60.0000022888184,2|0,0:0|0:0,0:0:0:0:
212,232,37695,1,2,0:0:0:0:
212,232,37867,2,0,B|216:264|216:264|212:292,1,60.0000022888184,2|0,0:0|0:0,0:0:0:0:
136,336,38212,2,0,B|132:304|132:304|136:276,1,60.0000022888184,2|0,0:0|0:0,0:0:0:0:
136,192,38557,1,0,0:0:0:0:
296,272,38729,37,12,0:0:0:0:
412,256,39074,1,8,0:0:0:0:
296,272,39419,1,8,0:0:0:0:
424,276,39764,1,8,0:0:0:0:
296,272,40109,1,8,0:0:0:0:
296,272,40453,6,0,P|304:240|308:212,1,60.0000022888184,10|0,0:0|0:0,0:0:0:0:
256,136,40798,1,8,0:0:0:0:
400,204,40971,1,2,0:0:0:0:
220,224,41143,1,8,0:0:0:0:
428,200,41315,1,0,0:0:0:0:
344,332,41488,38,0,L|224:324,1,120.000004577637,10|8,0:0|0:0,0:0:0:0:
128,292,42005,2,0,L|136:352,1,60.0000022888184,2|8,0:0|0:0,0:0:0:0:
296,236,42350,1,0,0:0:0:0:
296,236,42522,2,0,P|304:204|304:176,1,60.0000022888184,10|0,0:0|0:0,0:0:0:0:
260,96,42867,5,0,0:0:0:0:
396,152,43040,1,2,0:0:0:0:
220,196,43212,1,0,0:0:0:0:
424,148,43384,1,2,0:0:0:0:
296,236,43557,1,2,0:0:0:0:
260,96,43729,37,0,0:0:0:0:
304,260,43902,1,0,0:0:0:0:
252,76,44074,1,2,0:0:0:0:
232,320,44246,22,0,B|352:308|352:308|392:320,1,160,4|8,3:2|0:3,0:0:0:0:
476,348,44764,1,2,0:0:0:0:
304,260,44936,1,2,0:0:0:0:
508,236,45109,1,0,3:0:0:0:
468,368,45281,1,8,0:3:0:0:
408,204,45453,1,2,0:0:0:0:
308,304,45626,6,0,B|268:296|268:296|228:300,1,80,4|2,3:0|0:0,0:0:0:0:
124,260,45971,2,0,P|104:224|96:184,1,80,8|2,0:3|0:0,0:0:0:0:
176,108,46315,1,2,0:0:0:0:
20,216,46488,1,0,3:0:0:0:
188,200,46660,2,0,L|268:192,1,80,8|2,0:3|0:0,0:0:0:0:
167,29,47005,38,0,B|164:68|164:68|176:108,1,80,4|0,3:0|0:0,0:0:0:0:
288,204,47350,2,0,B|291:242|291:242|279:282,1,80,8|2,0:3|0:0,0:0:0:0:
196,328,47695,1,2,0:0:0:0:
372,272,47867,1,0,3:0:0:0:
188,200,48040,1,8,0:3:0:0:
308,344,48212,1,2,0:0:0:0:
172,184,48384,5,2,3:0:0:0:
308,208,48557,2,0,P|324:172|332:132,2,80,2|8|2,0:0|0:3|0:0,0:0:0:0:
132,268,49074,1,2,0:0:0:0:
248,140,49246,1,0,3:3:0:0:
220,292,49419,2,0,L|208:372,1,80,8|0,0:3|0:0,0:0:0:0:
160,160,49764,38,0,L|152:80,1,80,4|2,3:2|0:0,0:0:0:0:
236,16,50109,1,8,0:3:0:0:
72,48,50281,1,2,0:0:0:0:
256,120,50453,1,2,0:0:0:0:
160,160,50626,1,0,3:0:0:0:
236,16,50798,1,8,0:3:0:0:
392,104,50971,1,2,0:0:0:0:
316,208,51143,6,0,L|236:200,1,80,4|2,3:0|0:0,0:0:0:0:
104,244,51488,2,0,L|24:260,2,80,8|2|2,0:3|0:0|0:0,0:0:0:0:
220,212,52005,1,0,3:0:0:0:
300,308,52177,2,0,P|292:348|276:384,1,80,8|2,0:3|0:0,0:0:0:0:
208,192,52522,38,0,P|200:152|200:112,1,80,4|0,3:0|0:0,0:0:0:0:
280,36,52867,2,0,L|360:44,2,80,8|2|2,0:3|0:0|0:0,0:0:0:0:
128,88,53384,1,0,3:0:0:0:
300,144,53557,1,8,0:3:0:0:
172,16,53729,1,2,0:0:0:0:
208,192,53902,5,0,3:0:0:0:
320,128,54074,1,2,0:0:0:0:
104,84,54246,1,8,0:3:0:0:
280,36,54419,1,2,0:0:0:0:
208,192,54591,1,2,0:0:0:0:
172,16,54764,1,0,3:0:0:0:
320,128,54936,1,10,0:3:0:0:
120,200,55109,1,0,3:0:0:0:
392,184,55281,38,0,P|404:144|408:104,1,80,4|2,3:2|0:0,0:0:0:0:
208,192,55626,2,0,P|216:232|232:272,1,80,8|2,0:3|0:0,0:0:0:0:
304,332,55971,1,2,0:0:0:0:
328,224,56143,1,0,3:0:0:0:
156,304,56315,1,8,0:3:0:0:
352,212,56488,1,2,0:0:0:0:
292,352,56660,6,0,B|252:348|252:348|212:356,1,80,4|2,3:0|0:0,0:0:0:0:
76,308,57005,2,0,B|116:312|116:312|156:304,1,80,8|2,0:3|0:0,0:0:0:0:
256,264,57350,1,2,0:0:0:0:
164,176,57522,1,0,3:0:0:0:
44,216,57695,2,0,L|60:296,1,80,8|2,0:3|0:0,0:0:0:0:
272,184,58040,38,0,L|280:104,1,80,4|0,3:0|0:0,0:0:0:0:
208,28,58384,1,8,0:3:0:0:
364,104,58557,1,2,0:0:0:0:
188,124,58729,1,2,0:0:0:0:
336,8,58902,1,0,3:0:0:0:
272,184,59074,1,8,0:3:0:0:
156,128,59246,1,2,0:0:0:0:
324,256,59419,6,0,P|344:220|352:180,1,80,2|2,3:0|0:0,0:0:0:0:
176,284,59764,2,0,P|184:328|200:364,1,80,8|2,0:3|0:0,0:0:0:0:
328,356,60109,1,2,0:0:0:0:
376,244,60281,1,0,3:0:0:0:
272,184,60453,2,0,L|192:196,1,80,8|0,0:3|0:0,0:0:0:0:
388,284,60798,38,0,L|468:296,1,80,4|2,3:2|0:0,0:0:0:0:
364,204,61143,1,8,0:3:0:0:
328,356,61315,1,2,0:0:0:0:
464,212,61488,2,0,P|480:176|488:136,1,80,2|0,0:0|3:0,0:0:0:0:
308,264,61833,2,0,B|268:256|268:256|228:264,1,80,8|2,0:3|0:0,0:0:0:0:
132,356,62177,6,0,L|148:196,1,160,4|8,3:0|0:3,0:0:0:0:
68,24,62695,2,0,L|72:104,1,80,2|2,0:0|0:0,0:0:0:0:
192,269,63040,1,0,3:0:0:0:
192,65,63212,1,8,0:3:0:0:
72,230,63384,1,2,0:0:0:0:
266,167,63557,38,0,B|252:48|252:48|236:84,1,160,4|8,3:0|0:3,0:0:0:0:
218,244,64074,2,0,P|258:256|298:252,1,80,2|2,0:0|0:0,0:0:0:0:
416,120,64419,1,0,3:0:0:0:
452,256,64591,1,8,0:3:0:0:
408,92,64764,1,2,0:0:0:0:
360,216,64936,5,0,3:0:0:0:
512,128,65109,1,2,0:0:0:0:
280,104,65281,1,8,0:3:0:0:
380,296,65453,1,2,0:0:0:0:
400,64,65626,1,2,0:0:0:0:
276,192,65798,1,0,3:0:0:0:
512,128,65971,1,10,0:3:0:0:
248,104,66143,1,0,3:0:0:0:
216,312,66315,38,0,L|296:300,1,80,4|0,3:2|0:0,0:0:0:0:
404,280,66660,1,8,0:3:0:0:
176,224,66833,1,2,0:0:0:0:
423,203,67005,1,2,0:0:0:0:
216,312,67177,1,0,3:0:0:0:
404,280,67350,2,0,P|420:236|424:200,1,80,8|0,0:3|0:0,0:0:0:0:
252,80,67695,6,0,P|256:120|268:160,1,80,4|0,3:2|0:0,0:0:0:0:
423,203,68040,1,8,0:3:0:0:
248,240,68212,1,2,0:0:0:0:
404,280,68384,1,0,0:0:0:0:
267,158,68557,1,0,3:0:0:0:
448,196,68729,1,8,0:3:0:0:
220,248,68902,1,0,0:0:0:0:
352,356,69074,38,0,P|364:316|368:276,1,80,4|0,3:2|0:0,0:0:0:0:
267,158,69419,2,0,L|256:76,2,80,8|2|2,0:3|0:0|0:0,0:0:0:0:
288,264,69936,1,0,3:0:0:0:
352,108,70109,2,0,B|388:89|388:89|428:83,1,80,8|0,0:3|0:0,0:0:0:0:
248,184,70453,6,0,L|168:168,1,80,4|0,3:2|0:0,0:0:0:0:
412,180,70798,2,0,B|420:220|420:220|416:260,1,80,8|2,0:3|0:0,0:0:0:0:
256,78,71143,2,0,B|264:38|264:38|288:6,1,80,0|0,0:0|3:0,0:0:0:0:
328,248,71488,2,0,B|296:271|296:271|256:280,1,80,8|0,0:3|0:0,0:0:0:0:
116,224,71833,38,0,L|124:304,1,80,4|0,3:2|0:0,0:0:0:0:
180,160,72177,1,8,0:3:0:0:
20,268,72350,1,2,0:0:0:0:
232,248,72522,1,2,0:0:0:0:
36,180,72695,1,0,3:0:0:0:
123,303,72867,1,8,0:3:0:0:
92,104,73040,1,0,0:0:0:0:
128,328,73212,6,0,B|208:316,1,80,4|0,3:2|0:0,0:0:0:0:
324,344,73557,1,8,0:3:0:0:
156,228,73729,1,2,0:0:0:0:
384,284,73902,1,0,0:0:0:0:
207,316,74074,1,0,3:0:0:0:
352,216,74246,2,0,P|364:176|368:136,1,80,8|2,0:3|0:0,0:0:0:0:
300,32,74591,37,4,3:2:0:0:
366,248,74764,1,0,0:0:0:0:
460,128,74936,1,8,0:3:0:0:
280,148,75109,1,2,0:0:0:0:
488,124,75281,1,2,0:0:0:0:
252,152,75453,1,0,3:0:0:0:
468,24,75626,1,8,0:3:0:0:
368,244,75798,1,2,0:0:0:0:
300,32,75971,5,4,3:2:0:0:
370,147,76143,1,2,0:0:0:0:
440,263,76315,1,8,0:3:0:0:
468,24,76488,1,2,0:0:0:0:
436,291,76660,1,2,0:0:0:0:
224,156,76833,1,0,3:0:0:0:
512,120,77005,1,10,0:3:0:0:
196,160,77177,1,0,3:0:0:0:
352,326,77350,38,0,L|432:322,1,80,4|0,3:2|0:0,0:0:0:0:
252,272,77695,2,0,L|172:268,1,80,8|2,0:3|0:0,0:0:0:0:
60,264,78040,1,2,0:0:0:0:
252,152,78212,1,0,3:3:0:0:
40,168,78384,1,8,0:3:0:0:
252,272,78557,1,0,0:0:0:0:
148,104,78729,6,0,B|136:64|136:64|140:24,1,80,4|0,3:2|0:0,0:0:0:0:
252,152,79074,1,8,0:3:0:0:
139,271,79246,2,0,L|59:263,1,80,2|0,0:0|0:0,0:0:0:0:
180,192,79591,1,0,3:0:0:0:
352,268,79764,2,0,P|344:312|328:348,1,80,10|2,0:3|0:0,0:0:0:0:
248,132,80109,38,0,L|240:52,1,80,4|0,3:2|0:0,0:0:0:0:
328,184,80453,2,0,B|368:176|368:176|408:180,1,80,8|2,0:3|0:0,0:0:0:0:
512,192,80798,1,2,0:0:0:0:
332,96,80971,1,0,3:0:0:0:
460,272,81143,1,8,0:3:0:0:
316,76,81315,1,0,0:0:0:0:
340,276,81488,6,0,L|348:360,1,80,4|0,3:2|0:0,0:0:0:0:
444,252,81833,1,8,0:3:0:0:
256,200,82005,2,0,B|216:196|216:196|176:204,1,80,2|0,0:0|0:0,0:0:0:0:
64,236,82350,1,0,3:0:0:0:
236,368,82522,2,0,L|244:288,1,80,10|2,0:3|0:0,0:0:0:0:
80,160,82867,37,4,3:2:0:0:
276,220,83040,1,2,0:0:0:0:
64,236,83212,1,8,0:3:0:0:
284,136,83384,1,2,0:0:0:0:
52,88,83557,1,2,0:0:0:0:
300,240,83729,1,0,3:0:0:0:
80,160,83902,1,8,0:3:0:0:
312,128,84074,1,2,0:0:0:0:
136,324,84246,6,0,L|56:316,1,80,4|0,3:2|0:0,0:0:0:0:
216,192,84591,2,0,B|220:232|220:232|212:272,1,80,8|2,0:3|0:0,0:0:0:0:
80,160,84936,1,0,0:0:0:0:
284,136,85109,1,0,3:0:0:0:
140,72,85281,1,10,0:3:0:0:
216,192,85453,1,2,0:0:0:0:
160,327,85626,38,0,L|0:307,1,160,4|8,3:2|0:3,0:0:0:0:
124,204,86143,2,0,P|112:244|92:280,1,80,2|2,0:0|0:0,0:0:0:0:
28,80,86488,1,0,3:0:0:0:
251,63,86660,2,0,P|271:99|283:135,1,80,8|0,0:3|0:0,0:0:0:0:
315,280,87005,5,4,3:2:0:0:
436,66,87177,1,0,0:0:0:0:
212,166,87350,1,8,0:3:0:0:
453,217,87522,1,2,0:0:0:0:
288,34,87695,1,0,0:0:0:0:
322,315,87867,37,0,3:0:0:0:
480,200,88040,1,10,0:3:0:0:
232,244,88212,1,0,3:0:0:0:
328,332,88384,5,4,3:2:0:0:
356,204,88557,2,0,P|348:164|332:128,1,80,0|8,0:0|0:3,0:0:0:0:
452,108,88902,1,0,0:0:0:0:
395,287,89074,2,0,L|311:279,1,80,0|0,0:0|3:0,0:0:0:0:
152,244,89419,2,0,P|164:284|172:324,1,80,8|0,0:3|0:0,0:0:0:0:
272,124,89764,38,0,P|280:80|292:40,2,80,4|0|8,3:2|0:0|0:3,0:0:0:0:
342,214,90281,1,0,0:0:0:0:
152,172,90453,2,0,P|136:136|128:96,1,80,0|0,0:0|3:0,0:0:0:0:
264,244,90798,2,0,P|252:284|236:320,1,80,8|0,0:3|0:0,0:0:0:0:
272,148,91143,6,0,P|348:120|416:152,1,160,4|8,3:2|0:3,0:0:0:0:
357,292,91660,2,0,P|346:254|342:215,1,80
464,304,92005,1,0,3:0:0:0:
300,368,92177,2,0,L|220:356,1,80,8|0,0:3|0:0,0:0:0:0:
96,288,92522,38,0,P|116:252|128:216,1,80,4|0,3:2|0:0,0:0:0:0:
100,104,92867,1,8,0:3:0:0:
196,280,93040,1,0,0:0:0:0:
88,84,93212,1,0,0:0:0:0:
248,192,93384,1,0,3:0:0:0:
24,216,93557,1,10,0:3:0:0:
16,240,93902,5,4,3:2:0:0:
132,316,94074,2,0,P|172:312|212:304,1,80,0|8,0:0|0:3,0:0:0:0:
224,176,94419,1,0,0:0:0:0:
312,284,94591,2,0,L|300:364,1,80,0|0,0:0|3:0,0:0:0:0:
220,156,94936,2,0,L|208:76,1,80,8|0,0:3|0:0,0:0:0:0:
304,196,95281,38,0,B|344:188|344:188|384:192,1,80,4|0,3:2|0:0,0:0:0:0:
488,204,95626,1,8,0:3:0:0:
312,284,95798,1,0,0:0:0:0:
512,192,95971,1,0,0:0:0:0:
372,104,96143,1,0,3:0:0:0:
396,284,96315,2,0,P|400:320|412:364,1,80,8|0,0:3|0:0,0:0:0:0:
208,236,96660,6,0,P|220:196|228:156,1,80,4|0,3:2|0:0,0:0:0:0:
224,56,97005,1,8,0:3:0:0:
112,156,97177,1,0,0:0:0:0:
316,120,97350,1,0,0:0:0:0:
204,44,97522,1,0,3:0:0:0:
208,236,97695,1,8,0:3:0:0:
184,32,97867,1,0,0:0:0:0:
196,256,98040,38,0,L|276:248,1,80,4|0,3:2|0:0,0:0:0:0:
192,156,98384,1,8,0:3:0:0:
288,336,98557,1,0,0:0:0:0:
316,120,98729,1,0,0:0:0:0:
196,256,98902,1,0,3:0:0:0:
404,232,99074,1,10,0:3:0:0:
172,260,99246,1,0,3:0:0:0:
480,300,99419,6,0,P|496:260|504:220,1,80,4|0,3:2|0:0,0:0:0:0:
496,104,99764,1,8,0:3:0:0:
380,236,99936,2,0,B|344:228|344:228|300:236,1,80
184,276,100281,1,0,3:0:0:0:
256,172,100453,2,0,P|268:132|272:92,1,80,8|0,0:3|0:0,0:0:0:0:
104,268,100798,38,0,L|184:275,1,80,4|0,3:2|0:0,0:0:0:0:
340,164,101143,2,0,L|420:156,2,80,8|0|0,0:3|0:0|0:0,0:0:0:0:
276,260,101660,1,0,3:0:0:0:
140,164,101833,2,0,P|124:124|120:88,1,80,8|0,0:3|0:0,0:0:0:0:
284,288,102177,6,0,P|276:328|260:364,1,80,4|0,3:2|0:0,0:0:0:0:
256,148,102522,2,0,B|296:140|296:140|336:148,1,80,8|0,0:3|0:0,0:0:0:0:
436,176,102867,1,0,0:0:0:0:
416,268,103040,1,0,3:0:0:0:
456,84,103212,2,0,P|452:44|440:4,1,80,8|0,0:3|0:0,0:0:0:0:
256,148,103557,38,0,P|248:188|248:228,1,80,4|0,3:2|0:0,0:0:0:0:
344,108,103902,1,8,0:3:0:0:
168,224,104074,1,0,0:0:0:0:
416,268,104246,1,0,0:0:0:0:
240,128,104419,1,0,3:0:0:0:
300,360,104591,1,10,0:3:0:0:
308,336,104936,5,4,3:2:0:0:
120,372,105109,2,0,P|108:332|104:288,1,80,0|8,0:0|0:3,0:0:0:0:
232,104,105453,2,0,P|231:144|224:184,1,80
40,240,105798,1,0,3:0:0:0:
236,288,105971,1,8,0:3:0:0:
104,152,106143,1,0,0:0:0:0:
120,372,106315,37,4,3:2:0:0:
248,276,106488,2,0,P|260:236|260:196,1,80,0|8,0:0|0:3,0:0:0:0:
103,294,106833,2,0,P|107:334|119:371,1,80
300,352,107177,1,0,3:0:0:0:
184,184,107350,2,0,L|24:204,1,160,8|0,0:3|0:0,0:0:0:0:
256,192,107781,12,2,109764,0:3:0:0:
25,203,110453,22,0,L|36:328,1,120.000004577637,4|0,0:3|0:0,0:0:0:0:
116,356,110971,2,0,P|168:328|228:340,1,120.000004577637,2|0,0:0|0:0,0:0:0:0:
308,320,111488,2,0,P|320:288|324:260,1,60.0000022888184
292,184,111833,1,6,0:0:0:0:
292,184,112177,6,0,L|352:176,1,60.0000022888184
256,112,112522,2,0,L|316:104,1,60.0000022888184
220,40,112867,2,0,L|280:32,1,60.0000022888184
120,40,113212,38,0,B|128:72|128:72|120:160,1,120.000004577637,6|0,0:0|0:0,0:0:0:0:
56,216,113729,2,0,P|64:248|136:288,1,120.000004577637,2|0,0:0|0:0,0:0:0:0:
208,244,114246,2,0,L|200:184,1,60.0000022888184
256,120,114591,1,6,0:0:0:0:
256,120,114936,6,0,L|264:60,1,60.0000022888184
344,212,115281,2,0,L|336:152,1,60.0000022888184
248,300,115626,2,0,L|256:240,1,60.0000022888184
272,144,115971,38,0,L|392:136,1,120.000004577637,6|0,0:0|0:0,0:0:0:0:
444,72,116488,2,0,L|436:192,1,120.000004577637,2|0,0:0|0:0,0:0:0:0:
496,252,117005,2,0,L|500:312,1,60.0000022888184
424,352,117350,1,6,0:0:0:0:
424,352,117695,6,0,L|364:348,1,60.0000022888184,2|0,0:0|0:0,0:0:0:0:
296,300,118040,1,2,0:0:0:0:
296,300,118212,2,0,L|236:308,2,60.0000022888184,2|0|2,0:0|0:0|0:0,0:0:0:0:
364,252,118729,37,4,0:0:0:0:
364,252,121143,37,2,0:0:0:0:
376,232,121488,2,0,L|364:112,1,120.000004577637,4|0,0:0|0:0,0:0:0:0:
348,96,122177,2,0,L|344:156,1,60.0000022888184,2|0,0:0|0:0,0:0:0:0:
304,232,122522,1,2,0:0:0:0:
224,260,122695,1,2,0:0:0:0:
160,208,122867,6,0,L|100:212,2,60.0000022888184,6|0|0,0:0|0:0|0:0,0:0:0:0:
276,116,123384,2,0,P|268:84|264:56,1,60.0000022888184,2|0,0:0|0:0,0:0:0:0:
183,133,123729,2,0,P|179:169|171:193,1,60.0000022888184,2|0,0:0|0:0,0:0:0:0:
120,260,124074,1,2,0:0:0:0:
180,320,124246,38,0,L|300:308,1,120.000004577637,4|0,0:0|0:0,0:0:0:0:
299,308,124936,2,0,P|312:336|316:364,2,60.0000022888184,2|0|2,0:0|0:0|0:0,0:0:0:0:
256,236,125453,1,0,0:0:0:0:
320,132,125626,6,0,L|440:148,1,120.000004577637,4|0,0:0|0:0,0:0:0:0:
496,212,126143,2,0,B|488:152|488:152|492:124|492:124|488:92,2,120.000004577637,2|2|0,0:0|0:0|0:0,0:0:0:0:
416,312,127005,38,0,L|356:308,1,60.0000022888184,4|0,0:0|0:0,0:0:0:0:
276,336,127350,2,0,L|216:344,1,60.0000022888184,2|0,0:0|0:0,0:0:0:0:
140,312,127695,1,0,0:0:0:0:
204,256,127867,2,0,P|216:224|220:196,2,60.0000022888184,2|0|0,0:0|0:0|0:0,0:0:0:0:
72,260,128384,6,0,P|56:200|60:140,1,120.000004577637,4|2,0:0|0:0,0:0:0:0:
108,72,128902,1,0,0:0:0:0:
184,108,129074,2,0,L|244:100,2,60.0000022888184,0|2|0,0:0|0:0|0:0,0:0:0:0:
152,188,129591,1,2,0:0:0:0:
224,284,129764,6,0,P|284:296|328:260,1,120.000004577637,4|0,0:0|0:0,0:0:0:0:
396,212,130281,2,0,P|456:228|484:276,1,120.000004577637,2|0,0:0|0:0,0:0:0:0:
476,360,130798,2,0,L|356:344,1,120.000004577637,0|4,0:0|0:0,0:0:0:0:
256,192,131229,12,4,132522,0:3:0:0:
