osu file format v5

[General]
AudioFilename: Static X - Bleed for Days.mp3
AudioLeadIn: 0
PreviewTime: -1
Countdown: 1
SampleSet: None

[Metadata]
Title:Bleed for Days
Artist:Static-X
Creator:yashamaru176
Version:Hard

[Difficulty]
HPDrainRate:5
CircleSize:5
OverallDifficulty:5
SliderMultiplier:2.6
SliderTickRate:4

[Events]
//Background and Video events
0,0,"staticx2.JPG"
//Break Periods
2,92200,108425
2,129825,137300
//Storyboard Layer 0 (Background)
//Storyboard Layer 1 (Failing)
//Storyboard Layer 2 (Passing)
//Storyboard Layer 3 (Foreground)
//Storyboard Sound Samples
//Background Colour Transformations
3,100,163,162,255

[TimingPoints]
0,1000,4,0,0,100

[HitObjects]
256,192,17625,5,0
256,192,19375,1,0
192,192,20125,1,0
288,128,21375,1,0
224,160,22125,1,0
160,224,23250,1,0
288,224,24000,5,0
256,160,25250,1,4
192,224,25875,1,4
320,256,27000,1,4
224,224,27750,1,4
192,128,28875,1,6
352,128,29750,1,6
224,224,30250,1,6
320,224,31000,1,6
256,160,31625,1,6
352,160,33000,5,0
256,192,33500,1,0
192,160,34125,1,0
256,128,34750,1,0
288,192,35250,1,0
160,256,35625,1,0
192,160,36000,1,0
288,160,36625,1,0
320,224,37125,1,0
224,256,37500,1,0
192,160,37875,1,4
288,160,38500,1,0
288,224,39000,1,0
192,224,39375,1,0
224,160,39750,1,0
320,128,40500,1,0
224,96,40875,1,0
160,160,41250,1,0
64,192,45750,2,0,B|448:192,6,357.5
64,192,54250,5,0
96,192,54750,1,0
128,160,55125,1,0
256,192,55875,1,0
192,256,56250,1,0
128,192,56625,1,0
128,128,57125,1,0
320,160,57750,1,0
288,224,58250,1,0
192,256,58625,1,0
192,192,59000,1,0
128,128,59750,1,0
192,128,60125,1,0
288,128,60375,1,0
352,160,61875,1,4
320,224,62250,1,4
256,256,62750,1,4
192,256,63375,1,4
192,192,63875,1,4
256,192,64500,1,4
288,160,65000,1,4
96,128,65500,1,4
192,96,66000,1,4
256,128,66375,1,4
288,192,67000,1,4
224,256,67500,1,4
160,224,68000,1,4
128,160,68375,1,4
256,160,68875,1,4
384,160,69500,1,4
288,224,70750,1,4
192,224,72750,1,4
256,192,72875,12,4,77000
224,192,79000,1,4
64,160,80750,1,4
288,192,82000,1,4
192,256,82750,1,4
96,192,83625,1,4
192,160,85000,5,4
288,224,85625,1,4
192,256,86250,1,4
256,160,87000,1,4
320,192,87625,1,4
160,192,88125,1,4
288,128,88750,1,4
224,192,89250,1,4
224,256,89875,1,4
160,256,90375,1,4
160,192,90875,1,4
256,192,91250,1,4
352,160,92000,1,4
256,192,109625,5,4
160,160,110625,1,4
320,160,111625,1,4
192,224,112625,1,4
224,128,113500,1,4
352,192,114500,1,4
256,192,115375,1,4
160,192,115750,1,4
192,96,116000,1,4
352,128,117375,1,4
320,192,117625,1,4
192,160,118125,1,4
384,224,119250,1,4
288,224,119625,1,4
288,160,120000,1,4
192,224,121125,1,4
192,160,121500,1,4
320,128,121875,1,4
288,224,122500,1,4
224,224,123250,1,4
128,160,123625,1,4
224,128,123875,1,4
160,192,124875,1,4
128,160,125375,1,4
160,128,125750,1,4
256,96,126125,1,4
224,192,127000,1,4
192,192,127375,1,4
192,160,127625,1,4
224,160,128250,1,4
160,192,128875,1,4
160,128,129250,1,4
224,128,129625,1,4
256,192,138500,5,0
160,224,139625,1,0
256,256,140250,1,0
320,192,141000,1,0
192,192,142250,1,0
256,128,144000,1,0
160,192,144750,1,0
288,224,145500,1,0
96,256,146625,1,0
192,192,147500,1,0
128,160,148000,1,0
224,128,148750,1,0
256,192,149750,1,0
192,256,150750,1,0
320,256,151750,1,0
320,192,152500,1,0
256,128,153875,5,0
160,224,155250,1,0
256,224,155625,1,0
352,160,156375,1,0
128,192,157625,1,0
192,192,158375,1,0
288,192,159375,1,0
256,160,160000,1,0
192,160,160375,1,0
128,160,160875,1,0
160,128,161375,1,0
288,192,162375,1,0
224,192,162875,1,0
160,192,163375,1,0
160,160,164125,1,0
256,160,165250,1,0
224,160,165750,1,0
192,160,166000,1,0
224,128,166875,1,0
288,128,167625,1,0
256,128,168000,1,0
256,192,169125,1,0
160,192,171125,2,0,B|448:192,9,260
256,192,182250,12,0,190000
