osu file format v14

[General]
AudioFilename: Static Revenger feat. Dev - Turn The World On (Kezwik Protohype Remix).mp3
AudioLeadIn: 0
PreviewTime: 99428
Countdown: 1
SampleSet: Soft
StackLeniency: 0.7
Mode: 0
LetterboxInBreaks: 1
WidescreenStoryboard: 0

[Editor]
Bookmarks: 54857,102857,144000,157714,178285,184714,209142,267428
DistanceSpacing: 0.7
BeatDivisor: 6
GridSize: 8
TimelineZoom: 1

[Metadata]
Title:Turn The World On (ft. Dev) (Kezwik & Protohype Remix)
TitleUnicode:Turn The World On (ft. Dev) (Kezwik & Protohype Remix)
Artist:Static Revenger
ArtistUnicode:Static Revenger
Creator:Mosti07
Version:Turn The World On!
Source:
Tags:Dubstep
BeatmapID:695499
BeatmapSetID:311370

[Difficulty]
HPDrainRate:8
CircleSize:4
OverallDifficulty:5
ApproachRate:8
SliderMultiplier:1.4
SliderTickRate:1

[Events]
//Background and Video events
0,0,"dubstep_by_esteam886-d367ocw-1024x640.png",0,0
//Break Periods
2,46285,67821
2,99592,102107
2,157914,177535
//Storyboard Layer 0 (Background)
//Storyboard Layer 1 (Fail)
//Storyboard Layer 2 (Pass)
//Storyboard Layer 3 (Foreground)
//Storyboard Sound Samples

[TimingPoints]
0,428.571428571429,4,1,1,100,1,0
27428,-100,4,2,1,100,0,0
102857,-100,4,1,1,100,0,1
108857,-200,4,1,1,100,0,1
113142,-200,4,1,1,100,0,0
116571,-200,4,1,1,100,0,1
118285,-100,4,1,1,100,0,1
122571,-200,4,1,1,100,0,1
126857,-200,4,1,1,100,0,0
130285,-200,4,1,1,100,0,1
131714,-100,4,1,1,100,0,1
133285,-200,4,1,1,100,0,1
134357,-100,4,1,1,100,0,1
135428,-200,4,1,1,100,0,1
140571,-200,4,1,1,100,0,0
144000,-200,4,1,1,100,0,1
145714,-100,4,1,1,100,0,1
150000,-200,4,1,1,100,0,1
154285,-200,4,1,1,100,0,0
157714,-100,4,1,1,100,0,0
184714,-100,4,2,1,100,0,0
212571,-100,4,1,1,100,0,1
218571,-200,4,1,1,100,0,1
222857,-200,4,1,1,100,0,0
226285,-100,4,1,1,100,0,1
228000,-100,4,1,1,100,0,1
232285,-200,4,1,1,100,0,1
236571,-200,4,1,1,100,0,0
240000,-200,4,1,1,100,0,1
241428,-100,4,1,1,100,0,1
242928,-200,4,1,1,100,0,1
244071,-100,4,1,1,100,0,1
245142,-200,4,1,1,100,0,1
250285,-200,4,1,1,100,0,0
253714,-200,4,1,1,100,0,1
255428,-100,4,1,1,100,0,1
259714,-200,4,1,1,100,0,1
264000,-200,4,2,1,100,0,0
267428,-100,4,1,1,100,0,0

[Colours]
Combo1 : 0,255,0
Combo2 : 255,255,0
Combo3 : 255,156,0
Combo4 : 255,0,0
Combo5 : 0,255,255

[HitObjects]
32,192,27428,5,0,0:0:0:0:
72,152,27642,1,0,0:0:0:0:
104,120,27857,1,0,0:0:0:0:
72,48,28285,1,0,0:0:0:0:
120,32,28500,1,0,0:0:0:0:
160,24,28714,1,0,0:0:0:0:
200,104,29142,5,0,0:0:0:0:
240,80,29357,1,0,0:0:0:0:
280,64,29571,1,0,0:0:0:0:
320,56,29785,1,0,0:0:0:0:
352,48,30000,1,0,0:0:0:0:
384,40,30214,1,0,0:0:0:0:
424,32,30428,1,0,0:0:0:0:
456,96,30857,5,0,0:0:0:0:
424,128,31071,1,0,0:0:0:0:
384,152,31285,1,0,0:0:0:0:
336,168,31500,1,0,0:0:0:0:
296,176,31714,1,0,0:0:0:0:
264,176,31928,1,0,0:0:0:0:
224,176,32142,1,0,0:0:0:0:
144,176,32464,5,8,0:0:0:0:
96,176,32571,1,8,0:0:0:0:
40,272,32785,1,8,0:0:0:0:
40,312,32892,1,8,0:0:0:0:
128,272,33321,1,0,0:0:0:0:
176,272,33428,1,0,0:0:0:0:
256,328,33642,5,0,0:0:0:0:
320,328,33857,1,0,0:0:0:0:
408,344,34285,5,4,0:0:0:0:
448,336,34500,1,0,0:0:0:0:
472,304,34714,1,0,0:0:0:0:
480,264,34928,1,0,0:0:0:0:
480,216,35142,1,0,0:0:0:0:
480,176,35357,1,0,0:0:0:0:
480,136,35571,2,0,P|456:96|368:72,1,140
320,104,36214,5,0,0:0:0:0:
272,112,36428,1,0,0:0:0:0:
232,128,36642,1,0,0:0:0:0:
208,160,36857,1,0,0:0:0:0:
192,200,37071,1,0,0:0:0:0:
192,240,37285,1,0,0:0:0:0:
288,200,37714,5,0,0:0:0:0:
272,248,37928,1,0,0:0:0:0:
248,288,38142,1,0,0:0:0:0:
216,312,38357,1,0,0:0:0:0:
176,312,38571,1,0,0:0:0:0:
144,296,38785,1,0,0:0:0:0:
144,240,39000,2,0,P|160:208|272:192,1,140,0|8,0:0|0:0,0:0:0:0:
352,160,39642,1,8,0:0:0:0:
384,144,39750,1,8,0:0:0:0:
464,40,40071,5,0,0:0:0:0:
464,104,40285,1,0,0:0:0:0:
464,168,40500,1,0,0:0:0:0:
464,232,40714,1,0,0:0:0:0:
368,296,41142,5,4,0:0:0:0:
272,296,41571,1,0,0:0:0:0:
160,304,42000,1,4,0:0:0:0:
136,248,42214,1,0,0:0:0:0:
144,192,42428,1,0,0:0:0:0:
240,152,42857,5,4,0:0:0:0:
240,64,43071,1,0,0:0:0:0:
280,32,43178,1,0,0:0:0:0:
200,24,43500,2,0,P|144:32|136:160,1,210
64,216,44571,1,4,0:0:0:0:
72,256,44678,1,0,0:0:0:0:
152,312,44892,1,0,0:0:0:0:
216,312,45214,2,8,L|280:312,3,35
256,192,68571,12,4,73714,0:0:0:0:
152,192,75000,5,4,0:0:0:0:
168,168,75107,1,4,0:0:0:0:
192,152,75214,1,4,0:0:0:0:
192,48,75428,1,0,0:0:0:0:
280,48,75642,1,0,0:0:0:0:
312,48,75750,1,0,0:0:0:0:
344,48,75857,1,0,0:0:0:0:
448,144,76071,5,0,0:0:0:0:
448,200,76285,1,0,0:0:0:0:
456,336,76714,1,8,0:0:0:0:
328,328,77142,5,4,0:0:0:0:
296,280,77357,1,4,0:0:0:0:
272,328,77571,1,4,0:0:0:0:
240,280,77785,1,4,0:0:0:0:
216,328,78000,1,4,0:0:0:0:
184,280,78214,1,4,0:0:0:0:
160,328,78428,1,4,0:0:0:0:
80,328,78857,5,8,0:0:0:0:
64,304,78964,1,8,0:0:0:0:
56,272,79071,1,8,0:0:0:0:
48,176,79285,1,0,0:0:0:0:
56,48,79500,1,0,0:0:0:0:
192,40,79714,1,0,0:0:0:0:
320,40,79928,1,0,0:0:0:0:
360,40,80035,1,0,0:0:0:0:
208,112,80571,5,4,0:0:0:0:
232,152,80785,1,4,0:0:0:0:
264,112,81000,1,4,0:0:0:0:
288,152,81214,1,4,0:0:0:0:
320,112,81428,1,4,0:0:0:0:
344,152,81642,1,4,0:0:0:0:
376,112,81857,1,4,0:0:0:0:
400,152,82071,1,4,0:0:0:0:
432,112,82285,5,0,0:0:0:0:
464,208,82500,1,0,0:0:0:0:
464,248,82607,1,0,0:0:0:0:
464,344,82928,1,10,0:0:0:0:
328,344,83142,1,10,0:0:0:0:
192,344,83357,1,10,0:0:0:0:
64,344,83571,1,10,0:0:0:0:
192,224,84000,5,4,0:0:0:0:
216,192,84214,1,8,0:0:0:0:
184,168,84428,1,4,0:0:0:0:
216,136,84642,1,8,0:0:0:0:
184,112,84857,1,4,0:0:0:0:
216,80,85071,1,8,0:0:0:0:
184,56,85285,1,4,0:0:0:0:
216,32,85500,1,8,0:0:0:0:
136,48,85714,6,0,P|112:24|32:80,1,140
32,168,86357,1,0,0:0:0:0:
32,280,86571,1,0,0:0:0:0:
160,280,86785,1,0,0:0:0:0:
208,280,86892,1,0,0:0:0:0:
248,160,87428,5,4,0:0:0:0:
272,168,87535,1,0,0:0:0:0:
296,184,87642,1,0,0:0:0:0:
312,208,87750,1,0,0:0:0:0:
320,232,87857,1,0,0:0:0:0:
432,232,88071,1,4,0:0:0:0:
432,112,88285,1,0,0:0:0:0:
320,56,88500,1,0,0:0:0:0:
272,56,88607,1,0,0:0:0:0:
256,304,89142,5,0,0:0:0:0:
368,192,89571,1,0,0:0:0:0:
256,80,90000,1,0,0:0:0:0:
144,192,90428,1,0,0:0:0:0:
256,320,90857,1,4,0:0:0:0:
384,192,91285,5,0,0:0:0:0:
256,64,91714,1,0,0:0:0:0:
128,192,92142,1,4,0:0:0:0:
256,336,92571,1,0,0:0:0:0:
400,192,93000,1,0,0:0:0:0:
256,48,93428,5,0,0:0:0:0:
112,192,93857,1,0,0:0:0:0:
256,352,94285,1,4,0:0:0:0:
416,192,94714,1,0,0:0:0:0:
256,32,95142,1,0,0:0:0:0:
96,192,95571,1,0,0:0:0:0:
256,192,96000,1,4,0:0:0:0:
288,160,96428,5,0,0:0:0:0:
304,144,96535,1,0,0:0:0:0:
328,128,96642,1,0,0:0:0:0:
352,120,96750,1,0,0:0:0:0:
376,112,96857,1,0,0:0:0:0:
400,112,96964,1,0,0:0:0:0:
424,120,97071,1,0,0:0:0:0:
440,136,97178,1,0,0:0:0:0:
448,160,97285,1,0,0:0:0:0:
448,184,97392,5,0,0:0:0:0:
440,208,97500,1,0,0:0:0:0:
424,224,97607,1,0,0:0:0:0:
400,232,97714,1,0,0:0:0:0:
376,240,97821,1,0,0:0:0:0:
360,256,97928,1,0,0:0:0:0:
352,280,98035,1,0,0:0:0:0:
352,304,98142,1,0,0:0:0:0:
368,320,98250,1,0,0:0:0:0:
384,336,98357,5,0,0:0:0:0:
400,344,98464,1,0,0:0:0:0:
424,352,98571,2,0,L|440:352,23,11.6666666666667
256,32,102857,5,2,0:0:0:0:
224,48,103000,1,8,0:0:0:0:
200,72,103142,1,8,0:0:0:0:
200,104,103285,1,8,0:0:0:0:
200,136,103428,1,8,0:0:0:0:
232,168,103571,1,8,0:0:0:0:
264,184,103714,1,2,0:0:0:0:
80,120,104142,5,0,0:0:0:0:
88,168,104285,1,0,0:0:0:0:
112,200,104428,1,0,0:0:0:0:
152,232,104571,2,2,P|184:240|232:328,1,140
280,328,105142,1,4,0:0:0:0:
328,328,105285,1,4,0:0:0:0:
368,328,105428,6,2,P|424:352|456:280,1,140
456,248,106000,1,4,0:0:0:0:
456,200,106142,1,4,0:0:0:0:
456,152,106285,2,0,P|488:107|480:59,6,93.3333333333333,2|0|0|2|0|0|2,0:0|0:0|0:0|0:0|0:0|0:0|0:0,0:0:0:0:
416,152,108142,2,2,L|392:152,2,23.3333333333333
336,152,108428,5,0,0:0:0:0:
304,120,108571,1,0,0:0:0:0:
288,80,108714,1,12,0:0:0:0:
248,80,108857,2,2,P|232:56|192:32,1,70
152,144,109714,6,2,P|128:120|32:136,1,140
40,192,110857,1,0,0:0:0:0:
160,192,111142,1,0,0:0:0:0:
272,192,111428,1,2,0:0:0:0:
216,264,111714,5,0,0:0:0:0:
192,304,111857,1,0,0:0:0:0:
168,344,112000,1,0,0:0:0:0:
272,192,112285,1,2,0:0:0:0:
216,264,112571,1,12,0:0:0:0:
240,304,112714,1,12,0:0:0:0:
264,344,112857,1,12,0:0:0:0:
392,344,113142,5,2,0:0:0:0:
472,256,113571,1,0,0:0:0:0:
472,208,113785,1,2,0:0:0:0:
312,192,114214,1,0,0:0:0:0:
312,144,114428,1,2,0:0:0:0:
472,120,114857,1,0,0:0:0:0:
312,40,115285,1,0,0:0:0:0:
208,48,115714,5,2,0:0:0:0:
176,40,115821,1,2,0:0:0:0:
144,40,115928,1,2,0:0:0:0:
40,40,116142,1,12,0:0:0:0:
40,40,116357,1,12,0:0:0:0:
96,152,116571,5,2,0:0:0:0:
112,176,116714,1,8,0:0:0:0:
120,200,116856,1,8,0:0:0:0:
120,224,116999,1,8,0:0:0:0:
112,248,117142,1,8,0:0:0:0:
96,272,117285,1,8,0:0:0:0:
80,288,117428,1,2,0:0:0:0:
456,336,117856,5,0,0:0:0:0:
424,336,117999,1,0,0:0:0:0:
392,336,118142,1,0,0:0:0:0:
352,328,118285,2,2,P|344:296|248:296,1,140
256,320,118856,1,12,0:0:0:0:
256,352,118999,1,12,0:0:0:0:
256,352,119142,6,2,P|216:352|184:264,1,140
184,240,119714,1,12,0:0:0:0:
184,208,119856,1,12,0:0:0:0:
184,168,120000,2,2,P|151:123|159:75,6,93.3333333333333,2|0|0|2|0|0|2,0:0|0:0|0:0|0:0|0:0|0:0|0:0,0:0:0:0:
184,208,121857,2,0,L|160:208,2,23.3333333333333,2|2|0,0:0|0:0|0:0,0:0:0:0:
216,208,122142,5,0,0:0:0:0:
248,208,122285,1,0,0:0:0:0:
280,208,122428,1,12,0:0:0:0:
304,208,122571,2,2,P|320:184|360:160,1,70
352,112,123428,2,2,P|328:88|232:104,1,140
112,104,124571,5,0,0:0:0:0:
40,168,124856,1,0,0:0:0:0:
184,168,125142,1,2,0:0:0:0:
112,136,125428,1,0,0:0:0:0:
112,168,125571,1,0,0:0:0:0:
112,200,125714,1,0,0:0:0:0:
112,296,125999,5,2,0:0:0:0:
200,296,126285,1,12,0:0:0:0:
232,296,126428,1,12,0:0:0:0:
264,296,126571,1,12,0:0:0:0:
256,192,126856,5,2,0:0:0:0:
256,40,127285,1,0,0:0:0:0:
288,40,127499,1,2,0:0:0:0:
480,40,127928,1,0,0:0:0:0:
480,72,128142,1,2,0:0:0:0:
368,136,128571,5,0,0:0:0:0:
368,280,128999,1,0,0:0:0:0:
256,192,129428,1,2,0:0:0:0:
232,168,129535,1,2,0:0:0:0:
200,160,129642,1,2,0:0:0:0:
128,160,129856,1,12,0:0:0:0:
56,160,130071,1,12,0:0:0:0:
56,160,130285,6,2,P|56:240|104:272,1,140
152,272,131285,1,8,0:0:0:0:
200,272,131428,1,8,0:0:0:0:
240,272,131571,1,8,0:0:0:0:
288,288,131714,2,0,P|312:296|384:296,1,93.3333333333333,0|2,0:0|0:0,0:0:0:0:
416,288,132142,5,8,0:0:0:0:
448,264,132285,1,8,0:0:0:0:
464,232,132428,1,8,0:0:0:0:
464,192,132642,2,0,P|464:160|440:120,1,70,0|2,0:0|0:0,0:0:0:0:
408,96,133000,5,8,0:0:0:0:
368,80,133142,1,8,0:0:0:0:
328,64,133285,2,0,P|288:56|256:64,1,70,0|2,0:0|0:0,0:0:0:0:
208,72,134035,1,2,0:0:0:0:
64,72,134357,2,2,L|64:96,4,17.5,2|2|2|2|0,0:0|0:0|0:0|0:0|0:0,0:0:0:0:
64,232,134892,1,2,0:0:0:0:
200,328,135214,5,2,0:0:0:0:
240,328,135321,1,2,0:0:0:0:
280,336,135428,2,2,P|320:336|408:288,1,140
408,160,136607,1,2,0:0:0:0:
408,288,136928,1,2,0:0:0:0:
408,160,137142,2,2,P|408:128|328:64,1,140
224,64,138214,5,4,0:0:0:0:
96,64,138428,1,4,0:0:0:0:
224,64,138642,1,4,0:0:0:0:
224,64,138750,1,4,0:0:0:0:
224,64,138857,1,4,0:0:0:0:
224,184,139071,1,4,0:0:0:0:
224,64,139285,1,4,0:0:0:0:
224,184,139500,1,4,0:0:0:0:
96,64,139714,5,2,0:0:0:0:
80,336,140142,1,2,0:0:0:0:
256,336,140571,5,2,0:0:0:0:
448,328,141000,1,0,0:0:0:0:
448,280,141214,1,2,0:0:0:0:
440,152,141642,1,0,0:0:0:0:
440,104,141857,1,2,0:0:0:0:
256,104,142285,5,0,0:0:0:0:
48,96,142714,1,0,0:0:0:0:
48,248,143142,1,2,0:0:0:0:
72,224,143250,1,2,0:0:0:0:
104,208,143357,1,2,0:0:0:0:
224,192,143571,1,12,0:0:0:0:
320,272,143785,1,12,0:0:0:0:
456,320,144000,5,2,0:0:0:0:
472,296,144143,1,0,0:0:0:0:
480,272,144285,1,8,0:0:0:0:
480,248,144428,1,8,0:0:0:0:
472,224,144571,1,8,0:0:0:0:
456,200,144714,1,8,0:0:0:0:
440,184,144857,1,2,0:0:0:0:
456,64,145285,5,0,0:0:0:0:
424,48,145428,1,0,0:0:0:0:
392,48,145571,1,0,0:0:0:0:
352,56,145714,2,2,P|344:88|248:88,1,140
256,64,146285,1,12,0:0:0:0:
256,32,146428,1,12,0:0:0:0:
256,32,146571,6,2,P|216:32|184:120,1,140
184,144,147142,1,12,0:0:0:0:
184,176,147285,1,12,0:0:0:0:
184,216,147428,2,0,P|151:261|159:309,6,93.3333333333333,2|0|0|2|0|0|2,0:0|0:0|0:0|0:0|0:0|0:0|0:0,0:0:0:0:
184,176,149285,2,2,L|160:176,2,23.3333333333333
216,176,149571,5,0,0:0:0:0:
248,176,149714,1,0,0:0:0:0:
280,176,149857,1,12,0:0:0:0:
304,176,150000,2,2,P|320:200|360:224,1,70
352,272,150857,2,2,P|328:296|232:280,1,140
112,280,152000,5,0,0:0:0:0:
40,216,152285,1,0,0:0:0:0:
184,216,152571,1,2,0:0:0:0:
112,248,152857,1,0,0:0:0:0:
112,216,153000,1,0,0:0:0:0:
112,184,153143,1,0,0:0:0:0:
112,88,153428,5,2,0:0:0:0:
200,88,153714,1,12,0:0:0:0:
232,88,153857,1,12,0:0:0:0:
264,88,154000,1,12,0:0:0:0:
256,192,154285,5,0,0:0:0:0:
256,344,154714,1,0,0:0:0:0:
288,344,154928,1,0,0:0:0:0:
480,344,155357,1,0,0:0:0:0:
480,312,155571,1,0,0:0:0:0:
368,248,156000,5,0,0:0:0:0:
368,104,156428,1,0,0:0:0:0:
256,192,156857,1,0,0:0:0:0:
232,216,156964,1,0,0:0:0:0:
200,224,157071,1,0,0:0:0:0:
128,224,157285,1,0,0:0:0:0:
56,224,157500,1,0,0:0:0:0:
56,224,157714,1,2,0:0:0:0:
256,192,178285,12,2,183428,0:0:0:0:
360,192,184714,5,4,0:0:0:0:
344,216,184821,1,4,0:0:0:0:
320,232,184928,1,4,0:0:0:0:
320,336,185142,1,0,0:0:0:0:
232,336,185356,1,0,0:0:0:0:
200,336,185464,1,0,0:0:0:0:
168,336,185571,1,0,0:0:0:0:
64,240,185785,5,0,0:0:0:0:
64,184,185999,1,0,0:0:0:0:
56,48,186428,1,0,0:0:0:0:
184,56,186856,5,4,0:0:0:0:
216,104,187071,1,4,0:0:0:0:
240,56,187285,1,4,0:0:0:0:
272,104,187499,1,4,0:0:0:0:
296,56,187714,1,4,0:0:0:0:
328,104,187928,1,4,0:0:0:0:
352,56,188142,1,4,0:0:0:0:
432,56,188571,5,0,0:0:0:0:
448,80,188678,1,0,0:0:0:0:
456,112,188785,1,0,0:0:0:0:
464,208,188999,1,0,0:0:0:0:
456,336,189214,1,0,0:0:0:0:
320,344,189428,1,0,0:0:0:0:
192,344,189642,1,0,0:0:0:0:
152,344,189749,1,0,0:0:0:0:
304,272,190285,5,4,0:0:0:0:
280,232,190499,1,4,0:0:0:0:
248,272,190714,1,4,0:0:0:0:
224,232,190928,1,4,0:0:0:0:
192,272,191142,1,4,0:0:0:0:
168,232,191356,1,4,0:0:0:0:
136,272,191571,1,4,0:0:0:0:
112,232,191785,1,4,0:0:0:0:
80,272,191999,5,0,0:0:0:0:
48,176,192214,1,0,0:0:0:0:
48,136,192321,1,0,0:0:0:0:
48,40,192642,1,0,0:0:0:0:
184,40,192856,1,0,0:0:0:0:
320,40,193071,1,0,0:0:0:0:
448,40,193285,1,0,0:0:0:0:
320,160,193714,5,4,0:0:0:0:
296,192,193928,1,4,0:0:0:0:
328,216,194142,1,4,0:0:0:0:
296,248,194356,1,4,0:0:0:0:
328,272,194571,1,4,0:0:0:0:
296,304,194785,1,4,0:0:0:0:
328,328,194999,1,4,0:0:0:0:
296,352,195214,1,4,0:0:0:0:
376,336,195428,6,0,P|400:360|480:304,1,140
480,216,196071,1,0,0:0:0:0:
480,104,196285,1,0,0:0:0:0:
352,104,196499,1,0,0:0:0:0:
304,104,196606,1,0,0:0:0:0:
264,224,197142,5,0,0:0:0:0:
240,216,197249,1,0,0:0:0:0:
216,200,197356,1,0,0:0:0:0:
200,176,197464,1,0,0:0:0:0:
192,152,197571,1,0,0:0:0:0:
80,152,197785,1,4,0:0:0:0:
80,272,197999,1,4,0:0:0:0:
192,328,198214,1,0,0:0:0:0:
240,328,198321,1,0,0:0:0:0:
256,80,198856,5,0,0:0:0:0:
144,192,199285,1,0,0:0:0:0:
256,304,199714,1,0,0:0:0:0:
368,192,200142,1,0,0:0:0:0:
256,64,200571,1,4,0:0:0:0:
128,192,200999,5,0,0:0:0:0:
256,320,201428,1,0,0:0:0:0:
384,192,201856,1,4,0:0:0:0:
256,48,202285,1,0,0:0:0:0:
112,192,202714,1,0,0:0:0:0:
256,336,203142,5,0,0:0:0:0:
400,192,203571,1,0,0:0:0:0:
256,32,203999,1,4,0:0:0:0:
96,192,204428,1,0,0:0:0:0:
256,352,204856,1,0,0:0:0:0:
416,192,205285,1,4,0:0:0:0:
256,192,205714,1,0,0:0:0:0:
224,224,206142,5,0,0:0:0:0:
208,240,206249,1,0,0:0:0:0:
184,256,206356,1,0,0:0:0:0:
160,264,206464,1,0,0:0:0:0:
136,272,206571,1,0,0:0:0:0:
112,272,206678,1,0,0:0:0:0:
88,264,206785,1,0,0:0:0:0:
72,248,206892,1,0,0:0:0:0:
64,224,206999,1,0,0:0:0:0:
64,200,207106,5,0,0:0:0:0:
72,176,207214,1,0,0:0:0:0:
88,160,207321,1,0,0:0:0:0:
112,152,207428,1,0,0:0:0:0:
136,144,207535,1,0,0:0:0:0:
152,128,207642,1,0,0:0:0:0:
160,104,207749,1,0,0:0:0:0:
160,80,207856,1,0,0:0:0:0:
144,64,207964,1,0,0:0:0:0:
128,48,208071,5,0,0:0:0:0:
112,40,208178,1,0,0:0:0:0:
88,32,208285,2,0,L|72:32,23,11.6666666666667
256,352,212571,5,2,0:0:0:0:
288,336,212714,1,0,0:0:0:0:
312,312,212856,1,0,0:0:0:0:
312,280,212999,1,0,0:0:0:0:
312,248,213142,1,0,0:0:0:0:
280,216,213285,1,0,0:0:0:0:
248,200,213428,1,2,0:0:0:0:
432,264,213856,5,2,0:0:0:0:
424,216,213999,1,0,0:0:0:0:
400,184,214142,1,0,0:0:0:0:
360,152,214285,2,2,P|328:144|280:56,1,140
232,56,214856,1,12,0:0:0:0:
184,56,214999,1,12,0:0:0:0:
144,56,215142,6,2,P|88:32|56:104,1,140
56,136,215714,1,12,0:0:0:0:
56,184,215856,1,12,0:0:0:0:
56,232,215999,2,2,P|24:277|32:325,6,93.3333333333333,2|0|0|2|0|0|2,0:0|0:0|0:0|0:0|0:0|0:0|0:0,0:0:0:0:
96,232,217857,2,2,L|120:232,2,23.3333333333333
176,232,218142,5,0,0:0:0:0:
208,264,218285,1,0,0:0:0:0:
224,304,218428,1,0,0:0:0:0:
264,304,218571,2,2,P|280:328|320:352,1,70
360,240,219428,6,2,P|384:264|480:248,1,140
472,192,220571,1,12,0:0:0:0:
352,192,220856,1,12,0:0:0:0:
240,192,221142,1,2,0:0:0:0:
296,120,221428,5,12,0:0:0:0:
320,80,221571,1,12,0:0:0:0:
344,40,221714,1,12,0:0:0:0:
240,192,222000,1,2,0:0:0:0:
296,120,222285,1,12,0:0:0:0:
272,80,222428,1,12,0:0:0:0:
248,40,222571,1,12,0:0:0:0:
120,40,222856,5,2,0:0:0:0:
40,128,223285,1,0,0:0:0:0:
40,176,223499,1,2,0:0:0:0:
200,192,223928,1,0,0:0:0:0:
200,240,224142,1,2,0:0:0:0:
40,264,224571,1,0,0:0:0:0:
200,344,224999,1,0,0:0:0:0:
304,336,225428,5,2,0:0:0:0:
336,344,225535,1,2,0:0:0:0:
368,344,225642,1,2,0:0:0:0:
472,344,225856,1,12,0:0:0:0:
472,344,226071,1,12,0:0:0:0:
416,232,226285,5,2,0:0:0:0:
400,208,226428,1,0,0:0:0:0:
392,184,226570,1,0,0:0:0:0:
392,160,226713,1,0,0:0:0:0:
400,136,226856,1,0,0:0:0:0:
416,112,226999,1,0,0:0:0:0:
432,96,227142,1,2,0:0:0:0:
56,48,227570,5,2,0:0:0:0:
88,48,227713,1,0,0:0:0:0:
120,48,227856,1,0,0:0:0:0:
160,56,227999,2,2,P|168:88|264:88,1,140
256,64,228570,1,12,0:0:0:0:
256,32,228713,1,12,0:0:0:0:
256,32,228856,6,2,P|296:32|328:120,1,140
328,144,229428,1,12,0:0:0:0:
328,176,229570,1,12,0:0:0:0:
328,216,229713,2,0,P|361:261|353:309,6,93.3333333333333,2|0|0|2|0|0|2,0:0|0:0|0:0|0:0|0:0|0:0|0:0,0:0:0:0:
328,176,231571,2,2,L|352:176,2,23.3333333333333
296,176,231856,5,0,0:0:0:0:
264,176,231999,1,0,0:0:0:0:
232,176,232142,1,0,0:0:0:0:
208,176,232285,2,2,P|192:200|152:224,1,70
160,272,233142,2,2,P|184:296|280:280,1,140
400,280,234285,5,0,0:0:0:0:
472,216,234570,1,0,0:0:0:0:
328,216,234856,1,2,0:0:0:0:
400,248,235142,1,0,0:0:0:0:
400,216,235285,1,0,0:0:0:0:
400,184,235428,1,0,0:0:0:0:
400,88,235713,5,2,0:0:0:0:
312,88,235999,1,0,0:0:0:0:
280,88,236142,1,0,0:0:0:0:
248,88,236285,1,0,0:0:0:0:
256,192,236570,5,2,0:0:0:0:
256,344,236999,1,0,0:0:0:0:
224,344,237214,1,2,0:0:0:0:
32,344,237642,1,0,0:0:0:0:
32,312,237856,1,2,0:0:0:0:
144,248,238285,5,12,0:0:0:0:
144,104,238713,1,12,0:0:0:0:
256,192,239142,1,2,0:0:0:0:
280,216,239249,1,2,0:0:0:0:
312,224,239356,1,2,0:0:0:0:
384,224,239570,1,12,0:0:0:0:
456,224,239785,1,12,0:0:0:0:
456,224,239999,6,2,P|456:144|408:112,1,140
360,112,240999,1,0,0:0:0:0:
312,112,241142,1,0,0:0:0:0:
272,112,241285,1,0,0:0:0:0:
224,96,241428,2,2,P|200:88|128:88,1,93.3333333333333
96,96,241856,5,0,0:0:0:0:
64,120,241999,1,0,0:0:0:0:
48,152,242142,1,0,0:0:0:0:
48,192,242356,2,2,P|48:224|72:264,1,70
104,288,242714,5,0,0:0:0:0:
144,304,242856,1,0,0:0:0:0:
184,320,242999,2,2,P|224:328|256:320,1,70
304,312,243749,1,2,0:0:0:0:
448,312,244071,2,2,L|448:288,4,17.5
448,152,244606,1,2,0:0:0:0:
312,56,244928,5,2,0:0:0:0:
272,56,245035,1,2,0:0:0:0:
232,48,245142,2,2,P|192:48|104:96,1,140
104,224,246321,1,2,0:0:0:0:
104,96,246642,1,2,0:0:0:0:
104,224,246856,2,2,P|104:256|184:320,1,140
288,320,247928,5,12,0:0:0:0:
416,320,248142,1,12,0:0:0:0:
288,320,248356,1,12,0:0:0:0:
288,320,248464,1,12,0:0:0:0:
288,320,248571,1,12,0:0:0:0:
288,200,248785,1,12,0:0:0:0:
288,320,248999,1,12,0:0:0:0:
288,200,249214,1,12,0:0:0:0:
416,320,249428,5,2,0:0:0:0:
432,48,249856,1,2,0:0:0:0:
256,48,250285,5,2,0:0:0:0:
64,56,250714,1,0,0:0:0:0:
64,104,250928,1,2,0:0:0:0:
72,232,251356,1,0,0:0:0:0:
72,280,251571,1,2,0:0:0:0:
256,280,251999,5,12,0:0:0:0:
464,288,252428,1,12,0:0:0:0:
464,136,252856,1,2,0:0:0:0:
440,160,252964,1,2,0:0:0:0:
408,176,253071,1,2,0:0:0:0:
288,192,253285,1,12,0:0:0:0:
192,112,253499,1,12,0:0:0:0:
56,64,253714,5,2,0:0:0:0:
40,88,253857,1,0,0:0:0:0:
32,112,253999,1,0,0:0:0:0:
32,136,254142,1,0,0:0:0:0:
40,160,254285,1,0,0:0:0:0:
56,184,254428,1,0,0:0:0:0:
72,200,254571,1,2,0:0:0:0:
56,320,254999,5,2,0:0:0:0:
88,336,255142,1,0,0:0:0:0:
120,336,255285,1,0,0:0:0:0:
160,328,255428,2,2,P|168:296|264:296,1,140
256,320,256000,1,12,0:0:0:0:
256,352,256142,1,12,0:0:0:0:
256,352,256285,6,2,P|296:352|328:264,1,140
328,240,256857,1,12,0:0:0:0:
328,208,256999,1,12,0:0:0:0:
328,168,257142,2,0,P|361:123|353:75,6,93.3333333333333,2|0|0|2|0|0|2,0:0|0:0|0:0|0:0|0:0|0:0|0:0,0:0:0:0:
328,208,258999,2,2,L|352:208,2,23.3333333333333
296,208,259285,5,0,0:0:0:0:
264,208,259428,1,0,0:0:0:0:
232,208,259571,1,0,0:0:0:0:
208,208,259714,2,2,P|192:184|152:160,1,70
160,112,260571,2,2,P|184:88|280:104,1,140
400,104,261714,5,0,0:0:0:0:
472,168,261999,1,0,0:0:0:0:
328,168,262285,1,2,0:0:0:0:
400,136,262571,1,0,0:0:0:0:
400,168,262714,1,0,0:0:0:0:
400,200,262857,1,0,0:0:0:0:
400,296,263142,5,2,0:0:0:0:
312,296,263428,1,14,0:0:0:0:
280,296,263571,1,14,0:0:0:0:
248,296,263714,1,14,0:0:0:0:
256,192,263999,5,2,0:0:0:0:
256,40,264428,1,0,0:0:0:0:
224,40,264642,1,0,0:0:0:0:
32,40,265071,1,0,0:0:0:0:
32,72,265285,1,0,0:0:0:0:
144,136,265714,5,0,0:0:0:0:
144,280,266142,1,0,0:0:0:0:
256,192,266571,1,12,0:0:0:0:
280,168,266678,1,12,0:0:0:0:
312,160,266785,1,12,0:0:0:0:
384,160,266999,1,12,0:0:0:0:
456,160,267214,1,12,0:0:0:0:
456,160,267428,1,12,0:0:0:0:
