osu file format v5

[General]
AudioFilename: State Radio - Right Me Up [7554].mp3
AudioLeadIn: 0
PreviewTime: 58274
Countdown: 0
SampleSet: Soft
StackLeniency: 0.7
Mode: 0
LetterboxInBreaks: 1

[Editor]
Bookmarks: 167925
DistanceSpacing: 1
BeatDivisor: 4
GridSize: 8

[Metadata]
Title:Right Me Up
Artist:State Radio
Creator:wyaeiga
Version:Hard
Source:
Tags:us against the crown

[Difficulty]
HPDrainRate:7
CircleSize:5
OverallDifficulty:6
SliderMultiplier:2
SliderTickRate:1

[Events]
//Background and Video events
0,0,"optimism-from-superjudge.jpg"
//Break Periods
2,67149,68851
2,81242,84659
2,127836,129539
//Storyboard Layer 0 (Background)
//Storyboard Layer 1 (Fail)
//Storyboard Layer 2 (Pass)
//Storyboard Layer 3 (Foreground)
//Storyboard Sound Samples
//Background Colour Transformations
3,100,0,0,0

[TimingPoints]
3810,689.655172413793,4,2,0,64,1,0
25861,-100,4,2,0,64,0,1
26464,-100,4,2,0,64,0,0
86561,-100,4,2,0,64,0,1
87152,-100,4,2,0,100,0,0
141030,-100,4,2,0,100,0,1
141288,-100,4,2,0,100,0,0
141375,-100,4,2,0,100,0,1
141633,-100,4,2,0,100,0,0
141719,-100,4,2,0,100,0,1
141978,-100,4,2,0,100,0,0
142064,-100,4,2,0,100,0,1
142323,-100,4,2,0,100,0,0
142409,-100,4,2,0,100,0,1
142668,-100,4,2,0,100,0,0
142754,-100,4,2,0,100,0,1
143012,-100,4,2,0,100,0,0
143099,-100,4,2,0,100,0,1
161202,-100,4,2,0,71,0,1
161719,-100,4,2,0,100,0,1
162581,-100,4,2,0,73,0,1
163098,-100,4,2,0,100,0,1
165081,-100,4,2,0,100,0,0
165167,-100,4,2,0,100,0,1
165426,-100,4,2,0,100,0,0
165512,-100,4,2,0,100,0,1
165770,-100,4,2,0,100,0,0
165857,-100,4,2,0,100,0,1
166115,-100,4,2,0,100,0,0
166201,-100,4,2,0,100,0,1
166460,-100,4,2,0,100,0,0
166546,-100,4,2,0,100,0,1
166805,-100,4,2,0,100,0,0
166891,-100,4,2,0,100,0,1
167150,-100,4,2,0,100,0,0
167236,-100,4,2,0,100,0,1
167494,-100,4,2,0,100,0,0
167581,-100,4,2,0,100,0,1

[Colours]
Combo1 : 187,184,68
Combo2 : 85,159,157

[HitObjects]
368,184,3810,2,0,B|328:112|312:80,1,100,0|0
216,96,4499,1,0
168,96,4672,1,0
120,96,4844,1,0
56,176,5189,1,0
120,96,5534,1,0
152,56,5706,1,0
184,16,5878,2,2,B|304:16,1,100
384,16,6568,5,0
384,112,6913,1,0
336,200,7258,1,0
312,240,7430,1,0
292,285,7603,2,0,B|228:397,1,100
292,285,8292,1,0
312,240,8465,1,0
336,200,8637,2,4,B|392:96,1,100
280,112,9327,5,0
176,112,9672,1,0
176,208,10016,1,0
176,256,10189,1,0
176,304,10361,2,0,B|176:328|184:344|208:344|224:344|232:328|232:296,1,100
232,208,11051,1,0
232,256,11223,1,0
232,305,11396,2,0,B|232:329|240:345|264:345|280:345|288:329|288:297,1,100,2|2
288,208,12085,5,0
288,104,12430,1,0
200,56,12775,2,0,B|200:0,1,50
200,56,13120,2,0,B|200:144|120:168,2,100
240,24,13982,1,0
288,8,14154,2,4,B|352:0|392:40,1,100
383,132,14844,6,0,B|384:208|339:211,1,100
248,248,15534,1,0
200,264,15706,1,0
207,216,15878,2,0,B|251:213|250:137,1,100
320,64,16568,1,0
368,48,16741,1,0
360,95,16913,2,2,B|317:99|317:174,1,100
368,264,17603,5,0
264,264,17947,1,0
176,320,18292,1,0
152,280,18465,1,0
128,240,18637,1,0
224,240,18982,1,0
312,192,19327,1,0
336,232,19499,1,0
360,272,19672,2,4,B|424:184,1,100
424,88,20361,5,0
320,88,20706,1,0
232,136,21051,1,0
232,88,21223,1,0
232,40,21396,1,0
144,88,21741,1,0
40,88,22085,2,0,B|-16:88,2,50,0|0|2
144,88,22775,1,2
256,192,22947,12,0,24154
80,192,25189,5,0
128,192,25361,1,0
152,232,25534,1,0
192,320,25878,2,0,B|352:336|360:160,2,200,4|8|0
88,320,27603,1,0
64,272,27775,1,0
152,232,28120,1,0
176,280,28292,1,0
264,240,28637,6,0,B|264:208|80:208|80:168|80:168,2,200,0|8|0
264,88,30534,1,0
264,88,30706,2,0,B|184:88|136:40|136:64,1,100,8|0
24,24,31568,2,8,B|96:24|144:80|206:65|144:64,1,150,0|8
344,112,32775,1,4
152,160,33465,5,8
248,184,33810,1,0
312,264,34154,1,2
264,280,34327,1,0
216,296,34499,1,2
136,240,34844,1,10
88,256,35016,1,0
40,272,35189,1,2
40,168,35534,1,2
88,152,35706,1,0
136,136,35878,2,0,B|216:120|272:160,1,100,2|12
336,311,36913,5,0
383,227,37258,1,0
467,273,37603,1,8
420,357,37947,1,0
336,312,38292,1,0
288,296,38465,1,0
240,296,38637,2,4,B|176:304|136:280,1,100,4|12
96,192,39327,5,0
128,96,39672,1,0
240,96,40016,1,0
224,144,40189,1,0
208,192,40361,2,0,B|192:288|224:312,1,100,8|0
288,352,41051,2,0,B|352:360|384:344,4,75,0|2|0|2|2
72,72,43120,5,8
72,176,43465,1,0
160,128,43810,1,0
248,176,44154,1,0
280,136,44327,1,0
368,176,44672,1,0
400,136,44844,2,0,B|424:64|376:32|320:40,1,150
224,40,45706,2,0,B|168:72,1,50,0|8
224,152,46223,2,0,B|224:216,1,50
224,304,46741,2,0,B|280:336,1,50
224,240,47258,5,8
320,240,47603,1,4
272,152,47947,1,4
272,104,48120,1,0
168,104,48465,1,0
168,56,48637,1,8
64,56,48982,1,0
64,104,49154,1,0
64,200,49499,1,0
112,200,49672,1,0
208,200,50016,5,8
208,152,50189,2,0,B|240:104|336:112|336:168,1,150
336,200,50878,1,0
352,248,51051,1,0
384,280,51223,2,0,B|456:328|512:312|512:128|504:96,1,250
264,80,52947,5,0
216,104,53120,1,0
216,56,53292,1,0
168,80,53465,1,0
168,176,53810,2,0,B|168:296,1,100,2|8
232,199,54499,2,0,B|160:287,1,100,2|0
267,261,55189,2,0,B|155:277,1,100,2|8
252,329,55878,2,0,B|161:270,1,100,2|0
152,128,56741,2,0,B|152:80|208:48|296:48|352:80|336:176,1,250,2|4
40,216,58982,5,0
120,152,59327,1,0
216,136,59672,1,8
304,184,60016,1,0
216,232,60361,1,0
304,280,60706,1,0
400,264,61051,1,8
480,200,61396,1,0
256,192,62430,6,0,B|256:80,1,100,8|0
256,192,63120,2,0,B|256:232|272:248|312:248|384:248|400:232|400:184,1,200,0|8
40,200,64499,5,0
120,264,64844,1,0
216,280,65189,1,8
304,232,65534,1,0
216,184,65878,1,0
304,136,66223,1,0
400,152,66568,1,8
480,216,66913,1,0
104,112,70016,5,0
160,192,70361,1,0
256,192,70706,1,8
312,272,71051,1,0
408,272,71396,1,0
352,192,71741,1,0
256,192,72085,1,8
200,112,72430,1,0
491,192,73465,6,0,B|363:192,1,100,8|0
288,192,74154,2,0,B|288:136|314:104|360:104|391:128|391:197,1,200,0|8
408,272,75534,5,0
352,192,75878,1,0
256,192,76223,1,8
200,112,76568,1,0
104,112,76913,1,0
160,192,77258,1,0
256,192,77603,1,8
312,272,77947,1,0
256,80,78637,5,2
256,280,79327,2,0,B|360:280,1,100,2|0
305,193,80016,2,0,B|248:296,1,100,2|0
355,280,80706,2,0,B|282:153,1,100,2|4
80,88,85878,5,0
88,136,86051,1,0
104,184,86223,1,0
136,224,86396,1,0
176,248,86568,2,0,B|296:280|376:208,1,200,4|8
176,152,87947,2,0,B|296:184|376:112,1,200,0|8
448,56,88982,2,0,B|448:168,1,100
346,308,90016,2,0,B|426:212|346:84,2,200,8|0|8
248,312,91741,1,0
152,288,92085,1,0
264,120,92775,5,8
72,184,93465,2,0,B|272:240,1,200,0|8
352,184,94499,1,0
352,80,94844,1,0
304,80,95016,1,0
256,80,95189,1,0
152,80,95534,1,8
152,128,95706,1,0
152,176,95878,1,0
248,176,96223,1,0
296,176,96396,1,0
344,176,96568,1,0
392,176,96741,1,0
440,176,96913,2,0,B|472:232|424:296,1,100,8|0
344,272,97603,6,0,B|312:216|360:152,1,100,0|0
440,176,98292,2,0,B|472:232|424:296,1,100,8|0
344,272,98982,2,0,B|112:272,2,200,0|8|0
344,168,100706,1,0
296,80,101051,1,8
248,168,101396,1,0
192,80,101741,2,0,B|-16:80,2,200,0|8|0
296,80,103465,5,0
232,160,103810,1,8
128,160,104154,1,0
232,160,104499,1,0
296,232,104844,1,0
232,160,105189,1,10
192,192,105361,1,0
176,240,105534,1,2
176,288,105706,1,2
192,336,105878,2,0,B|208:368|248:376|280:368,1,100
328,352,106396,2,0,B|368:336|384:296|376:248|352:216,1,150
328,184,107085,5,2
312,136,107258,1,0
320,88,107430,1,2
344,40,107603,2,0,B|360:16|384:0|416:8|440:32|448:64,1,100,2|8
432,128,108292,5,0
432,224,108637,1,2
384,224,108810,1,0
336,224,108982,1,2
232,224,109327,1,10
232,176,109499,1,0
232,128,109672,1,2
232,24,110016,1,2
184,24,110189,1,0
136,24,110361,1,2
32,24,110706,2,0,B|32:136,1,100,8|0
32,224,111396,5,2
80,224,111568,1,0
128,224,111741,1,2
128,120,112085,2,0,B|128:80|168:48|232:48|272:80|272:136,2,200,8|0|8
128,224,113810,5,0
224,224,114154,1,0
128,152,114499,1,0
224,152,114844,1,8
128,80,115189,2,0,B|240:80,1,100
328,80,115878,1,0
424,80,116223,1,8
328,152,116568,2,0,B|448:152,1,100
328,264,117430,2,0,B|328:320|312:344|160:344|144:320|152:232,1,250
464,184,119672,5,0
384,120,120016,1,0
288,152,120361,1,8
224,224,120706,1,0
288,152,121051,1,0
224,224,121396,1,0
128,256,121741,1,8
48,192,122085,1,0
256,192,123120,6,0,B|152:192,1,100,8|0
256,192,123810,2,0,B|256:120|304:88|358:118|358:200,1,200,0|8
48,192,125189,5,0
128,256,125534,1,0
224,224,125878,1,8
288,152,126223,1,0
224,224,126568,1,0
288,152,126913,1,0
384,120,127258,1,8
464,184,127603,1,0
256,192,130706,5,0
192,112,131051,1,0
128,192,131396,1,8
192,264,131741,1,0
256,192,132085,1,0
320,112,132430,1,0
384,192,132775,1,8
320,264,133120,1,0
24,192,134154,6,8,B|128:192,1,100,8|0
124,192,134844,2,8,B|168:192|184:136|184:112|152:72|72:88,1,200,0|8
256,192,136223,5,0
336,128,136568,1,0
256,64,136913,1,8
184,128,137258,1,0
256,192,137603,1,0
336,256,137947,1,0
256,320,138292,1,8
176,256,138637,2,0,B|120:256|80:192|120:128|184:128,2,200
272,256,140361,1,0
256,192,141051,12,0,143465
96,192,143810,5,0
96,144,143982,1,0
184,192,144327,1,0
184,240,144499,1,8
272,192,144844,2,0,B|376:192,1,100
368,88,145534,1,0
368,40,145706,1,0
280,88,146051,1,0
280,40,146223,1,0
176,40,146568,1,0
72,40,146913,1,0
72,136,147258,2,0,B|40:192|80:248,1,100,8|0
168,232,147947,2,0,B|200:176|160:120,1,100
123,48,148634,1,8
256,192,148720,12,8,150013
256,192,150099,12,8,151396
88,192,152258,5,0
168,136,152603,2,0,B|224:88|344:104,1,150
408,128,153465,1,0
288,216,153982,2,0,B|320:272|360:200|224:40,1,250
192,136,155189,5,0
144,120,155361,1,0
96,112,155534,1,8
96,216,155878,2,0,B|152:256|280:264|296:264,1,200
336,248,156741,1,0
368,208,156913,1,8
416,120,157258,1,0
432,16,157603,1,0
416,120,157947,5,0
424,168,158120,1,0
456,208,158292,1,8
360,184,158637,2,0,B|368:256|392:256|416:280,1,100
304,248,159327,2,0,B|312:320|336:320|360:344,1,100,0|8
64,192,160706,5,0
64,192,160878,1,0
216,192,161396,1,0
216,192,161568,1,0
368,192,162085,5,0
368,192,162258,1,0
216,192,162775,1,0
216,192,162947,1,0
216,88,163292,5,0
312,88,163637,2,0,B|312:120|352:152|368:152|416:120|416:56,1,150
504,88,164499,1,0
256,192,165189,12,4,167947
