osu file format v6

[General]
AudioFilename: 17.Give A Reason.mp3
AudioLeadIn: 0
PreviewTime: 72720
Countdown: 1
SampleSet: Normal
StackLeniency: 0.7
Mode: 0
LetterboxInBreaks: 1

[Editor]
DistanceSpacing: 0.899999976158142
BeatDivisor: 4
GridSize: 8

[Metadata]
Title:Give a Reason (Trance Remix)
Artist:Starving Trancer feat. Maki
Creator:aesopl19193
Version:Easy
Source:EXIT TRANCE
Tags:Slayers Megumi Hayashibara EXIT TRANCE al2e10

[Difficulty]
HPDrainRate:3
CircleSize:4
OverallDifficulty:3
SliderMultiplier:1.2
SliderTickRate:1

[Events]
//Background and Video events
0,0,"006.jpg"
//Break Periods
2,13548,18575
2,26048,26908
2,43548,48575
//Storyboard Layer 0 (Background)
//Storyboard Layer 1 (Fail)
//Storyboard Layer 2 (Pass)
//Storyboard Layer 3 (Foreground)
//Storyboard Sound Samples
//Background Colour Transformations
3,100,163,162,255

[TimingPoints]
15,416.666666666667,4,1,0,49,1,0
72720,-100,4,1,0,49,0,0
73348,-100,4,1,0,70,0,1
99181,-100,4,1,0,60,0,0

[Colours]
Combo1 : 255,128,255
Combo2 : 255,255,255
Combo3 : 255,0,255

[HitObjects]
40,200,6681,2,0,B|112:152|176:168,1,120
224,224,7515,2,0,B|288:280|344:232,1,120
376,144,8348,2,0,B|304:112|240:152,1,120
160,136,9181,1,8
232,320,10015,6,2,B|144:320,2,60
320,320,10848,2,8,B|400:320,2,60
256,208,11681,12,4,13348
112,136,20015,5,0
304,112,20848,1,8
408,272,21681,1,0
216,280,22515,1,8
96,128,23348,5,2
184,88,23765,1,8
280,72,24181,1,2
360,248,25015,1,8
168,264,25848,1,8
256,192,28348,5,0
256,192,28765,1,0
256,192,29181,1,0
416,64,30015,5,4
416,176,30431,1,0
416,288,30848,1,8
280,104,31681,5,0
280,216,32098,1,0
280,328,32515,1,8
80,224,33348,6,0,B|80:80|256:80,1,240,4|8
424,192,35015,2,0,B|424:328|240:328,1,240,0|8
72,232,36681,5,4
72,232,37098,1,0
72,232,37515,1,8
200,80,38348,5,0
200,80,38765,1,0
200,80,39181,1,8
392,176,40015,5,2
240,344,40848,1,2
64,208,41681,5,6
144,128,42098,1,2
224,48,42515,2,2,B|200:216|360:208,1,240,2|4
128,64,50015,5,0
200,144,50431,1,8
128,232,50848,1,0
200,320,51265,1,8
312,320,51681,5,0
376,232,52098,1,2
312,136,52515,1,0
376,48,52931,1,8
256,208,53348,12,0,55015
256,192,55848,5,0
96,312,56681,5,12
96,120,57515,2,0,B|352:120,1,240,2|0
208,264,59181,2,0,B|464:264,1,240,2|0
440,72,60848,6,0,B|184:72,1,240,2|0
272,256,62515,2,0,B|16:256,1,240,2|0
216,312,64181,5,2
152,128,65015,1,8
296,256,65848,1,2
360,184,66265,1,0
424,112,66681,1,8
432,304,67515,5,0
240,288,68348,1,0
72,200,69181,1,0
184,40,70015,1,0
256,208,70848,12,0,72515
120,88,73348,6,2,B|184:56|288:160|360:96,1,240
384,288,75015,2,0,B|288:240|200:312|152:256,1,240,2|8
72,96,76681,5,2
240,240,77515,1,2
400,96,78348,2,0,B|456:224|336:312,1,240,0|8
128,248,80015,6,0,B|136:184|216:160,4,120,0|0|8|0|8
224,296,82098,2,0,B|336:200,1,120,0|8
472,32,83348,5,4
424,248,84181,1,4
216,160,85015,1,8
136,240,85431,2,0,B|72:296,2,60,8|0|8
112,48,86681,6,0,B|248:48,1,120,0|2
256,144,87515,2,0,B|128:144,1,120,0|2
144,248,88348,2,0,B|280:248,1,120,0|2
376,248,89181,1,8
304,48,90015,6,0,B|256:120|200:40,6,120,0|2|0|2|0|2|4
352,264,93348,5,0
160,264,94181,1,8
256,96,95015,1,0
256,312,95848,1,8
368,128,96681,5,0
152,128,97515,1,8
256,312,98348,1,0
256,208,98765,1,0
256,120,99181,1,4
