osu file format v5

[General]
AudioFilename: Starving Trancer feat.Maki - Agony.mp3
AudioLeadIn: 0
PreviewTime: 43118
Countdown: 0
SampleSet: Soft
StackLeniency: 0.7
Mode: 0
LetterboxInBreaks: 0

[Editor]
Bookmarks: 43535,83535,111868,138951,151451,165201
DistanceSpacing: 1.20000004768372
BeatDivisor: 4
GridSize: 8

[Metadata]
Title:Agony
Artist:Starving Trancer feat. Maki
Creator:James
Version:Hard
Source:Kannazuki no Miko Exit Tunes
Tags:Kannazuki no Miko Exit Tunes

[Difficulty]
HPDrainRate:5
CircleSize:5
OverallDifficulty:8
SliderMultiplier:1.6
SliderTickRate:0.5

[Events]
//Background and Video events
0,0,"image.png"
//Break Periods
2,70406,84306
2,138735,150968
//Storyboard Layer 0 (Background)
//Storyboard Layer 1 (Fail)
//Storyboard Layer 2 (Pass)
//Storyboard Layer 3 (Foreground)
//Storyboard Sound Samples
//Background Colour Transformations
3,100,0,0,0

[TimingPoints]
3535,416.666666666667,4,2,0,80,1,0
6451,-100,4,2,0,70,0,0
6660,-100,4,2,0,41,0,0
6868,-100,4,2,0,81,0,0
9993,-100,4,2,0,40,0,0
10196,-100,4,2,0,80,0,0
13118,-100,4,2,0,40,0,0
13326,-100,4,2,0,69,0,0
13530,-100,4,2,0,40,0,0
13951,-100,4,2,0,61,0,0
14368,-100,4,2,0,71,0,0
14785,-100,4,2,0,82,0,0
15196,-100,4,2,0,100,0,0
15618,-100,4,2,0,71,0,0
16035,-100,4,2,0,41,0,0
16451,-100,4,2,0,22,0,0
16863,-100,4,2,0,100,0,0
36863,-100,4,2,0,79,0,0
37175,-100,4,2,0,100,0,0
40196,-100,4,2,0,61,0,0
40405,-100,4,2,0,100,0,0
56863,-100,4,2,0,70,0,0
57071,-100,4,2,0,100,0,0
63530,-100,4,2,0,73,0,0
63738,-100,4,2,0,100,0,0
66868,-100,4,2,0,65,0,0
67076,-100,4,2,0,100,0,0
70201,-100,4,2,0,57,0,0
85201,-100,4,2,0,71,0,0
98535,-100,4,2,0,100,0,0
105201,-100,4,2,0,81,0,0
105514,-100,4,2,0,100,0,0
125201,-100,4,2,0,81,0,0
125410,-100,4,2,0,100,0,0
131868,-100,4,2,0,69,0,0
132076,-100,4,2,0,100,0,0
135201,-100,4,2,0,68,0,0
135410,-100,4,2,0,100,0,0
136868,-100,4,2,0,60,0,0
137285,-100,4,2,0,100,0,0
138535,-100,4,2,0,52,0,0
151868,-100,4,2,0,42,0,0
153535,-100,4,2,0,19,0,0
165201,416.666666666667,4,2,0,40,1,0
165201,-100,4,2,0,20,0,0
168534,-100,4,2,0,40,0,0
171867,-100,4,2,0,20,0,0
175201,-100,4,2,0,31,0,0
175617,-100,4,2,0,21,0,0
176034,-100,4,2,0,40,0,0
176451,-100,4,2,0,51,0,0
176867,-100,4,2,0,61,0,0
177284,-100,4,2,0,71,0,0
177701,-100,4,2,0,81,0,0
178117,-100,4,2,0,91,0,0
181868,-100,4,2,0,79,0,0
182076,-100,4,2,0,100,0,0
205201,-100,4,2,0,70,0,0
205410,-100,4,2,0,100,0,0
206868,-100,4,2,0,69,0,0
208535,-100,4,2,0,75,0,0

[Colours]
Combo1 : 128,0,255
Combo2 : 255,255,255
Combo3 : 0,0,255
Combo4 : 255,255,255

[HitObjects]
72,64,3535,1,2
152,80,3743,1,0
224,56,3951,1,0
296,80,4160,2,0,B|384:72|456:112,1,160,2|0
472,184,4785,1,0
392,176,4993,2,0,B|296:192|224:160,1,160,2|0
152,144,5618,1,0
72,152,5826,1,0
16,208,6035,2,0,B|48:304,1,80,2|0
88,344,6451,2,0,B|200:328,1,80,0|0
224,272,6868,5,2
192,200,7076,1,0
208,120,7285,1,0
264,64,7493,2,0,B|360:56|408:152,1,160,2|0
304,144,8118,1,0
344,224,8326,2,0,B|248:224|208:136,1,160,2|0
304,144,8951,1,0
264,64,9160,2,0,B|360:56|408:152,1,160,2|0
472,152,9785,2,0,B|480:256,1,80,2|0
424,296,10201,5,2
344,312,10410,1,0
272,272,10618,1,0
200,304,10826,2,0,B|128:352|16:344,1,160,2|0
72,264,11451,1,0
32,192,11660,2,0,B|64:104|136:64,1,160,2|0
208,80,12285,1,0
232,160,12493,2,0,B|416:160,1,160,2|0
456,104,13118,2,0,B|392:32,1,80,0|2
328,80,13535,5,2
328,80,13743,1,0
280,144,13951,1,0
280,144,14160,1,2
232,208,14368,1,0
232,208,14576,1,0
184,272,14785,1,2
184,272,14993,1,0
216,344,15201,2,0,B|304:344,1,80,0|2
336,272,15618,2,0,B|240:272,1,80,0|2
304,208,16035,2,0,B|408:208,1,80,0|2
416,136,16451,2,0,B|320:136,1,80,0|2
256,136,16868,5,0
176,136,17076,1,2
176,136,17180,2,0,B|104:104|40:112,1,120
24,184,17701,1,0
48,256,17909,1,2
48,256,18014,2,0,B|104:256|184:248,1,120
167,249,18430,1,0
167,249,18534,1,0
240,280,18743,1,2
240,280,18847,2,0,B|304:296|369:272,1,120
358,275,19264,1,0
358,275,19368,6,0,B|396:357,1,80,0|2
472,209,19785,2,0,B|428:116,1,80,0|2
372,90,20201,5,0
295,113,20410,1,2
295,113,20514,2,0,B|215:105|143:145,1,120
101,155,21035,1,0
139,224,21243,1,2
139,224,21347,2,0,B|208:225|283:208,1,120
258,213,21764,1,0
258,213,21868,1,0
336,199,22076,1,2
336,199,22180,2,0,B|374:260|383:331,1,120
379,310,22597,1,0
379,310,22701,6,0,B|281:310,1,80,0|2
136,318,23118,2,0,B|240:318,1,80,0|2
195,233,23535,5,0
266,196,23743,1,2
266,196,23847,2,0,B|242:124|290:52,1,120,0|0
327,142,24368,1,0
385,93,24576,1,2
385,93,24680,2,0,B|409:156|370:221,1,120,0|0
376,208,25097,1,0
376,208,25201,1,0
328,273,25410,1,2
328,273,25514,2,0,B|183:273,1,120,0|0
208,273,25930,1,0
208,273,26035,6,0,B|138:179,1,80,0|2
275,98,26451,2,0,B|329:169,1,80,0|2
387,210,26868,6,2,B|392:277|412:344,2,120,2|2|0
292,183,27701,2,0,B|293:115|265:43,2,120,2|2|0
202,231,28535,2,0,B|189:291|188:366,2,120,2|2|0
122,180,29368,2,0,B|116:116|71:38,2,120,2|2|0
120,256,30201,6,0,B|80:344,1,80,4|2
168,320,30618,2,0,B|208:224,1,80,0|2
200,168,31035,2,0,B|96:128,1,80,0|2
184,88,31451,2,0,B|280:120,1,80,0|2
336,128,31868,2,0,B|336:224,1,80,0|2
408,176,32285,2,0,B|408:88,1,80,0|2
480,128,32701,2,0,B|480:224,2,80,0|2|0
480,48,33326,5,2
480,48,33430,1,0
480,48,33535,1,0
408,80,33743,2,0,B|336:80|312:112,1,80,2|0
256,136,34160,1,2
256,136,34264,1,0
256,136,34368,1,0
184,168,34576,2,0,B|184:240|160:280,1,80,2|0
200,320,34993,1,2
200,320,35097,1,0
200,320,35201,1,0
272,288,35410,2,0,B|328:304|384:280,1,80,2|0
432,280,35826,5,2
432,280,35930,1,0
432,280,36035,1,0
424,200,36243,2,0,B|344:168,1,80,2|0
280,208,36660,1,2
208,160,36868,2,0,B|192:88|136:24,2,120,6|2|0
160,224,37701,2,0,B|176:296|232:360,2,120,2|2|0
152,144,38535,5,2
184,72,38743,1,0
256,40,38951,1,0
312,96,39160,2,0,B|384:80|408:128|480:120,1,160,2|2
432,192,39784,1,0
440,272,39993,1,2
379,324,40201,5,4
379,324,40409,1,0
299,314,40618,1,0
299,314,40826,1,0
220,329,41034,1,0
220,329,41243,1,0
140,317,41451,1,0
140,317,41660,1,0
96,256,41868,6,2,B|64:200,1,40,0|2
152,192,42180,2,2,B|120:136,1,40,2|2
192,104,42493,1,0
256,152,42701,2,0,B|296:184,1,40,2|2
352,128,43014,2,0,B|392:168,1,40,2|2
440,208,43326,1,0
408,280,43534,5,0
328,256,43743,1,2
256,288,43951,1,8
176,304,44159,1,2
176,304,44264,1,0
176,304,44368,1,0
96,280,44576,2,0,B|136:184,1,80,2|8
152,128,44993,1,0
152,128,45097,1,0
232,112,45305,1,2
296,72,45514,1,0
296,72,45618,1,10
312,232,45826,5,0
312,232,45930,1,0
312,232,46034,1,0
376,184,46243,2,0,B|480:208,1,80,0|8
496,272,46659,1,0
496,272,46764,1,0
464,344,46972,1,2
384,360,47180,1,0
384,360,47284,1,10
224,360,47493,5,0
224,360,47597,1,0
224,360,47701,1,0
152,328,47909,2,0,B|56:336,1,80,0|8
32,264,48326,1,0
32,264,48430,1,0
72,192,48639,1,2
72,112,48847,1,0
72,112,48951,1,10
96,32,49159,6,0,B|192:32,1,80,2|0
416,32,49576,2,0,B|320:32,2,80,2|8|2
472,88,50201,5,0
448,160,50409,1,2
448,160,50514,1,0
448,160,50618,2,0,B|400:160|352:192,1,80,8|0
371,180,50930,1,0
371,180,51035,1,0
295,152,51243,1,0
295,152,51347,1,0
295,152,51451,2,0,B|191:184,1,80,8|0
218,175,51764,1,0
218,175,51868,1,0
139,160,52076,1,0
139,160,52180,1,0
139,160,52285,2,8,B|111:212|104:249,1,80,8|0
107,233,52597,1,0
107,233,52701,5,0
139,305,52909,2,0,B|223:328,1,80,2|8
289,293,53326,1,2
252,222,53534,1,0
226,146,53743,2,0,B|320:75,1,80,2|8
369,97,54159,1,2
369,97,54264,1,0
369,97,54368,1,0
446,116,54576,2,0,B|473:209,1,80,2|8
470,273,54993,1,2
443,348,55201,5,2
443,348,55305,1,2
364,329,55514,1,2
364,329,55618,1,2
284,325,55826,1,0
209,353,56034,1,2
209,353,56139,1,2
129,349,56347,1,2
129,349,56451,1,2
51,328,56659,1,0
54,247,56868,6,0,B|38:159,1,80,4|2
50,89,57284,1,8
123,57,57493,1,2
123,57,57597,1,0
123,57,57701,1,0
190,100,57909,2,0,B|214:188,1,80,2|8
239,252,58326,1,0
239,252,58430,1,0
315,275,58639,1,2
393,261,58847,1,0
393,261,58951,1,10
429,113,59159,5,0
429,113,59264,1,0
429,113,59368,1,0
361,70,59576,2,0,B|277:82,1,80,0|8
204,103,59993,2,0,B|149:70,1,40
90,90,60305,1,2
50,159,60514,1,0
50,159,60618,1,10
175,281,60826,5,0
175,281,60930,1,0
175,281,61034,1,0
249,311,61243,1,0
328,301,61451,1,8
404,278,61659,1,0
404,278,61764,2,0,B|412:190,1,80,0|2
407,118,62180,2,0,B|351:126,1,40,0|10
287,114,62493,6,0,B|191:114,1,80,2|0
226,272,62909,2,0,B|322:272,2,80,2|8|2
149,297,63534,5,4
79,257,63743,1,2
79,257,63847,1,0
79,257,63951,2,0,B|71:169,1,80,8|0
71,177,64264,1,0
71,177,64368,1,0
137,133,64576,1,0
137,133,64680,1,0
137,133,64785,2,0,B|193:95|238:105,1,80,8|0
290,102,65201,1,0
368,118,65409,1,0
368,118,65514,1,0
368,118,65618,2,0,B|384:166|409:212,1,80,8|0
398,191,66034,1,0
398,191,66451,1,0
256,272,66868,5,4
256,272,67076,1,0
176,192,67284,1,0
176,192,67493,1,0
256,112,67701,1,0
256,112,67909,1,0
336,192,68118,1,0
336,192,68326,1,0
432,328,68951,6,0,B|328:328,1,80
352,328,69264,2,0,B|280:328|208:328,1,120
152,328,69785,2,0,B|64:328,2,80,0|0|4
56,336,85201,6,0,B|120:336|160:312,1,80,0|2
160,320,85514,2,0,B|168:240|240:208,1,120
296,192,86035,2,0,B|384:192,1,80,0|2
400,192,86347,2,0,B|384:112|440:72,1,120
428,81,86764,1,0
428,81,86868,1,0
360,32,87076,1,2
360,32,87180,2,0,B|296:48|240:32,1,120
224,56,87597,1,0
208,80,87701,6,0,B|118:80,1,80,0|2
304,80,88118,2,0,B|394:80,1,80,0|2
456,104,88535,6,0,B|480:168|472:200,1,80,0|2
472,208,88847,2,0,B|416:216|392:264|408:304,1,120
328,328,89368,6,0,B|232:328,1,80,0|2
216,328,89680,2,0,B|216:264|168:216,1,120
171,219,90097,1,0
171,219,90201,1,0
88,208,90410,1,2
88,208,90514,2,0,B|80:120|96:64,1,120
104,64,90930,1,0
120,40,91035,6,0,B|208:40,1,80,0|2
392,40,91451,2,0,B|304:40,1,80,0|2
264,104,91868,5,0
320,160,92076,1,2
320,160,92180,2,0,B|344:232|304:288,1,120
232,288,92701,1,0
176,232,92910,1,2
176,232,93014,2,0,B|120:264|144:352,1,120
112,344,93430,1,0
80,344,93535,6,0,B|-6:315|-4:315,1,80,0|2
16,296,93847,2,0,B|24:232|2:165,1,120,0|0
5,177,94264,1,0
5,177,94368,1,0
96,144,94576,1,2
192,128,94785,1,0
288,144,94993,1,2
384,136,95201,6,0,B|392:208|456:256,2,120,2|2|0
304,192,96035,2,0,B|272:264|296:320|304:336,2,120,2|2|0
216,152,96868,2,0,B|160:192|144:272,2,120,2|2|0
160,72,97701,2,0,B|96:80|40:152,2,120,2|2|0
254,94,98535,6,0,B|342:94,1,80,4|2
302,166,98951,2,0,B|206:166,1,80,0|2
246,238,99368,2,0,B|342:238,1,80,0|2
302,310,99785,2,0,B|206:310,1,80,0|2
187,238,100201,2,0,B|283:238,1,80,0|2
294,166,100618,2,0,B|190:166,1,80,0|2
246,94,101035,2,0,B|350:94,2,80,0|2|0
166,102,101660,5,2
166,102,101764,1,0
166,102,101868,2,0,B|110:118|94:166,1,80,0|2
54,214,102285,1,0
126,254,102493,1,2
126,254,102597,1,0
126,254,102701,2,0,B|166:230|230:230,1,80,0|2
278,230,103118,1,0
350,262,103326,1,2
350,262,103430,1,0
350,262,103535,2,0,B|406:278|454:254,1,80,0|2
502,230,103951,1,0
464,152,104160,5,2
464,152,104264,1,0
464,152,104368,1,0
384,136,104576,1,2
304,144,104785,1,0
224,128,104993,1,2
144,136,105201,2,0,B|80:152|32:224,2,120,4|2|0
216,160,106035,2,0,B|280:176|344:112,2,120,2|2|0
168,224,106868,5,2
192,296,107076,1,0
120,336,107285,1,0
64,280,107493,2,0,B|32:200|80:96,1,160,2|2
136,80,108118,2,0,B|232:80,1,80,0|2
376,104,108535,6,0,B|288:104,1,80,4|0
136,144,108951,2,0,B|232:144,1,80
376,168,109368,2,0,B|264:168,1,80
136,208,109785,2,0,B|232:208,1,80
376,232,110201,5,2
376,232,110305,1,2
304,296,110514,1,2
304,296,110618,1,2
208,272,110826,1,0
184,176,111035,1,2
184,176,111139,1,2
256,112,111347,1,2
256,112,111451,1,2
352,136,111660,1,0
352,136,111868,6,0,B|280:200,1,80,4|2
272,256,112285,1,8
320,312,112493,1,2
320,312,112597,1,0
320,312,112701,2,0,B|376:304|416:320,1,80,0|2
456,264,113118,1,8
424,200,113326,1,2
424,200,113430,2,0,B|416:144|432:96,1,80,0|2
448,48,113847,1,0
448,48,113951,1,10
288,64,114160,5,0
288,64,114264,1,0
288,64,114368,2,0,B|248:80|176:72,1,80,0|0
128,64,114785,1,8
72,120,114993,1,0
72,120,115097,2,0,B|56:176|72:224,2,80,0|2|0
72,120,115618,1,10
224,144,115826,5,0
224,144,115930,1,0
224,144,116035,1,0
208,224,116243,1,0
240,296,116451,1,8
176,344,116660,1,0
176,344,116764,2,0,B|104:336|72:344,1,80,0|2
56,272,117180,1,0
56,272,117285,1,10
104,208,117493,5,2
176,184,117701,1,0
256,192,117910,1,2
336,176,118118,1,8
416,192,118326,1,2
448,264,118535,5,0
384,312,118743,1,0
384,312,118847,1,0
384,312,118951,2,0,B|320:320|288:344,1,80,8|0
307,332,119264,1,0
307,332,119368,1,0
240,288,119576,1,0
240,288,119680,1,0
240,288,119785,2,0,B|168:296|144:280,1,80,8|0
160,286,120097,1,0
160,286,120201,1,0
112,221,120410,1,0
112,221,120514,1,0
112,221,120618,2,0,B|57:217|17:229,1,80,8|0
32,225,120930,1,0
32,225,121035,5,0
40,144,121243,1,2
64,64,121451,2,0,B|112:64|160:40,1,80,8|2
224,48,121868,1,0
304,56,122076,2,0,B|360:48|392:56,1,80,2|8
464,48,122493,1,2
464,48,122597,1,0
464,48,122701,1,0
480,128,122910,1,2
456,200,123118,1,8
376,208,123326,1,2
296,184,123535,5,2
296,184,123639,1,2
224,144,123847,1,2
224,144,123951,1,2
154,183,124160,1,0
155,262,124368,1,2
155,262,124472,1,2
222,304,124680,1,2
222,304,124785,1,2
293,268,124993,1,0
296,184,125201,6,0,B|208:240,1,80,4|2
160,184,125618,1,8
160,104,125826,1,2
160,104,125930,1,0
160,104,126035,1,0
208,40,126243,2,0,B|264:48|320:32,1,80,2|8
368,32,126660,1,0
368,32,126764,2,0,B|416:24|456:40,2,80,0|2|0
368,32,127285,1,10
368,192,127493,5,0
368,192,127597,1,0
368,192,127701,1,0
288,208,127910,2,0,B|232:192|176:216,1,80,0|8
128,216,128326,1,0
128,216,128430,2,0,B|96:256|104:312,1,80,0|2
144,352,128847,1,0
144,352,128951,1,10
304,344,129160,5,0
304,344,129264,1,0
304,344,129368,1,0
384,328,129576,1,0
392,248,129785,2,0,B|416:192|448:176,1,80,8|0
456,168,130097,2,0,B|456:96|456:64,1,80,0|2
408,24,130514,1,0
408,24,130618,1,10
328,48,130826,5,2
184,48,131035,1,0
328,48,131243,1,2
184,48,131451,1,0
328,48,131660,1,2
184,48,131868,6,0,B|136:56|96:80,1,80,4|2
108,73,132180,1,0
108,73,132285,1,8
72,144,132493,1,0
72,144,132597,1,0
72,144,132701,2,0,B|72:197|64:235,1,80
66,223,133014,1,0
66,223,133118,1,8
136,264,133326,1,0
216,248,133535,1,0
296,272,133743,1,0
296,272,133847,1,0
296,272,133951,2,0,B|344:280|384:304,1,80,8|0
371,297,134368,1,0
371,297,134785,1,0
456,160,135201,5,4
392,128,135410,1,0
328,152,135618,1,0
256,160,135826,1,0
184,144,136035,1,0
112,144,136243,1,0
56,168,136451,1,0
56,168,136555,1,0
56,168,136660,1,0
56,168,136764,1,0
56,168,136868,1,4
80,328,137285,6,0,B|184:328,1,80
160,328,137598,2,0,B|232:328|304:328,1,120
360,328,138119,2,0,B|448:328,2,80,0|0|4
208,144,151868,5,4
304,144,153535,1,0
304,240,155201,1,0
208,240,156868,1,0
131,191,158535,5,0
257,65,160201,1,0
381,191,161868,1,0
258,318,163535,1,0
256,320,165201,6,0,B|64:320,1,160,0|0
136,168,166035,2,0,B|328:168,1,160,0|0
296,168,166868,1,0
400,240,167285,1,0
328,344,167701,1,0
224,272,168118,1,0
224,272,168535,6,0,B|136:112,1,160
296,64,169368,2,0,B|384:224,1,160,0|0
373,204,170201,1,0
272,280,170618,1,0
152,232,171035,1,0
40,168,171451,1,0
40,168,171868,6,2,B|144:24,1,160,2|2
264,128,172701,2,2,B|152:280,1,160,0|2
168,256,173535,1,2
288,288,173951,1,0
408,240,174368,1,0
424,112,174785,1,2
320,32,175201,6,2,B|120:32,1,160
176,192,176035,2,2,B|360:192,1,160,2|2
448,320,176868,1,2
320,320,177285,1,2
192,320,177701,1,2
64,320,178118,1,2
256,192,178535,12,4,181868
304,152,182076,6,0,B|384:192,1,80,0|8
456,240,182493,1,2
456,240,182598,1,0
456,240,182701,2,0,B|472:288|456:336,2,80,0|0|8
368,280,183327,1,0
368,280,183430,2,0,B|264:280,1,80,0|2
192,280,183848,1,0
192,280,183952,1,10
144,128,184160,5,0
144,128,184264,1,0
144,128,184368,1,0
224,80,184577,2,0,B|272:80|328:104,2,80,0|8|0
200,96,185097,2,0,B|208:147|208:192,1,80,0|2
216,272,185514,1,0
216,272,185618,1,10
64,224,185827,5,0
64,224,185931,1,0
64,224,186035,1,0
80,128,186243,2,0,B|96:32,1,80,0|8
184,40,186660,1,0
184,40,186764,2,0,B|224:32|288:48,2,80,0|2|0
184,40,187285,1,10
184,200,187493,6,0,B|184:296,1,80,2|0
328,200,187910,2,0,B|328:296,2,80,2|8|2
328,40,188535,5,0
416,64,188743,1,2
416,64,188848,1,0
416,64,188952,2,0,B|464:64|512:96,1,80,8|0
492,84,189264,1,0
492,84,189369,1,0
427,155,189577,1,0
427,155,189681,1,0
427,155,189785,2,0,B|379:155|331:187,1,80,8|0
350,175,190098,1,0
350,175,190202,1,0
411,248,190410,1,0
411,248,190514,1,0
411,248,190618,2,0,B|459:248|507:280,1,80,8|0
487,268,190931,1,0
487,268,191035,5,0
440,336,191243,2,0,B|344:336,1,80,2|8
264,312,191660,1,2
168,336,191868,2,0,B|72:288,1,80,0|2
64,208,192285,1,8
80,112,192493,1,2
80,112,192598,1,0
80,112,192702,1,0
176,128,192910,2,0,B|203:221,1,80,2|8
288,232,193327,1,2
376,200,193535,5,2
376,200,193639,1,0
376,200,193743,1,0
376,200,193847,1,0
376,200,193951,1,0
376,200,194055,2,0,B|456:232,1,80
480,224,194368,2,0,B|496:168|472:96,1,120,0|0
475,105,194785,1,0
475,105,194889,1,0
475,105,194993,1,0
475,105,195097,1,0
475,105,195201,6,0,B|393:70,1,80,4|2
304,80,195618,1,8
208,64,195826,1,2
208,64,195930,1,0
208,64,196035,1,0
208,64,196243,2,0,B|160:64|104:88,1,80,2|8
184,152,196660,1,0
184,152,196764,2,0,B|232:152|272:168,2,80,0|2|0
184,152,197285,1,10
136,304,197493,5,0
136,304,197597,1,0
136,304,197701,1,0
232,320,197910,2,0,B|264:336|328:328,1,80,0|8
408,320,198326,1,0
408,320,198430,2,0,B|424:280|424:224,1,80,0|2
424,144,198847,1,0
424,144,198951,1,10
264,120,199160,5,0
264,120,199264,1,0
264,120,199368,1,0
248,216,199576,1,0
176,280,199785,2,0,B|144:312|80:312,1,80,8|0
72,304,200097,2,0,B|48:256|48:200,1,80,0|2
48,128,200514,1,0
48,128,200618,1,10
184,48,200826,5,2
328,48,201035,1,0
184,48,201243,1,2
328,48,201451,1,0
184,48,201660,1,2
328,48,201868,6,0,B|376:56|416:80,1,80,4|2
403,73,202180,1,0
403,73,202285,1,8
320,159,202493,1,0
320,160,202597,1,0
320,160,202701,2,0,B|272:160|224:176,1,80,0|0
240,170,203014,1,0
240,170,203118,1,8
296,272,203326,2,0,B|248:288|184:288,1,80,0|0
96,272,203743,1,0
96,272,203847,1,0
96,272,203951,2,0,B|80:232|80:184,1,80,8|0
80,193,204368,5,0
432,193,204785,1,0
432,193,205201,5,4
376,224,205410,1,0
312,208,205618,1,0
248,192,205826,1,0
184,192,206035,1,0
120,200,206243,1,0
67,223,206451,1,0
67,223,206555,1,0
67,223,206660,1,0
67,223,206764,1,0
67,223,206868,1,4
256,192,207285,12,4,208535
