osu file format v9

[General]
AudioFilename: SW.mp3
AudioLeadIn: 2000
PreviewTime: 115273
Countdown: 0
SampleSet: Soft
StackLeniency: 0.7
Mode: 0
LetterboxInBreaks: 1

[Editor]
Bookmarks: 61376,113617,146170,177721,208737
DistanceSpacing: 1
BeatDivisor: 4
GridSize: 8

[Metadata]
Title:SW
Artist:Starving Trancer feat. MAYUMI MORINAGA
Creator:Nekoo[]
Version:Hard
Source:
Tags:wmfchris HakuNoKaemi EXIT TRANCE PRESENTS Umauma dekiru Trance wo Tsukuttemita 8

[Difficulty]
HPDrainRate:7
CircleSize:4
OverallDifficulty:7
ApproachRate:7
SliderMultiplier:1.8
SliderTickRate:1

[Events]
//Background and Video events
0,0,"BGomT.jpg"
//Break Periods
2,27279,30317
//Storyboard Layer 0 (Background)
//Storyboard Layer 1 (Fail)
//Storyboard Layer 2 (Pass)
//Storyboard Layer 3 (Foreground)
Sprite,Foreground,Centre,"Pulse.jpg",320,240 F,0,32047,32461,1,0 S,0,32047,32461,1,1.15 F,0,45288,45702,1,0 S,0,45288,45702,1,1.15 F,0,75081,75495,1,0 S,0,75081,75495,1,1.15 F,0,78392,78805,1,0 S,0,78392,78805,1,1.15 F,0,81702,82116,1,0 S,0,81702,82116,1,1.15 F,0,116461,116874,1,0 S,0,116461,116874,1,1.15 F,0,129702,130116,1,0 S,0,129702,130116,1,1.15 F,0,142943,143357,1,0 S,0,142943,143357,1,1.15 F,0,146254,146667,1,0 S,0,146254,146667,1,1.15 F,0,149564,149978,1,0 S,0,149564,149978,1,1.15 F,0,182667,183081,1,0 S,0,182667,183081,1,1.15 F,0,184323,184736,1,0 S,0,184323,184736,1,1.15 F,0,185978,186392,1,0 S,0,185978,186392,1,1.15 F,0,189288,189702,1,0 S,0,189288,189702,1,1.15 F,0,190943,191357,1,0 S,0,190943,191357,1,1.15 F,0,192599,193012,1,0 S,0,192599,193012,1,1.15 F,0,195909,196323,1,0 S,0,195909,196323,1,1.15 F,0,197564,197978,1,0 S,0,197564,197978,1,1.15 F,0,199219,199633,1,0 S,0,199219,199633,1,1.15 F,0,200874,201288,1,0 S,0,200874,201288,1,1.15 F,0,202530,202943,1,0 S,0,202530,202943,1,1.15 F,0,204185,204599,1,0 S,0,204185,204599,1,1.15 F,0,205840,206254,1,0 S,0,205840,206254,1,1.15
//Storyboard Sound Samples
//Background Colour Transformations
3,100,163,162,255

[TimingPoints]
597,413.793103448276,4,2,1,70,1,0
31116,-200,4,2,1,70,0,0
45288,-200,4,2,1,70,0,1
45340,-200,4,2,1,70,0,0
57411,-200,4,2,1,0,0,0
60101,-200,4,2,1,70,0,0
61530,-100,4,2,1,70,0,0
88239,-100,4,2,1,0,0,0
89273,-100,4,2,1,70,0,0
91963,-100,4,2,1,0,0,0
92170,-100,4,2,1,70,0,0
95273,-100,4,2,1,0,0,0
95480,-100,4,2,1,70,0,0
105618,-100,4,2,1,0,0,0
105825,-100,4,2,1,70,0,0
108514,-100,4,2,1,0,0,0
108721,-100,4,2,1,70,0,0
116461,-100,4,2,1,70,0,1
129288,-100,4,2,1,70,0,0
129702,-100,4,2,1,70,0,1
142943,-100,4,2,1,70,0,0
171618,-100,4,2,1,0,0,0
171825,-100,4,2,1,70,0,0
174702,-100,4,2,1,0,0,0
174909,-100,4,2,1,70,0,0
182667,-100,4,2,1,70,0,1
186514,-100,4,2,1,30,0,1
186721,-100,4,2,1,70,0,1
193135,-100,4,2,1,30,0,1
193342,-100,4,2,1,70,0,1
194254,-100,4,2,1,70,0,0
195909,-100,4,2,1,70,0,1
209150,-100,4,2,1,70,0,0

[Colours]
Combo1 : 255,255,255
Combo2 : 243,170,139

[HitObjects]
96,104,597,1,4
56,184,803,1,0
160,272,1114,1,2
184,288,1217,1,0
208,304,1321,1,2
232,320,1424,1,0
320,320,1631,1,0
432,240,1941,6,0,B|480:296,3,45,2|0|2|0
461,274,2459,1,0
376,168,2769,2,0,B|328:224,3,45,2|0|2|0
346,202,3286,1,0
240,112,3596,5,2
216,104,3700,1,0
192,96,3803,1,2
168,88,3907,1,0
80,64,4114,1,0
80,200,4424,1,2
80,224,4528,1,0
80,248,4631,1,2
80,272,4734,1,0
160,304,4941,1,0
296,304,5252,6,0,B|256:256,2,45,2|0|2
296,304,5562,1,0
384,272,5769,1,0
384,136,6079,2,0,B|344:184,2,45,0|2|0
384,136,6390,1,2
328,64,6596,1,0
192,64,6907,5,2
168,72,7010,1,0
144,80,7114,1,2
120,88,7217,1,0
32,120,7424,1,0
64,248,7734,1,2
72,272,7838,1,0
80,296,7941,1,2
88,320,8045,1,0
179,320,8252,1,0
296,256,8562,6,0,B|240:224,3,45,2|0|2|0
184,184,9079,1,0
296,104,9390,2,0,B|232:136,3,45,2|0|2|0
224,40,9907,1,0
360,40,10217,5,2
384,56,10321,1,0
408,72,10424,1,2
432,88,10528,1,0
432,176,10734,1,0
360,296,11045,1,2
336,296,11148,1,0
312,280,11252,1,2
288,264,11355,1,0
352,200,11562,1,0
216,200,11872,6,0,B|160:200,3,45,2|0|2|0
171,200,12390,1,0
96,312,12700,1,0
72,296,12803,1,2
48,280,12907,1,0
24,264,13010,1,2
24,176,13217,1,0
176,80,13631,1,0
256,112,13838,5,4
336,80,14045,2,0,B|400:56,2,45,2|0|2
336,168,14459,2,0,B|272:192,2,45,2|0|2
336,256,14872,2,0,B|400:280,2,45,0|0|2
176,336,15493,5,4
113,273,15700,1,2
94,254,15803,1,0
75,235,15907,1,2
139,172,16114,2,0,B|70:103,1,90,2|2
140,45,16528,1,0
160,65,16631,1,0
180,85,16734,1,2
336,48,17148,5,4
399,111,17355,1,2
418,130,17459,1,0
437,149,17562,1,2
373,212,17769,2,0,B|442:281,1,90,2|2
372,339,18183,1,0
352,319,18286,1,0
332,299,18390,1,2
256,272,18803,5,4
176,304,19010,2,0,B|112:328,2,45,2|0|2
176,216,19424,2,0,B|240:192,2,45,2|0|2
176,128,19838,2,0,B|112:104,2,45,0|0|2
350,174,20459,5,4
413,110,20665,2,0,B|447:79,2,45,2|0|2
476,173,21079,2,0,B|510:204,2,45,2|0|2
412,236,21493,2,0,B|381:270,2,45,0|0|2
256,328,22114,5,4
192,264,22321,1,2
172,244,22424,1,0
152,224,22528,1,2
88,160,22734,1,2
151,96,22941,1,2
214,159,23148,1,0
233,178,23252,1,0
252,197,23355,1,2
432,197,23769,5,4
80,197,25424,5,4
192,120,26252,5,4
256,56,26459,1,4
320,120,26665,1,4
256,184,26872,1,0
256,211,26976,1,0
256,237,27079,1,4
256,96,31217,5,2
344,96,31631,1,2
384,104,31838,1,0
424,128,32045,2,0,B|424:224,1,90,2|0
376,296,32872,6,0,B|280:296,1,90,2|0
248,320,33493,2,0,B|232:360|152:360|136:320,1,135,2|0
104,296,34321,5,2
72,264,34528,2,0,B|16:200,2,67.5,2|0|2
104,232,35355,2,0,B|104:128,1,90,2|0
136,112,35976,5,2
176,88,36183,2,0,B|256:88,1,67.5,2|0
243,88,36803,1,2
136,192,38665,6,0,B|168:272|336:272|360:192,1,270,0|2
312,160,40114,2,0,B|288:128|216:128|192:160,1,135,2|0
191,161,40941,5,2
146,161,41148,2,0,B|128:192|88:192|72:160,1,90,2|0
73,162,41769,1,2
200,289,42597,5,2
231,320,42803,2,0,B|295:320,1,45,2|0
307,288,43217,1,2
352,288,43424,2,0,B|416:272|418:175|352:152,1,180,2|0
351,151,44459,1,2
184,80,45286,6,0,B|152:96|120:48|80:80,1,90,0|0
33,134,46114,1,2
32,224,46528,1,2
32,224,46734,2,0,B|16:256|40:288|80:296,1,90,2|0
204,293,47769,2,0,B|204:373,2,67.5,0|2|2
339,293,49010,1,2
384,280,49217,1,0
424,264,49424,2,0,B|424:192,1,67.5,2|0
424,196,50045,1,2
424,196,50252,5,2
256,264,51079,1,2
40,56,51907,6,0,B|136:56|136:136|208:136,1,180,0|2
259,199,53148,1,2
290,230,53355,2,0,B|312:271|383:270|402:230,1,135,2|0
402,138,54390,5,2
338,74,54803,1,2
338,74,55010,1,2
158,74,55838,2,0,B|94:74,2,45,2|0|2
158,74,56459,1,2
158,74,56665,1,0
256,192,57493,8,0,59976
384,296,61631,5,0
400,272,61734,1,0
416,248,61838,2,0,B|494:129,2,135,6|2|0
360,176,62665,2,0,B|282:57,2,135,2|2|0
304,248,63493,2,0,B|160:248,2,135,2|2|0
304,248,64321,1,2
392,144,64631,1,2
280,48,64941,5,0
254,48,65045,1,0
227,48,65148,2,0,B|91:48,2,135,6|2|0
176,128,65976,2,0,B|48:200,2,135,2|2|0
184,216,66803,2,0,B|312:144,2,135,2|2|0
184,216,67631,1,2
184,351,67941,1,2
319,351,68252,5,0
344,336,68355,1,0
368,320,68459,2,0,B|496:248,2,135,6|2|0
368,232,69286,2,0,B|240:304,2,135,2|2|0
432,160,70114,2,0,B|392:136|336:136|304:160,2,135,2|2|0
424,152,70941,1,2
352,40,71252,1,2
218,40,71562,5,0
136,80,71769,2,0,B|8:152,2,135,2|2|0
136,80,72597,1,2
136,216,72907,1,2
256,151,73217,1,0
328,104,73424,5,0
352,112,73528,1,0
368,128,73631,1,0
384,152,73734,1,0
384,176,73838,1,0
368,200,73941,1,0
352,216,74045,1,0
328,224,74148,1,0
256,192,74252,8,6,75079
256,112,75390,5,2
336,224,75700,2,0,B|336:272|392:296,1,90,0|2
256,256,76217,1,2
176,152,76528,2,0,B|128:152|104:96,1,90,0|2
107,102,77045,1,2
107,237,77355,2,0,B|107:349,1,90,0|2
107,327,77872,1,2
241,327,78183,6,0,B|361:327,1,90,0|6
394,263,78597,1,0
413,243,78700,1,2
413,107,79010,1,0
413,107,79217,1,2
323,107,79424,1,0
303,126,79528,1,2
168,126,79838,1,0
168,126,80045,1,2
104,189,80252,1,0
84,208,80355,1,2
179,303,80665,2,0,B|263:223,1,90,0|2
334,240,81079,1,0
353,259,81183,1,2
257,163,81493,5,0
237,143,81597,1,0
217,123,81700,2,0,B|152:112|200:32|124:35,2,135,6|2|0
307,123,82528,2,0,B|372:112|324:32|400:35,2,135,2|2|0
307,123,83355,1,2
402,218,83665,1,2
306,313,83976,1,0
306,313,84183,2,0,B|280:344|208:344|184:312,2,135,2|2|0
248,248,85010,5,4
160,240,85217,1,0
96,176,85424,1,0
56,96,85631,1,0
184,152,85838,5,4
272,144,86045,1,0
352,176,86252,1,0
392,256,86459,1,0
448,184,86665,5,4
352,88,86976,1,4
448,184,87286,1,0
448,184,87493,1,4
352,88,87803,1,4
256,184,88114,1,4
256,192,88321,8,0,89148
256,128,89355,5,2
176,88,89562,1,0
88,112,89769,1,2
88,202,89976,2,0,B|128:272|40:296|88:378,1,180,6|0
175,373,90597,2,0,B|384:408|496:352|520:104|312:16,1,630,2|0
296,288,92665,5,2
359,224,92872,1,0
295,160,93079,1,2
231,223,93286,1,2
135,318,93597,1,2
135,318,93907,2,0,B|8:288|8:288|136:240|136:240|8:184|8:184|8:88|8:88|136:144,1,630,2|0
256,264,95769,5,2
424,208,96183,1,2
344,48,96597,2,0,B|336:96|280:120|216:72,1,135,2|0
104,64,97217,2,0,B|80:136|136:192|200:184,1,180,2|0
352,272,98045,5,2
288,335,98252,2,0,B|262:366|190:366|166:334,2,135,0|2|2
160,207,99286,1,2
96,272,99493,1,2
96,272,99700,1,0
96,272,99907,2,0,B|0:248|0:88|104:72,1,270,2|0
102,72,100734,1,2
344,72,101562,5,0
344,72,101665,1,2
407,135,101872,1,2
407,269,102183,1,2
384,288,102286,1,0
360,296,102390,1,2
336,288,102493,1,0
312,272,102597,1,2
288,256,102700,1,2
265,237,102803,1,2
241,229,102907,1,2
217,237,103010,1,0
193,253,103114,1,0
168,272,103217,5,6
56,192,103528,1,2
128,80,103838,2,0,B|192:80|192:80|232:152|232:152|320:152|320:152|264:32|264:32|448:32|448:32|488:112|488:112|389:112|389:112|432:184,1,810,2|0
426,264,105907,5,2
426,264,106114,1,2
368,336,106321,1,0
368,336,106528,2,0,B|232:336,1,135,2|0
96,336,107148,2,0,B|-32:216|40:24|288:-64|400:120,1,630,2|0
397,296,109010,5,2
256,184,109424,1,2
120,304,109838,2,0,B|-8:200,2,135,4|2|2
368,32,111493,2,0,B|496:136,2,135,4|2|2
136,128,113148,6,0,B|8:24,2,135,4|2|2
226,128,113976,2,0,B|354:232,2,135,4|2|2
181,206,114803,1,2
200,224,114907,1,0
216,240,115010,1,2
232,256,115114,1,0
248,272,115217,1,2
264,288,115321,1,0
283,306,115424,1,2
299,322,115528,1,0
315,338,115631,5,6
440,304,115838,1,0
496,192,116045,1,4
440,80,116252,1,0
312,56,116459,1,4
104,192,116872,1,0
24,32,117286,5,2
88,88,117493,1,2
88,88,117700,1,0
176,88,117907,2,0,B|168:168|224:208|320:192,1,180,2|0
414,323,118734,5,2
323,323,118941,2,0,B|179:323,2,135,2|2|0
323,323,119769,1,2
195,195,120183,1,2
120,248,120390,1,0
48,192,120597,2,0,B|48:40,2,135,2|2|0
48,192,121424,5,2
72,328,121734,1,2
208,320,122045,1,0
208,320,122252,1,2
192,184,122562,1,2
48,192,122872,1,0
56,56,123079,6,0,B|112:136|112:136|176:104|176:104|128:32|128:32|216:32|216:32|272:120|272:120|368:120|368:120,1,540,2|0
416,48,124528,2,0,B|472:80|472:168|416:200,1,180,2|0
290,326,125355,5,2
290,326,125562,2,0,B|104:328,1,180,2|0
46,263,126183,2,0,B|46:71,1,180,2|0
224,40,127010,5,2
296,96,127217,1,2
296,96,127424,1,0
384,96,127631,1,2
384,96,127838,2,0,B|464:160|472:320|344:368|248:336,1,360,2|0
192,343,128872,2,0,B|128:311|96:383|16:335,1,180,2|0
128,192,129700,5,4
256,64,130114,1,0
384,192,130528,2,0,B|416:256|376:328|272:304,1,180,2|0
224,256,131148,2,0,B|192:192|232:120|336:144,1,180,2|0
48,56,132183,6,0,B|48:208,2,135,2|2|0
320,56,133424,1,2
400,88,133631,1,0
456,160,133838,2,0,B|496:208|424:240|472:304,1,135,2|0
462,288,134459,1,0
408,360,134665,5,2
296,288,134976,1,2
184,360,135286,1,0
184,360,135493,1,2
184,224,135803,1,2
32,200,136114,1,0
32,200,136321,6,0,B|-24:80|136:-48|256:96,1,360,2|0
426,84,137562,1,2
426,84,137769,2,0,B|426:266,1,180,2|0
256,352,138803,5,2
88,296,139217,1,2
88,296,139424,2,0,B|24:264|24:192|96:160,1,180,2|0
256,72,140252,5,2
312,144,140459,1,2
384,88,140665,1,0
384,88,140872,1,2
256,192,141079,8,4,142941
256,160,143252,5,2
256,296,143562,1,0
192,232,143769,2,0,B|98:338,2,135,2|2|0
128,168,144597,2,0,B|34:62,2,135,2|2|0
191,104,145424,2,0,B|285:-2,2,135,2|2|0
216,192,146252,6,0,B|310:298,2,135,6|2|0
288,136,147079,2,0,B|448:136,2,135,2|2|0
288,136,147907,1,2
192,48,148217,1,2
88,136,148528,1,0
88,136,148734,1,2
200,208,149045,1,2
312,264,149355,5,0
336,280,149459,1,0
360,296,149562,2,0,B|480:376,2,135,6|2|0
360,208,150390,2,0,B|360:64,2,135,2|2|0
272,240,151217,2,0,B|152:160,2,135,2|2|0
272,240,152045,1,2
272,104,152355,1,2
152,40,152665,1,0
64,72,152872,5,4
24,152,153079,1,0
48,240,153286,1,0
104,312,153493,1,0
112,176,153700,5,4
192,224,153907,1,0
280,224,154114,1,0
352,176,154321,1,0
280,224,154528,5,4
416,240,154838,1,4
400,104,155148,1,0
400,104,155355,1,4
400,104,155562,5,2
328,48,155769,1,2
256,104,155976,1,0
256,104,156183,2,0,B|136:24,2,135,6|2|2
48,192,158872,5,2
32,280,159079,1,2
104,336,159286,1,0
104,336,159493,2,0,B|248:336,2,135,2|2|2
256,40,161976,5,2
416,120,162390,1,2
416,304,162803,1,2
320,208,163114,1,2
224,304,163424,2,0,B|24:304,1,180,2|0
36,115,164252,5,2
104,56,164459,2,0,B|160:16|200:80|264:40,2,135,2|2|0
256,152,165493,5,2
328,96,165700,1,2
328,96,165907,1,0
400,152,166114,1,2
144,240,166734,1,0
144,240,166941,1,2
456,272,167769,5,0
456,272,167872,1,2
392,336,168079,1,2
392,208,168390,1,2
408,184,168493,1,0
416,160,168596,1,2
416,136,168700,1,0
408,112,168803,1,2
392,88,168907,1,2
368,72,169010,1,2
344,64,169114,1,2
320,64,169217,1,0
296,72,169321,1,0
272,88,169424,5,6
176,184,169734,1,2
136,56,170045,2,0,B|-8:104|-8:104|-8:232|-8:232|88:208|88:208|88:328|88:328|216:296|216:296|216:368|216:368|240:360,1,720,2|0
396,338,172114,5,2
396,338,172321,1,2
456,272,172528,1,0
456,184,172734,1,2
384,72,173045,1,2
248,72,173355,2,0,B|168:144|168:144|112:96|112:96|184:24|184:24|16:24|16:24|-24:88|-24:88|72:176,1,630,2|0
179,285,175217,5,2
344,360,175631,1,2
416,192,176045,2,0,B|464:184|488:144|488:88,2,135,4|2|2
80,56,177493,1,0
80,56,177700,2,0,B|32:64|8:104|8:160,2,135,4|2|2
256,40,178734,5,2
256,40,178941,1,2
344,32,179148,1,0
344,32,179355,2,0,B|344:112|288:144|208:120,1,180,4|0
256,304,180183,1,4
256,304,180596,1,0
72,280,181010,5,2
96,272,181114,1,0
120,256,181217,1,2
136,232,181321,1,0
144,208,181424,1,2
136,184,181528,1,0
120,160,181631,1,2
96,144,181734,1,0
72,136,181838,5,0
256,32,182252,1,0
440,136,182665,1,6
440,248,183493,5,0
256,352,183907,1,0
72,248,184321,1,4
256,264,185148,6,0,B|296:200|216:152|264:72,2,180,0|0|4
256,264,186596,1,0
24,128,188459,6,0,B|96:136|144:80|112:8,2,180,0|0|4
488,256,190114,6,0,B|424:240|368:304|400:376,2,180,0|0|4
160,184,191769,5,0
304,288,192183,1,0
328,112,192596,1,4
264,192,193217,1,0
104,112,194252,5,2
84,131,194355,1,0
64,150,194459,1,2
44,169,194562,1,0
24,188,194665,1,0
43,207,194769,1,0
62,226,194872,1,0
81,245,194976,1,0
100,264,195079,5,4
184,336,195493,2,0,B|272:280|304:384|376:320,1,180,0|4
412,120,196734,5,0
328,48,197148,2,0,B|240:104|208:0|136:64,1,180,0|4
296,224,198390,5,0
256,152,198803,1,0
216,224,199217,1,4
24,120,200045,6,0,B|88:160|88:224|24:264,2,180,0|0|4
328,32,201700,6,0,B|288:96|224:96|184:32,2,180,0|0|4
488,264,203355,6,0,B|424:224|424:160|488:120,2,180,0|0|4
184,352,205010,6,0,B|224:288|288:288|328:352,2,180,0|0|4
256,152,206665,5,4
152,152,207493,5,4
168,64,207700,1,0
256,32,207907,1,4
344,64,208114,1,0
360,152,208321,5,4
368,176,208424,1,0
368,200,208528,1,4
360,224,208631,1,0
344,248,208734,1,4
320,264,208838,1,0
296,272,208941,1,0
272,272,209045,1,0
248,264,209148,1,4
