osu file format v9

[General]
AudioFilename: SW.mp3
AudioLeadIn: 2000
PreviewTime: 115273
Countdown: 0
SampleSet: Soft
StackLeniency: 0.7
Mode: 0
LetterboxInBreaks: 1

[Editor]
Bookmarks: 61376,113617,146170,177721,208737
DistanceSpacing: 0.8
BeatDivisor: 4
GridSize: 8

[Metadata]
Title:SW
Artist:Starving Trancer feat. MAYUMI MORINAGA
Creator:Nekoo[]
Version:Easy
Source:
Tags:wmfchris HakuNoKaemi EXIT TRANCE PRESENTS Umauma dekiru Trance wo Tsukuttemita 8

[Difficulty]
HPDrainRate:2
CircleSize:3
OverallDifficulty:3
ApproachRate:3
SliderMultiplier:1
SliderTickRate:1

[Events]
//Background and Video events
0,0,"BGomT.jpg"
//Break Periods
2,27279,29777
2,143141,154329
//Storyboard Layer 0 (Background)
//Storyboard Layer 1 (Fail)
//Storyboard Layer 2 (Pass)
//Storyboard Layer 3 (Foreground)
Sprite,Foreground,Centre,"Pulse.jpg",320,240 F,0,32047,32461,1,0 S,0,32047,32461,1,1.15 F,0,45288,45702,1,0 S,0,45288,45702,1,1.15 F,0,75081,75495,1,0 S,0,75081,75495,1,1.15 F,0,78392,78805,1,0 S,0,78392,78805,1,1.15 F,0,81702,82116,1,0 S,0,81702,82116,1,1.15 F,0,116461,116874,1,0 S,0,116461,116874,1,1.15 F,0,129702,130116,1,0 S,0,129702,130116,1,1.15 F,0,182667,183081,1,0 S,0,182667,183081,1,1.15 F,0,184323,184736,1,0 S,0,184323,184736,1,1.15 F,0,185978,186392,1,0 S,0,185978,186392,1,1.15 F,0,189288,189702,1,0 S,0,189288,189702,1,1.15 F,0,190943,191357,1,0 S,0,190943,191357,1,1.15 F,0,192599,193012,1,0 S,0,192599,193012,1,1.15 F,0,195909,196323,1,0 S,0,195909,196323,1,1.15 F,0,197564,197978,1,0 S,0,197564,197978,1,1.15 F,0,199219,199633,1,0 S,0,199219,199633,1,1.15 F,0,200874,201288,1,0 S,0,200874,201288,1,1.15 F,0,202530,202943,1,0 S,0,202530,202943,1,1.15 F,0,204185,204599,1,0 S,0,204185,204599,1,1.15 F,0,205840,206254,1,0 S,0,205840,206254,1,1.15
//Storyboard Sound Samples
//Background Colour Transformations
3,100,163,162,255

[TimingPoints]
597,413.793103448276,4,2,1,70,1,0
45288,-100,4,2,1,70,0,1
45340,-100,4,2,1,70,0,0
57411,-100,4,2,1,0,0,0
60101,-100,4,2,1,70,0,0
91963,-100,4,2,1,0,0,0
92170,-100,4,2,1,70,0,0
95273,-100,4,2,1,0,0,0
95480,-100,4,2,1,70,0,0
105618,-100,4,2,1,0,0,0
105825,-100,4,2,1,70,0,0
108514,-100,4,2,1,0,0,0
108721,-100,4,2,1,70,0,0
116461,-100,4,2,1,70,0,1
129288,-100,4,2,1,70,0,0
129702,-100,4,2,1,70,0,1
142943,-100,4,2,1,70,0,0
171618,-100,4,2,1,0,0,0
171825,-100,4,2,1,70,0,0
174702,-100,4,2,1,0,0,0
174909,-100,4,2,1,70,0,0
182667,-100,4,2,1,70,0,1
194254,-100,4,2,1,70,0,0
195909,-100,4,2,1,70,0,1
209150,-100,4,2,1,70,0,0

[Colours]
Combo1 : 255,255,255
Combo2 : 243,170,139

[HitObjects]
240,56,597,1,4
352,176,1424,1,2
240,288,2252,1,0
128,176,3079,1,2
248,72,3907,6,0,B|312:120|376:120|432:72,1,200,0|2
430,232,5562,2,0,B|366:184|302:184|246:232,1,200,0|2
88,192,7217,5,0
232,264,8045,2,0,B|264:304|264:304|288:304|288:304|312:312|312:312|336:304|336:304|360:304|360:304|392:264,1,200,2|0
312,128,9700,1,2
176,208,10528,2,0,B|136:176|136:176|136:152|136:152|128:128|128:128|136:104|136:104|136:80|136:80|176:48,1,200,0|2
312,128,12183,5,0
424,248,13010,1,2
304,352,13838,5,4
224,336,14252,1,2
184,264,14665,1,0
104,240,15079,1,2
56,176,15493,6,0,B|32:152|32:112|56:80,1,100,4|2
120,128,16321,2,0,B|144:152|184:152|216:128,1,100,0|2
168,64,17148,5,4
248,56,17562,2,0,B|352:48,1,100,2|0
424,64,18390,1,2
472,128,18803,5,4
440,200,19217,1,2
464,280,19631,2,0,B|400:296|376:248,1,100,0|2
297,250,20459,6,0,B|274:295|210:279,2,100,4|2|0
232,200,21700,1,2
151,200,22114,6,0,B|151:96,1,100,4|2
207,43,22941,2,0,B|231:67|231:67|303:67,1,100,0|2
368,96,23769,5,4
120,304,25424,5,4
184,160,26252,5,4
256,200,26665,1,4
328,160,27079,1,4
256,80,31217,5,0
320,128,31631,2,0,B|416:200,1,100,2|0
240,176,32872,6,0,B|368:272,1,150,2|0
200,256,34321,2,0,B|88:208|88:120|200:88,1,250,0|2
272,56,35769,5,0
344,88,36183,2,0,B|488:152,1,150,2|2
176,336,38665,6,0,B|304:280|40:136|176:32,1,350,2|2
334,32,40941,2,0,B|326:104|398:160|486:112,1,200,2|0
424,272,42597,6,0,B|336:408|160:408|40:272,1,450,2|0
128,144,45286,6,0,B|208:56,1,100,0|2
248,128,46114,2,0,B|360:232,1,150,0|2
146,241,47769,6,0,B|146:329,2,75,2|2|0
146,121,49010,2,0,B|240:168|328:152|376:64,1,250,2|0
88,304,51907,6,0,B|168:216|328:368|432:288,1,350,2|0
456,96,54390,6,0,B|456:160|400:184|344:152,1,150,2|0
200,216,55838,2,0,B|112:208|112:96|200:88,1,200
256,192,57493,12,0,59976
40,240,61838,6,0,B|40:328|120:352|184:296,1,200,4|2
339,299,63493,2,0,B|398:351|478:327|478:231,1,200,0|2
368,128,65148,5,4
224,56,65976,1,2
152,200,66803,1,4
288,280,67631,1,2
128,280,68459,6,0,B|72:240|72:240|72:96,1,200,4|2
224,56,70114,2,0,B|264:112|264:112|408:112,1,200,0|2
395,272,71769,5,0
256,344,72597,1,2
256,192,73424,12,4,75079
112,192,76734,6,0,B|184:192|184:192|208:152|168:104|168:104|168:64,2,200,0|2|4
112,352,79217,2,0,B|144:304|144:304|296:304,2,200,2|0|2
24,216,81700,6,0,B|64:168|64:168|144:168|144:168|176:120,1,200,4|2
336,120,83355,2,0,B|367:167|367:167|447:167|447:167|487:215,1,200,0|2
256,192,85010,12,0,88321
256,72,89562,5,2
320,120,89976,1,4
400,104,90390,2,0,B|512:256|384:384|224:296,1,400,2|0
88,232,92872,5,2
56,160,93286,1,0
136,168,93700,2,0,B|256:168|256:168|352:32|352:32|472:32,1,400,2|0
465,112,95769,5,2
416,176,96183,1,0
496,192,96597,2,0,B|528:248|512:304|432:312,1,150,2|0
252,308,98252,6,0,B|164:308,2,75,2|2|0
320,264,99286,2,0,B|368:232,1,50,0|2
424,288,99907,2,0,B|472:232|432:144|344:152,1,200,2|0
189,151,101562,6,0,B|181:207|117:215,1,100
64,160,102390,2,0,B|72:104|136:96,1,100,0|2
208,64,103217,5,4
280,32,103631,2,0,B|520:16|576:264|368:344,1,500,2|0
312,296,106114,5,2
240,336,106528,1,0
160,320,106941,2,0,B|64:320|64:320|64:216|64:216|152:216|152:96|56:96,1,400,2|0
96,24,109010,5,2
176,40,109424,1,2
256,56,109838,2,0,B|344:72,2,75,4|2|2
256,256,111493,2,0,B|256:352,2,75,4|2|2
392,112,113148,5,4
392,272,113976,1,4
256,192,114803,1,4
104,248,115631,5,4
48,192,116045,1,4
128,168,116459,1,4
280,128,117286,2,0,B|432:80,1,150,2|0
472,280,118941,6,0,B|456:352|368:368|312:296,1,200,2|2
392,264,120183,1,0
320,224,120597,2,0,B|264:168|192:216|184:144,1,150,2|0
104,80,123079,6,0,B|0:200|88:336|224:320,1,350,2|0
368,192,125562,2,0,B|208:192,1,150,2|0
368,56,127217,5,2
432,104,127631,2,0,B|464:160|456:256|376:272,1,200,2|0
352,192,128872,2,0,B|328:144|264:160,1,100,2|0
288,240,129700,5,4
160,336,130528,2,0,B|104:344|48:304|64:232,1,150,2|0
61,51,132183,6,0,B|61:131,2,75,2|2|0
168,112,133424,1,0
248,96,133838,2,0,B|416:64,1,150,2|0
64,200,136321,6,0,B|40:288|104:336|168:328,1,200,2|0
248,327,137562,2,0,B|312:335|376:287|352:199,1,200,2|0
320,128,138803,5,2
248,96,139217,2,0,B|200:80,1,50,0|2
256,192,140252,12,4,142941
256,64,155769,5,2
280,144,156183,1,4
336,88,156597,2,0,B|384:48,1,50,0|2
40,336,159079,5,2
120,320,159493,1,0
72,256,159907,2,0,B|40:208,1,50,0|2
368,56,161976,6,0,B|384:112|456:112,1,100,2|0
488,176,162803,2,0,B|496:240|464:280|408:288,1,150,2|0
213,287,164459,6,0,B|125:287,2,75,2|2|0
213,166,165700,2,0,B|213:46,1,100,2|0
373,66,166941,1,2
456,200,167769,6,0,B|392:288,1,100
328,240,168596,2,0,B|392:152,1,100,0|2
320,112,169424,5,4
240,120,169838,2,0,B|312:320|56:400|0:200,1,450,2|0
1,83,172321,5,2
64,136,172734,1,0
88,56,173148,2,0,B|200:56|200:56|280:136|352:56|352:56|464:56,1,400,2|0
464,136,175217,5,2
464,216,175631,1,0
408,272,176045,2,0,B|352:320,2,75,4|2|2
207,272,177700,2,0,B|263:224,2,75,4|2|2
112,200,178941,5,2
112,120,179355,1,4
256,48,180183,1,4
400,120,181010,1,0
256,184,181838,5,0
216,256,182252,1,0
296,256,182665,1,4
408,144,183493,5,0
480,104,183907,1,0
416,56,184321,1,4
256,56,185148,5,0
192,104,185562,1,0
264,144,185976,1,4
56,192,188459,6,0,B|32:272|96:336|184:312,1,200,0|4
288,216,190114,6,0,B|312:136|248:72|160:96,1,200,0|4
128,240,191769,5,0
208,240,192183,1,0
168,168,192596,1,4
256,192,194252,12,4,195907
256,48,196734,5,0
216,120,197148,1,0
296,120,197562,1,4
440,192,198390,5,0
368,152,198803,1,0
368,232,199217,1,4
256,352,200045,5,0
296,280,200459,1,0
216,280,200872,1,4
88,192,201700,5,0
160,232,202114,1,0
160,152,202528,1,4
312,96,203355,6,0,B|416:64,2,100,0|0|4
312,256,205010,6,0,B|208:224,2,100,0|0|4
464,304,206665,1,4
256,192,207493,12,4,209148
