osu file format v9

[General]
AudioFilename: Starving Trancer feat. MAKI - only my railgun.mp3
AudioLeadIn: 0
PreviewTime: 27065
Countdown: 0
SampleSet: Soft
StackLeniency: 0.7
Mode: 0
LetterboxInBreaks: 0

[Editor]
Bookmarks: 27690,47690,74357,76024,107690,109357,122690,137690,169357,187690,217690,224357,256024
DistanceSpacing: 1
BeatDivisor: 4
GridSize: 8

[Metadata]
Title:only my railgun
Artist:Starving Trancer feat. MAKI
Creator:Leorda
Version:Normal
Source:To Aru Kagaku no Railgun
Tags:fripside misaka mikoto kuroko shirai saten ruiko kazari uiharu exit trance present speed opening remix

[Difficulty]
HPDrainRate:3
CircleSize:3
OverallDifficulty:2
ApproachRate:4
SliderMultiplier:1.2
SliderTickRate:2

[Events]
//Background and Video events
0,0,"To Aru.jpg"
//Break Periods
2,47890,53037
2,109557,114704
2,169557,186370
//Storyboard Layer 0 (Background)
//Storyboard Layer 1 (Fail)
//Storyboard Layer 2 (Pass)
//Storyboard Layer 3 (Foreground)
//Storyboard Sound Samples
//Background Colour Transformations
3,100,163,162,255

[TimingPoints]
1024,416.666666666667,4,1,0,75,1,0
27690,-100,4,1,0,75,0,1
47690,-100,4,2,0,100,0,0
76024,-100,4,1,0,75,0,1
107690,-100,4,2,0,100,0,0
137690,-100,4,1,0,75,0,1
169357,-100,4,2,0,100,0,0
191024,-133.333333333333,4,2,0,80,0,0
217690,-100,4,2,0,100,0,0
224357,-100,4,1,0,75,0,1
257690,-100,4,2,0,100,0,0

[Colours]
Combo1 : 255,149,149
Combo2 : 255,202,149
Combo3 : 149,186,255

[HitObjects]
96,192,27065,2,0,B|24:192,2,60
160,192,27690,1,4
272,192,28107,1,8
216,104,28524,1,0
160,192,28940,1,8
216,288,29357,2,0,B|216:360,2,60,0|0|8
328,288,30190,2,0,B|384:240|368:160,1,120,0|8
368,72,31024,5,0
272,128,31440,1,8
176,72,31857,1,0
272,128,32274,1,8
272,232,32690,2,0,B|272:328,2,90
360,168,33732,1,0
416,160,33940,1,8
456,200,34149,1,0
448,256,34357,6,0,B|440:304|400:328|352:320,1,120,4|8
256,320,35190,2,0,B|217:326|177:302|169:254,1,120,0|8
168,144,36024,1,0
72,200,36440,1,8
168,144,36857,2,0,B|168:64,2,60,0|0|8
264,200,37690,6,0,B|384:200|384:272|496:272,2,240,4|8|0
152,200,39774,1,8
208,104,40190,1,0
264,200,40607,1,8
208,288,41024,6,0,B|144:312|72:288|32:216|64:152,2,240,4|8|4
304,232,43107,1,8
400,288,43524,1,4
304,344,43940,1,8
304,232,44357,6,0,B|304:168,2,60,4|0|8
192,232,45190,2,0,B|192:168,2,60,4|0|8
256,192,46024,12,4,47690
80,56,54357,6,0,B|80:184,1,120,4|8
184,176,55190,1,0
200,224,55399,1,0
184,272,55607,1,8
264,344,56024,2,0,B|400:344,1,120,0|8
464,272,56857,2,0,B|448:248|384:248,2,60,0|0|8
480,168,57690,5,4
440,72,58107,1,8
336,112,58524,1,0
384,208,58940,1,8
256,192,59357,12,4,61024
80,64,61857,5,8
80,280,62690,1,0
264,168,63524,1,0
320,168,63732,1,0
371,168,63940,1,8
320,264,64357,6,0,B|384:288|456:264|488:200|480:136,1,240
408,64,65607,1,8
296,64,66024,2,0,B|248:64|248:120|176:120,2,120,0|8|0
408,64,67274,1,8
352,160,67690,6,0,B|352:264,2,90,4|0|0
240,160,68732,1,0
232,216,68940,1,8
192,256,69149,1,0
136,248,69357,2,0,B|80:248|80:296|16:296,2,120,0|8|0
168,352,70607,1,8
272,312,71024,6,0,B|400:312,1,120,4|8
464,232,71857,2,8,B|464:104,2,120,0|8|4
368,184,73107,1,8
264,224,73524,2,0,B|200:224,2,60,0|0|8
368,184,74357,6,4,B|368:80,2,90
368,296,75399,2,0,B|368:368,2,60,0|8|0
312,296,76024,5,4
96,296,76857,1,8
96,80,77690,1,0
312,80,78524,1,0
368,80,78732,1,0
424,80,78940,1,8
360,176,79357,6,0,B|296:200|216:176|184:104|208:32,2,240,0|8|0
416,80,81440,1,8
512,136,81857,1,0
512,192,82065,1,0
496,240,82274,1,8
400,296,82690,6,0,B|272:296|272:296|272:304|272:304|152:304,2,240,4|8|0
472,208,84774,1,8
472,104,85190,2,0,B|472:20,2,60,0|0|8
376,160,86024,6,0,B|272:120|272:224|144:168,1,240,4|0
208,80,87274,1,8
312,56,87690,2,0,B|360:32|416:64,2,90,4|0|0
352,152,88732,2,0,B|352:352,1,180,0|4
256,336,89774,5,8
148,336,90190,1,0
96,312,90399,1,0
72,264,90607,1,8
72,152,91024,2,0,B|72:104|128:104|128:40,1,120,0|8
235,49,91857,2,0,B|234:103|290:103|290:151,1,120,0|8
296,264,92690,6,0,B|312:336|400:336,2,120,0|8|0
400,232,93940,1,8
320,160,94357,2,0,B|240:152|168:232|208:336,2,240,0|8|4
416,112,96440,5,8
320,72,96857,2,0,B|240:72|184:120,1,120,0|8
144,192,97690,2,0,B|104:248|32:256,1,120,0|8
48,144,98524,2,0,B|48:72,2,60,0|0|8
144,88,99357,6,0,B|208:88|256:128|272:200|216:272,1,240
152,344,100607,1,8
264,344,101024,2,0,B|368:344|368:256|504:256,2,240,0|0|4
200,256,103107,5,8
253,160,103524,1,0
149,160,103940,1,8
197,64,104357,1,4
305,64,104774,1,8
357,56,104982,1,0
413,64,105190,2,0,B|493:64,2,60,4|0|8
357,152,106024,6,0,B|357:352,2,180,4|0|8
256,192,107690,12,4,109357
104,192,116024,5,4
160,96,116440,1,8
208,192,116857,1,0
160,288,117274,1,8
208,192,117690,2,0,B|352:192,1,120,0|8
440,192,118524,2,0,B|424:144|400:136,2,60,0|0|8
384,288,119357,5,4
288,336,119774,1,8
192,288,120190,2,0,B|128:288,2,60,0|0|8
256,192,121024,12,4,122690
448,56,123524,5,8
448,271,124357,1,0
264,160,125190,1,8
208,160,125399,1,0
155,160,125607,1,8
96,248,126024,6,0,B|96:312|168:344,1,120,0|8
216,248,126857,2,0,B|336:248,1,120,0|8
444,248,127690,2,0,B|492:224|492:152,2,90,0|8|0
392,232,128524,2,0,B|392:104,1,120,0|8
304,56,129357,5,4
192,56,129774,1,8
144,152,130190,1,0
256,152,130607,1,8
200,240,131024,2,0,B|200:360,2,120,0|8|0
200,131,132274,1,8
296,80,132690,6,0,B|424:80,1,120,4|8
464,176,133524,2,0,B|336:176,1,120,0|8
296,272,134357,1,4
185,272,134774,1,8
128,272,134982,1,0
80,272,135190,2,0,B|16:272,2,60,0|0|8
104,168,136024,6,4,B|104:56,2,90
208,168,137065,2,0,B|288:168,1,60,0|8
376,168,137690,5,4
256,344,138524,1,8
128,168,139357,1,0
256,344,140190,1,8
256,235,140607,1,8
256,128,141024,6,0,B|256:8,2,120,0|8|0
368,128,142274,1,8
472,128,142690,2,0,B|472:72|416:40,2,90
416,224,143732,2,0,B|416:304,2,60,0|8|0
416,168,144357,5,4
200,168,145190,1,8
304,352,146024,1,0
304,248,146440,1,8
304,136,146857,2,0,B|280:80|336:80|304:16,1,120,0|8
208,64,147690,6,0,B|72:64,2,120,4|8|0
208,64,148940,1,8
176,168,149357,2,0,B|272:168,2,90,4|0|0
104,232,150399,1,0
112,288,150607,1,0
152,320,150815,1,0
208,320,151024,6,0,B|272:320|272:360|336:360,1,120,4|8
328,248,151857,2,0,B|448:248,1,120,0|8
472,200,152482,1,0
448,152,152690,2,0,B|328:152,1,120,0|8
232,200,153524,2,0,B|160:200,2,60,0|0|8
272,232,154149,1,0
328,248,154357,6,0,B|376:304|320:368,1,120,0|8
224,344,155190,2,0,B|96:344,1,120,0|8
64,304,155815,1,0
64,248,156024,2,0,B|64:152,2,90,0|8|0
160,208,157065,2,0,B|240:208,2,60,0|8|0
160,152,157690,5,4
216,56,158107,1,8
328,56,158524,1,0
376,152,158940,1,8
376,264,159357,2,0,B|376:328|312:368,2,120,0|8|0
376,209,160399,1,0
376,152,160607,1,8
288,208,161024,6,0,B|224:184|224:232|160:208,1,120,0|8
192,104,161857,2,0,B|192:32,2,60,0|0|8
96,152,162690,1,0
96,264,163107,1,8
192,312,163524,1,0
288,264,163940,1,8
288,152,164357,6,0,B|376:152|376:216|480:216,2,180,4|0|8
256,192,166024,12,4,169357
256,192,187690,12,2,191024
256,192,192690,5,2
256,192,193524,1,0
256,192,194357,1,2
152,192,196024,6,0,B|80:192,2,67.4999979883433,2|0|2
256,192,197065,2,0,B|312:192,1,44.9999986588955,0|2
424,192,197690,1,2
256,192,199357,6,0,B|256:112,2,67.4999979883433,2|0|2
256,304,200399,2,0,B|256:368,1,44.9999986588955,0|2
344,304,201024,1,2
256,192,202690,12,4,204357
256,192,206024,5,2
256,192,206858,1,0
256,192,207691,1,2
360,192,209358,6,0,B|432:192,2,67.4999979883433,2|0|2
256,192,210399,2,0,B|192:192,1,44.9999986588955,0|2
88,192,211024,1,4
256,72,212690,6,0,B|256:264,2,179.999994635582,0|0|0
256,280,216024,6,4,B|256:200,2,67.4999979883433
256,192,217690,12,4,221024
304,136,222690,6,4,B|304:24,2,90
304,248,223732,2,0,B|304:324,1,60,0|8
200,296,224357,5,4
416,296,225190,1,8
416,80,226023,1,0
200,80,226857,1,8
144,80,227065,1,0
88,80,227273,1,8
152,176,227690,6,0,B|216:200|296:176|328:104|304:32,2,240,0|8|0
96,80,229773,1,8
0,136,230190,1,0
0,192,230398,1,0
16,240,230607,1,8
112,296,231023,6,0,B|240:296|240:296|240:304|240:304|360:304,2,240,4|8|0
40,208,233107,1,8
40,104,233523,2,0,B|40:20,2,60,0|0|8
136,160,234357,6,0,B|240:120|240:224|368:168,1,240,4|0
304,80,235607,1,8
256,192,236024,12,4,237690
296,280,238524,5,0
352,192,238940,1,8
296,96,239357,2,0,B|296:24,2,60,0|0|8
184,96,240190,2,0,B|128:144|144:224,1,120,0|8
144,312,241024,5,0
240,256,241440,1,8
336,312,241857,1,0
240,256,242274,1,8
240,152,242690,2,0,B|240:56,2,90
152,216,243732,1,0
96,224,243940,1,8
56,184,244149,1,0
64,128,244357,6,0,B|72:80|112:56|160:64,1,120,4|8
256,64,245190,2,0,B|295:58|335:82|343:130,1,120,0|8
344,240,246024,1,0
440,184,246440,1,8
344,240,246857,2,0,B|344:320,2,60,0|0|8
248,184,247690,6,0,B|128:184|128:112|16:112,2,240,4|8|0
360,184,249774,1,8
304,280,250190,1,0
248,184,250607,1,8
304,96,251024,6,0,B|368:72|440:96|480:168|448:232,2,240,4|8|4
208,152,253107,1,8
112,96,253524,1,4
208,40,253940,1,8
208,152,254357,6,0,B|208:216,2,60,4|0|8
320,152,255190,2,0,B|320:216,2,60,4|0|8
256,192,256024,12,4,257690
