osu file format v9

[General]
AudioFilename: Starving Trancer feat. MAKI - only my railgun.mp3
AudioLeadIn: 0
PreviewTime: 27065
Countdown: 0
SampleSet: Normal
StackLeniency: 0.7
Mode: 0
LetterboxInBreaks: 0

[Editor]
Bookmarks: 27690,47690,74357,76024,107690,109357,122690,137690,169357,187690,217690,224357,256024
DistanceSpacing: 1
BeatDivisor: 4
GridSize: 4

[Metadata]
Title:only my railgun
Artist:Starving Trancer feat. MAKI
Creator:Leorda
Version:Insane
Source:To Aru Kagaku no Railgun
Tags:fripside misaka mikoto kuroko shirai saten ruiko kazari uiharu exit trance present speed opening remix

[Difficulty]
HPDrainRate:7
CircleSize:4
OverallDifficulty:7
ApproachRate:8
SliderMultiplier:1.9
SliderTickRate:2

[Events]
//Background and Video events
0,0,"To Aru.jpg"
//Break Periods
2,47890,53607
2,109557,113607
2,169557,186940
//Storyboard Layer 0 (Background)
//Storyboard Layer 1 (Fail)
//Storyboard Layer 2 (Pass)
//Storyboard Layer 3 (Foreground)
//Storyboard Sound Samples
//Background Colour Transformations
3,100,163,162,255

[TimingPoints]
1024,416.666666666667,4,1,0,75,1,0
27690,-100,4,1,0,75,0,1
47690,-100,4,2,0,100,0,0
76024,-100,4,1,0,75,0,1
107690,-100,4,2,0,100,0,0
114357,-100,4,1,0,75,0,0
115971,-100,4,2,0,100,0,0
137690,-100,4,1,0,75,0,1
169357,-100,4,2,0,100,0,0
191024,-200,4,2,0,60,0,0
192690,-200,4,2,0,80,0,0
211024,-200,4,1,0,80,0,0
217690,-100,4,2,0,80,0,0
224357,-100,4,1,0,75,0,1
257690,-100,4,2,0,100,0,0

[Colours]
Combo1 : 255,149,149
Combo2 : 255,202,149
Combo3 : 149,186,255

[HitObjects]
76,72,27065,1,0
132,148,27274,1,8
76,224,27482,1,0
136,300,27690,6,0,B|268:300,1,95,4|0
280,300,28003,1,0
327,300,28107,1,8
408,252,28315,1,0
472,180,28524,2,0,B|340:180,1,95,0|0
328,180,28837,1,0
281,180,28941,1,8
186,180,29149,1,0
232,96,29357,6,0,B|232:32,2,47.5
136,96,29774,2,0,B|88:124|84:184,1,95,8|0
84,268,30190,1,0
120,356,30399,1,0
208,360,30607,1,8
268,288,30815,1,0
176,268,31024,6,0,B|188:208|248:200,1,95
372,100,31440,2,0,B|360:160|300:168,1,95,8|0
284,76,31857,2,0,B|312:8|400:-4|452:52,2,190,0|8|0
220,148,32899,5,0
176,168,33003,1,0
128,160,33107,1,8
164,72,33315,1,0
72,92,33524,1,0
40,128,33628,1,0
28,176,33732,1,0
40,220,33836,1,0
72,256,33940,1,8
116,268,34044,1,0
172,260,34149,1,0
216,240,34253,1,0
264,240,34357,6,0,B|372:240,1,95,4|0
408,240,34669,1,0
456,240,34774,1,8
360,136,34982,1,0
452,40,35190,2,0,B|344:40,1,95
308,40,35502,1,0
260,40,35607,1,8
360,136,35815,1,0
264,136,36024,6,0,B|160:136,1,95
120,136,36336,1,0
72,136,36440,1,8
100,228,36649,1,0
132,368,36857,1,0
172,228,37065,1,0
204,368,37274,1,8
244,228,37482,1,0
276,368,37690,6,0,B|468:368,1,190,0|8
472,272,38315,1,0
472,176,38524,2,0,B|472:72,2,95,0|0|8
388,224,39149,1,0
316,284,39357,6,0,B|216:284,1,95
276,208,39774,2,0,B|172:172,1,95,8|0
260,120,40190,2,0,B|176:52,2,95,0|0|8
348,84,40815,1,0
436,120,41024,6,0,B|472:164|436:208,1,95,4|0
396,228,41336,1,0
356,252,41440,1,8
260,264,41649,1,0
156,252,41857,1,4
74,206,42065,2,0,B|40:164|76:120,1,95,0|8
160,80,42482,1,0
252,52,42690,5,0
348,56,42899,1,0
396,64,43003,1,0
428,96,43107,1,0
348,148,43315,1,0
348,195,43419,1,0
348,244,43524,2,0,B|348:352,2,95
256,220,44149,1,0
160,228,44357,5,0
112,228,44461,1,0
76,196,44565,1,0
64,148,44669,1,0
76,100,44774,1,0
112,68,44878,1,0
156,52,44982,1,0
208,68,45086,1,0
244,96,45190,5,0
268,136,45294,1,0
304,168,45399,1,0
352,164,45503,1,0
388,136,45607,1,0
404,92,45711,1,0
388,48,45815,1,0
348,20,45919,1,0
256,192,46024,12,4,47690
384,160,54357,6,0,B|384:104|336:68|280:68,1,142.5,4|0
244,68,54774,1,8
164,120,54982,1,0
84,172,55190,2,0,B|48:224|92:272,1,95
177,257,55607,2,0,B|212:308|177:344,1,95,8|0
82,344,56024,6,0,B|288:344|288:344,1,190,0|8
364,320,56649,1,0
296,252,56857,1,0
388,232,57065,1,0
320,164,57274,1,8
412,140,57482,1,0
348,68,57690,5,4
256,92,57899,1,0
232,184,58107,1,0
204,272,58315,2,0,B|204:332,2,47.5
164,184,58732,2,0,B|143:144|79:120|23:140|4:180,1,190
256,192,59357,12,8,60607
136,192,61024,5,4
68,132,61232,1,0
120,64,61440,1,8
160,88,61544,1,0
208,88,61649,2,0,B|376:88,1,142.5
384,120,62065,2,0,B|484:120,1,95,0|8
440,208,62482,1,0
448,304,62690,6,0,B|368:300|336:216,1,142.5
316,184,63107,1,8
236,132,63315,1,0
192,116,63419,1,0
148,136,63524,2,0,B|148:192|88:212,2,95,0|0|8
52,136,64149,6,0,B|52:80,2,47.5
8,220,64565,1,0
56,300,64774,1,8
152,308,64982,1,0
200,228,65190,1,0
248,228,65294,2,0,B|356:228,1,95
390,228,65607,1,8
448,152,65815,1,0
448,56,66024,6,0,B|392:56|364:108|364:108|304:108,1,142.5
276,108,66440,1,8
188,72,66649,1,0
100,108,66857,2,0,B|64:148|96:212,2,95,0|0|8
188,72,67482,1,0
184,168,67690,6,0,B|184:264,1,95,4|0
216,300,68003,2,0,B|332:300,1,95
356,284,68315,2,0,B|356:188,1,95,0|0
352,92,68732,2,0,B|368:40|432:40,2,95,0|8|0
284,156,69357,6,0,B|265:196|209:216|145:192|125:153,1,190,0|8
208,108,69982,1,0
172,76,70086,2,0,B|132:40|80:68,1,95
52,100,70399,2,0,B|28:152|56:196,1,95,0|8
128,248,70815,1,0
220,276,71024,6,0,B|416:276,1,190,4|8
484,220,71649,1,0
484,124,71857,1,0
436,136,71961,1,0
404,172,72065,2,0,B|296:172,1,95,0|8
213,172,72482,1,0
148,240,72690,6,0,B|96:188|128:120,1,95,4|0
180,84,73107,1,8
276,80,73315,1,0
320,72,73419,1,0
364,84,73524,1,0
408,104,73628,1,0
444,136,73732,1,0
464,180,73836,1,0
464,228,73940,1,8
444,272,74044,1,0
404,296,74149,1,0
360,316,74253,1,0
312,316,74357,5,4
27,316,74669,1,4
180,76,74982,1,4
180,268,75399,5,0
180,248,75607,1,8
180,228,75815,1,0
236,152,76024,5,4
332,152,76232,1,0
380,152,76336,2,0,B|444:144|472:192|456:248,1,142.5
404,316,76857,1,0
308,328,77065,1,0
260,328,77169,2,0,B|184:328|228:272|128:272,1,142.5,0|0
40,272,77690,1,0
64,180,77899,1,0
64,132,78003,2,0,B|68:48|160:32,1,142.5
152,128,78524,5,0
224,188,78732,1,0
312,156,78940,1,8
320,60,79149,1,0
228,88,79357,2,0,B|320:268,2,190,0|8|0
320,60,80399,1,0
400,112,80607,2,0,B|512:112,1,95,8|0
376,192,81024,6,0,B|376:276|264:296,2,142.5
281,192,81857,1,0
200,244,82065,1,0
120,196,82274,1,8
76,176,82378,1,0
56,132,82482,1,0
76,88,82586,1,0
116,64,82690,6,0,B|224:64,1,95,4|0
260,64,83003,1,0
306,64,83107,1,8
400,64,83315,2,0,B|440:24,2,47.5
348,144,83732,1,0
348,191,83836,2,0,B|316:256|392:256|348:347,1,142.5,0|0
268,292,84357,6,0,B|160:292,1,95
124,292,84669,1,0
76,292,84774,1,8
100,200,84982,1,0
16,156,85190,1,0
28,60,85399,1,0
120,40,85607,1,8
168,120,85815,1,0
88,116,86024,5,4
260,36,86232,1,0
244,224,86440,1,8
240,320,86649,6,0,B|208:360,2,47.5
328,280,87065,2,0,B|380:252|380:312|448:284,1,95,0|8
512,280,87482,1,0
456,204,87690,6,0,B|456:104,2,95,4|0|0
368,172,88315,1,0
276,200,88524,1,0
268,200,88628,1,0
258,200,88732,1,0
248,200,88836,1,0
238,200,88940,1,0
228,200,89044,1,0
218,200,89149,1,0
208,200,89253,1,0
200,200,89357,6,0,B|88:200,1,95,4|0
56,200,89669,1,0
8,200,89774,1,8
36,108,89982,1,0
83,108,90086,1,0
130,108,90190,2,0,B|258:108,1,95
272,124,90503,2,0,B|340:124,1,47.5,0|8
412,144,90815,5,0
448,176,90919,1,0
468,220,91024,2,0,B|468:280|404:292,1,95
368,296,91336,2,0,B|300:296,1,47.5,0|8
225,296,91649,5,0
82,296,91857,1,0
192,204,92065,1,0
112,204,92274,1,8
152,112,92482,1,0
212,40,92690,6,0,B|320:40,1,95
480,204,93107,2,0,B|368:204,1,95,8|0
284,120,93524,2,0,B|480:120,2,190,0|8|0
232,200,94565,5,0
196,168,94669,1,0
184,120,94774,1,8
89,120,94982,1,0
120,212,95190,1,0
140,256,95294,1,0
180,284,95399,1,0
224,300,95503,1,0
272,304,95607,1,8
316,288,95711,1,0
344,252,95815,1,0
364,208,95919,1,0
368,160,96024,6,0,B|368:44,1,95,4|0
273,65,96440,1,8
177,65,96649,2,0,B|120:64,2,47.5
220,152,97065,1,0
220,200,97169,2,0,B|216:256|168:288|116:292,1,142.5
136,196,97690,6,0,B|100:160,2,47.5
56,248,98107,2,0,B|24:292|52:344,1,95,8|0
140,364,98524,1,0
220,312,98732,1,0
300,364,98940,1,8
380,312,99149,1,0
456,368,99357,6,0,B|484:320|472:260|428:216|368:224,1,190,0|8
304,268,99982,1,0
224,220,100190,2,0,B|140:176,1,95
224,132,100607,2,0,B|148:56,1,95,8|0
304,92,101024,5,0
304,92,101232,1,0
392,124,101440,1,8
392,124,101649,1,0
448,200,101857,1,0
448,200,102065,1,0
424,292,102274,1,8
424,292,102482,1,0
336,324,102690,6,0,B|224:324,1,95,4|0
193,324,103003,1,0
145,324,103107,1,8
172,232,103315,1,0
112,160,103524,2,0,B|72:120,2,47.5
204,136,103940,2,0,B|256:156|268:216,1,95,8|0
256,192,104357,12,4,107690
256,192,107794,12,4,109357
124,56,114357,6,0,B|72:56,3,47.5
140,108,114774,2,0,B|192:108,3,47.5
120,156,115190,2,0,B|68:156,3,47.5
136,208,115607,2,0,B|188:208,3,47.5
120,264,116024,6,0,B|128:312|192:332|244:296,1,142.5,4|0
276,276,116440,1,8
352,216,116649,1,0
400,136,116857,2,0,B|420:80|472:80,2,95,0|0|8
352,216,117482,1,0
304,136,117690,6,0,B|292:76|220:64|188:104,1,142.5
172,140,118107,1,8
236,208,118315,1,0
156,260,118524,2,0,B|60:260,2,95,0|0|8
228,324,119149,1,0
320,308,119357,5,4
320,308,119565,1,0
404,260,119774,1,8
404,260,119982,1,0
416,168,120190,1,0
416,168,120399,1,0
364,88,120607,1,8
364,88,120815,1,0
256,192,121024,12,8,122274
92,320,122690,5,4
52,236,122899,1,0
120,180,123107,1,8
164,196,123211,1,0
192,236,123315,2,0,B|244:268|296:232,1,95
408,96,123732,2,0,B|356:64|304:100,1,95,0|8
364,176,124149,1,0
440,236,124357,6,0,B|444:284|388:328|332:304,1,142.5
300,280,124774,1,8
224,224,124982,1,0
188,196,125086,1,0
152,224,125190,2,0,B|104:260|56:224,2,95,0|0|8
188,136,125815,1,0
252,64,126024,6,0,B|296:32|352:68,2,95,0|0|8
188,136,126649,1,0
280,156,126857,1,0
328,156,126961,2,0,B|384:156|384:156|384:160|384:160|444:160,1,95
468,160,127274,1,8
428,72,127482,1,0
368,252,127690,6,0,B|304:252|304:252|304:256|304:256|224:256,1,142.5
181,256,128107,1,8
92,224,128315,1,0
48,140,128524,1,0
56,92,128628,1,0
92,60,128732,1,0
144,76,128836,1,0
176,112,128940,2,0,B|220:144|272:108,1,95,8|0
436,64,129357,6,0,B|392:32|348:64,1,95,4|0
396,148,129774,1,8
380,192,129878,1,0
396,236,129982,2,0,B|352:280|304:260,1,95
116,236,130399,2,0,B|160:280|208:260,1,95,0|8
256,184,130815,1,0
220,96,131024,6,0,B|144:56|140:132|72:92,1,142.5
48,68,131440,1,8
36,164,131649,1,0
80,184,131753,1,0
128,180,131857,2,0,B|188:172|220:224|184:292,1,142.5
164,312,132274,1,8
72,332,132482,1,0
261,332,132690,6,0,B|364:332,1,95,4|0
408,252,133107,2,0,B|308:252,2,95,8|0|0
480,188,133732,1,0
480,140,133836,2,0,B|440:88|508:60|476:0,1,142.5
388,40,134357,6,0,B|272:40,1,95,4|0
352,116,134774,2,0,B|236:116,1,95,8|0
312,192,135190,2,0,B|252:192,3,47.5
216,192,135607,2,0,B|156:192,3,47.5,8|0|0|0
120,192,136024,5,4
256,352,136336,1,4
380,192,136649,1,4
256,32,137065,5,0
256,51,137274,1,8
256,69,137482,1,0
256,164,137690,5,4
184,224,137899,1,0
216,260,138003,1,0
256,284,138107,2,0,B|304:312|360:288,1,95,8|0
416,220,138524,2,0,B|416:116,1,95
468,48,138940,2,0,B|508:8,2,47.5,8|0|0
372,36,139357,6,0,B|328:16|268:16|232:44,1,142.5
196,68,139774,1,8
152,152,139982,1,0
72,204,140190,1,0
48,112,140399,1,0
128,60,140607,1,8
152,152,140815,1,0
168,244,141024,6,0,B|220:272|280:240,1,95
432,172,141440,2,0,B|380:144|320:176,1,95,8|0
380,252,141857,2,0,B|440:272|492:260|520:200|520:164,2,190,0|8|0
432,172,142899,5,0
388,88,143107,1,8
336,168,143315,1,0
380,252,143524,2,0,B|356:300|292:312,1,95
132,252,143940,2,0,B|156:300|220:312,1,95,8|0
264,232,144357,6,0,B|248:176|196:160,1,95,4|0
108,162,144774,1,8
156,80,144982,2,0,B|156:20,2,47.5
252,88,145399,1,0
292,112,145503,2,0,B|328:140|336:168|336:168|420:168,1,142.5
252,188,146024,6,0,B|220:228|252:288|312:284,1,142.5
356,268,146440,1,8
444,236,146649,1,0
376,172,146857,1,0
416,84,147065,1,0
484,152,147274,1,8
444,236,147482,1,0
416,324,147690,5,4
48,324,148107,1,8
112,144,148524,5,0
172,72,148732,1,0
260,108,148940,1,8
200,180,149149,1,0
132,244,149357,2,0,B|132:352,2,95,4|0|0
200,180,149982,1,0
280,228,150190,2,0,B|344:228,3,47.5
375,228,150607,2,0,B|439:228,3,47.5
472,228,151024,6,0,B|476:164|428:140,1,95,4|0
341,144,151440,1,8
340,48,151649,1,0
296,64,151753,1,0
264,100,151857,1,0
341,144,152065,1,0
341,144,152169,2,0,B|340:296,1,142.5
388,368,152690,6,0,B|432:348|440:292,2,95,0|0|8
292,368,153315,1,0
196,368,153524,1,0
160,280,153732,1,0
256,280,153940,1,8
292,368,154149,1,0
96,368,154357,6,0,B|44:276,1,95
28,104,154774,2,0,B|80:196,1,95,8|0
140,116,155190,2,0,B|176:80|240:76|288:128|272:184,1,190,0|8
184,204,155815,1,0
324,72,156024,6,0,B|364:108|364:176,1,95
424,336,156440,2,0,B|384:300|385:252,1,95,8|0
480,268,156857,1,0
468,224,156961,1,0
436,188,157065,1,0
392,168,157169,1,0
344,180,157274,1,8
312,216,157378,1,0
304,264,157482,1,0
264,288,157586,1,0
216,292,157690,6,0,B|156:276|148:208,1,95,4|0
148,180,158003,1,0
148,132,158107,1,8
236,164,158315,1,0
208,72,158524,2,0,B|272:64|312:120,1,95
340,116,158836,1,0
388,112,158940,1,8
440,32,159149,1,0
348,200,159357,6,0,B|368:256|320:296,1,95
284,296,159669,1,0
236,288,159774,1,8
152,240,159982,1,0
232,192,160190,1,0
236,288,160399,1,0
160,344,160607,1,8
76,304,160815,1,0
60,212,161024,6,0,B|20:108,1,95
92,56,161440,2,0,B|126:144,1,95,8|0
196,80,161857,2,0,B|224:128|284:128,2,95,0|0|8
276,32,162482,1,0
352,92,162690,6,0,B|376:140|348:200|300:224|248:204,1,190,0|8
108,324,163524,2,0,B|84:276|112:216|160:192|212:212,1,190,0|8
208,304,164149,1,0
302,304,164357,6,0,B|408:304,1,95,4|0
444,304,164669,1,0
492,304,164774,1,8
464,216,164982,1,0
448,124,165190,2,0,B|342:124,1,95
306,124,165502,1,0
258,124,165607,1,8
286,212,165815,1,0
256,192,166024,12,4,169357
256,192,187690,12,0,191024
32,192,192690,5,0
256,192,193524,1,0
480,192,194357,1,0
256,32,196024,5,0
256,112,196336,1,0
256,192,196649,1,0
256,352,197065,2,0,B|256:256,1,95
256,257,197690,1,0
36,36,199357,5,0
256,352,200190,1,0
480,32,201024,1,0
256,192,202690,12,4,204357
256,192,205190,5,0
32,192,206024,1,0
256,192,206858,1,0
360,192,207274,1,0
464,192,207691,1,0
256,32,209358,5,0
256,192,210191,1,0
256,352,211024,5,4
256,192,211440,1,0
480,192,211857,1,0
256,192,212274,1,0
256,32,212690,5,0
256,192,213107,1,0
36,192,213524,1,0
256,192,213940,1,0
256,352,214357,5,0
256,192,214774,1,0
480,192,215191,1,0
256,192,215608,1,0
256,32,216024,5,4
256,192,216336,1,4
256,356,216649,1,4
256,192,217690,12,4,221024
256,96,221336,5,4
256,284,221649,1,4
116,192,222690,5,4
256,216,223003,1,4
416,192,223315,1,4
256,168,223524,2,0,B|256:104,8,47.5
180,232,224565,5,0
132,232,224669,2,0,B|68:240|40:192|56:136,1,142.5
108,68,225190,1,0
204,56,225398,1,0
252,56,225502,2,0,B|328:56|284:112|384:112,1,142.5,0|0
472,112,226023,1,0
448,204,226232,1,0
448,252,226336,2,0,B|444:336|352:352,1,142.5
360,256,226857,5,0
288,196,227065,1,0
200,228,227273,1,8
192,324,227482,1,0
284,296,227690,2,0,B|192:116,2,190,0|8|0
192,324,228732,1,0
112,272,228940,2,0,B|0:272,1,95,8|0
136,192,229357,6,0,B|136:108|248:88,2,142.5
231,192,230190,1,0
312,140,230398,1,0
392,188,230607,1,8
436,208,230711,1,0
456,252,230815,1,0
436,296,230919,1,0
396,320,231023,6,0,B|288:320,1,95,4|0
252,320,231336,1,0
206,320,231440,1,8
112,320,231648,2,0,B|72:360,2,47.5
164,240,232065,1,0
164,193,232169,2,0,B|196:128|120:128|164:37,1,142.5,0|0
244,92,232690,6,0,B|352:92,1,95
388,92,233002,1,0
436,92,233107,1,8
412,184,233315,1,0
496,228,233523,1,0
484,324,233732,1,0
392,344,233940,1,8
328,272,234148,1,0
424,268,234357,5,4
252,348,234565,1,0
268,160,234773,1,8
272,64,234982,6,0,B|304:24,2,47.5
184,104,235398,2,0,B|88:136|96:60|0:104,1,190
56,180,236023,6,0,B|56:332,2,142.5,4|0|0
151,180,236857,1,0
200,180,236961,1,0
248,180,237065,1,0
296,180,237169,1,0
344,180,237274,1,8
384,156,237378,1,0
404,112,237482,1,0
396,64,237586,1,0
364,32,237690,1,4
280,84,237899,5,0
232,84,238003,1,0
185,84,238107,1,8
104,132,238315,1,0
40,204,238524,2,0,B|172:204,1,95,0|0
184,204,238837,1,0
231,204,238941,1,8
326,204,239149,1,0
280,288,239357,6,0,B|280:352,2,47.5
376,288,239774,2,0,B|424:260|428:200,1,95,8|0
428,116,240190,1,0
392,28,240399,1,0
304,24,240607,1,8
244,96,240815,1,0
336,116,241024,6,0,B|324:176|264:184,1,95
140,284,241440,2,0,B|152:224|212:216,1,95,8|0
228,308,241857,2,0,B|200:376|112:388|60:332,2,190,0|8|0
292,236,242899,5,0
336,216,243003,1,0
384,224,243107,1,8
348,312,243315,1,0
440,292,243524,1,0
472,256,243628,1,0
484,208,243732,1,0
472,164,243836,1,0
440,128,243940,1,8
396,116,244044,1,0
340,124,244149,1,0
296,144,244253,1,0
248,144,244357,6,0,B|140:144,1,95,4|0
104,144,244669,1,0
56,144,244774,1,8
152,248,244982,1,0
60,344,245190,2,0,B|168:344,1,95
204,344,245502,1,0
252,344,245607,1,8
152,248,245815,1,0
248,248,246024,6,0,B|352:248,1,95
392,248,246336,1,0
440,248,246440,1,8
412,156,246649,1,0
380,16,246857,1,0
340,156,247065,1,0
308,16,247274,1,8
268,156,247482,1,0
236,16,247690,6,0,B|44:16,1,190,0|8
40,112,248315,1,0
40,208,248524,2,0,B|40:312,2,95,0|0|8
124,160,249149,1,0
196,100,249357,6,0,B|296:100,1,95
236,176,249774,2,0,B|340:212,1,95,8|0
252,264,250190,2,0,B|336:332,2,95,0|0|8
164,300,250815,1,0
76,264,251024,6,0,B|40:220|76:176,1,95,4|0
116,156,251336,1,0
156,132,251440,1,8
252,120,251649,1,0
356,132,251857,1,4
396,156,251961,1,0
438,178,252065,2,0,B|472:220|436:264,1,95,0|8
352,304,252482,1,0
260,332,252690,5,0
164,328,252899,1,0
116,320,253003,1,0
84,288,253107,1,0
164,236,253315,1,0
164,189,253419,1,0
164,140,253524,2,0,B|164:32,2,95
256,164,254149,1,0
352,160,254357,5,0
400,160,254461,1,0
436,192,254565,1,0
448,240,254669,1,0
436,288,254774,1,0
400,320,254878,1,0
356,336,254982,1,0
304,320,255086,1,0
268,292,255190,5,0
244,252,255294,1,0
208,220,255399,1,0
160,224,255503,1,0
124,252,255607,1,0
108,296,255711,1,0
124,340,255815,1,0
164,368,255919,1,0
256,192,256024,12,4,257690
