osu file format v13

[General]
AudioFilename: 15 - New Gravity.mp3
AudioLeadIn: 0
PreviewTime: 55123
Countdown: 1
SampleSet: Soft
StackLeniency: 0.7
Mode: 0
LetterboxInBreaks: 1
WidescreenStoryboard: 1

[Editor]
DistanceSpacing: 1
BeatDivisor: 4
GridSize: 4
TimelineZoom: 1

[Metadata]
Title:New Gravity
TitleUnicode:New Gravity
Artist:Starving Trancer
ArtistUnicode:Starving Trancer
Creator:fanzhen0019
Version:Medium
Source:Dance Dance Revolution 2013
Tags:DDR jubeat saucer Yusuke Ceo
BeatmapID:450080
BeatmapSetID:188877

[Difficulty]
HPDrainRate:5
CircleSize:3
OverallDifficulty:5
ApproachRate:6
SliderMultiplier:1.2
SliderTickRate:1

[Events]
//Background and Video events
0,0,"1234.jpg",0,0
//Break Periods
//Storyboard Layer 0 (Background)
//Storyboard Layer 1 (Fail)
//Storyboard Layer 2 (Pass)
//Storyboard Layer 3 (Foreground)
//Storyboard Sound Samples
//Background Colour Transformations
3,100,163,162,255

[TimingPoints]
578,389.61038961039,4,2,0,50,1,0
967,-200,4,2,0,50,0,0
6811,-133.333333333333,4,2,0,60,0,0
15285,-100,4,2,0,70,0,0
20837,-100,4,1,0,30,0,0
21227,-100,4,1,0,40,0,0
21616,-100,4,1,0,50,0,0
22006,-100,4,1,0,60,0,0
22396,-100,4,2,0,70,0,0
52006,-100,4,1,0,50,0,0
53565,-83.3333333333333,4,2,0,70,0,0
55123,-90.9090909090909,4,2,0,70,0,1
59798,-90.9090909090909,4,1,0,30,0,1
60188,-90.9090909090909,4,1,0,40,0,1
60578,-90.9090909090909,4,1,0,50,0,1
60967,-90.9090909090909,4,1,0,60,0,1
61357,-90.9090909090909,4,2,0,70,0,1
67590,-100,4,2,0,70,0,0
80058,-100,4,1,0,50,0,0
81616,-200,4,2,0,70,0,1
81714,-200,4,2,0,70,0,0
82006,-90.9090909090909,4,2,0,80,0,1
86292,-90.9090909090909,4,1,0,30,0,1
86681,-90.9090909090909,4,1,0,40,0,1
87071,-90.9090909090909,4,1,0,50,0,1
87461,-90.9090909090909,4,1,0,60,0,1
87850,-90.9090909090909,4,2,0,80,0,1
94084,-200,4,2,0,50,0,0

[Colours]
Combo1 : 255,255,128
Combo2 : 0,255,128
Combo3 : 0,128,255
Combo4 : 255,128,255

[HitObjects]
416,328,578,5,0,0:0:0:0:
336,300,967,2,0,L|332:252,1,30,0|2,0:0|0:0,0:0:0:0:
328,188,1552,1,2,0:0:0:0:
244,184,1941,6,0,L|156:180,1,60,0|2,0:0|0:0,0:0:0:0:
100,176,2720,2,0,L|12:172,1,60,2|0,0:0|0:0,0:0:0:0:
96,328,3694,5,0,0:0:0:0:
176,300,4084,2,0,L|180:252,1,30,0|2,0:0|0:0,0:0:0:0:
184,188,4668,1,2,0:0:0:0:
268,184,5058,6,0,L|356:180,1,60,0|2,0:0|0:0,0:0:0:0:
412,176,5837,2,0,L|500:172,2,60,2|2|2,0:0|0:0|0:0,0:0:0:0:
388,216,6811,6,0,P|382:265|400:312,1,90.0000034332277,4|8,1:2|0:0,0:0:0:0:
352,284,7396,2,0,L|252:287,1,90.0000034332277,0|0,1:0|1:0,0:0:0:0:
216,288,7980,1,8,0:0:0:0:
136,332,8370,6,0,P|108:280|116:244,1,90.0000034332277,0|8,1:0|0:0,0:0:0:0:
140,216,8954,2,0,L|144:108,1,90.0000034332277,0|0,1:0|1:0,0:0:0:0:
144,80,9539,1,8,0:0:0:0:
224,40,9928,5,0,1:0:0:0:
308,68,10318,2,0,L|356:64,1,45.0000017166138,8|0,0:0|1:0,0:0:0:0:
444,56,10902,2,0,L|492:52,1,45.0000017166138,0|8,1:0|0:0,0:0:0:0:
408,136,11487,6,0,P|400:184|420:240,1,90.0000034332277,0|8,1:0|0:0,0:0:0:0:
444,252,12071,2,0,P|396:244|340:264,1,90.0000034332277,0|0,1:0|1:0,0:0:0:0:
316,276,12655,2,0,P|288:312|280:360,1,90.0000034332277,8|4,0:0|0:0,0:0:0:0:
256,192,14603,12,4,16162,0:0:0:0:
72,292,16746,6,0,P|56:232|76:172,1,120,2|2,0:0|0:0,0:0:0:0:
152,120,17526,2,0,P|165:177|149:235,3,120,0|2|2|2,0:0|0:0|0:0|0:0,0:0:0:0:
300,312,19279,5,0,0:0:0:0:
396,312,19668,1,0,0:0:0:0:
440,292,19863,2,0,P|456:232|436:172,1,120,2|2,0:0|0:0,0:0:0:0:
360,120,20642,1,2,0:0:0:0:
316,140,20837,6,0,L|196:140,3,120,0|0|0|4,0:0|0:0|0:0|0:2,0:0:0:0:
120,84,22396,6,0,P|72:124|72:184,1,120,4|0,0:0|0:0,0:0:0:0:
100,216,22980,2,0,L|92:336,1,120,2|2,0:0|0:0,0:0:0:0:
180,296,23759,6,0,P|242:286|316:304,3,120,0|2|2|2,0:0|0:0|0:0|0:0,0:0:0:0:
340,316,25123,2,0,L|392:276,2,60,2|0|6,0:0|0:0|0:0,0:0:0:0:
488,196,26292,1,4,0:0:0:0:
340,68,27071,6,0,L|216:68,1,120,4|0,0:0|0:0,0:0:0:0:
268,152,27850,2,0,L|144:152,1,120,4|4,0:0|0:0,0:0:0:0:
200,232,28629,5,6,0:0:0:0:
128,296,29019,1,0,0:0:0:0:
164,324,29214,2,0,P|232:328|280:284,3,120,2|2|2|2,0:0|0:0|0:0|0:0,0:0:0:0:
368,292,30772,6,0,L|428:288,1,60,2|0,0:0|0:0,0:0:0:0:
476,284,31162,1,2,0:0:0:0:
488,188,31552,1,2,0:0:0:0:
504,92,31941,6,0,P|452:68|392:100,3,120,2|2|2|2,0:0|0:0|0:0|0:0,0:0:0:0:
336,168,33500,2,2,P|284:192|224:160,1,120
196,136,34084,6,0,L|72:140,1,120,2|2,0:0|0:0,0:0:0:0:
40,172,34668,1,4,0:0:0:0:
36,220,34863,5,4,0:0:0:0:
92,296,35253,1,0,0:0:0:0:
132,324,35448,2,0,P|196:328|236:280,3,120,2|2|2|2,0:0|0:0|0:0|0:0,0:0:0:0:
256,196,37006,1,2,0:0:0:0:
256,196,37201,6,0,P|276:152|328:124,2,90,2|0|2,0:0|0:0|0:0,0:0:0:0:
256,240,37980,1,4,0:0:0:0:
416,300,38759,1,4,0:0:0:0:
420,108,39539,5,4,0:0:0:0:
368,188,39928,1,4,0:0:0:0:
316,268,40318,1,4,0:0:0:0:
264,348,40707,1,4,0:0:0:0:
176,312,41097,6,0,B|115:320|115:320|48:312,1,120,4|8,0:0|0:0,0:0:0:0:
56,216,41876,2,0,B|114:223|114:223|174:214,1,120,2|8,0:0|0:0,0:0:0:0:
176,120,42655,2,0,B|115:128|115:128|48:120,1,120,2|8,0:0|0:0,0:0:0:0:
56,24,43435,2,0,B|114:31|114:31|174:22,1,120,2|8,0:0|0:0,0:0:0:0:
272,24,44214,6,0,B|332:15|332:15|400:24,1,120,2|8,0:0|0:0,0:0:0:0:
392,120,44993,2,0,B|333:112|333:112|273:121,1,120,2|8,0:0|0:0,0:0:0:0:
272,216,45772,2,0,B|332:207|332:207|400:216,1,120,2|8,0:0|0:0,0:0:0:0:
392,312,46552,2,0,B|333:304|333:304|273:313,1,120,2|8,0:0|0:0,0:0:0:0:
176,316,47331,6,0,B|73:317|73:317|32:292|32:244,1,180,4|0,0:0|1:0,0:0:0:0:
56,160,48305,1,0,1:0:0:0:
184,224,48889,6,0,B|286:225|286:225|328:200|328:152,1,180,0|0,1:0|1:0,0:0:0:0:
304,68,49863,1,0,1:0:0:0:
304,68,50058,1,0,1:0:0:0:
212,40,50448,6,0,L|80:40,3,120,4|4|4|4,0:0|0:0|0:0|0:0,0:0:0:0:
92,136,52006,6,0,L|212:136,3,120
224,232,53565,5,0,0:0:0:0:
80,232,53954,1,0,1:0:0:0:
152,356,54344,6,0,B|176:348|176:348|200:356|200:356|224:348|224:348|248:356|248:356|268:348|268:348|288:356|288:356|312:348,1,143.999995605469
392,364,55123,6,0,P|412:304|400:236,1,132.00000402832,4|8,0:0|0:0,0:0:0:0:
352,220,55707,6,0,P|416:184|432:128,1,132.00000402832,2|2,0:0|0:0,0:0:0:0:
404,28,56487,2,0,P|340:-9|284:4,1,132.00000402832,0|2,0:0|0:0,0:0:0:0:
216,80,57266,2,0,P|215:153|255:195,1,132.00000402832,2|0,0:0|0:0,0:0:0:0:
300,220,57850,1,2,0:0:0:0:
260,316,58240,6,0,P|200:288|128:292,1,132.00000402832,2|0,0:0|0:0,0:0:0:0:
88,312,58824,6,0,P|24:276|8:220,1,132.00000402832,2|2,0:0|0:0,0:0:0:0:
20,120,59603,1,2,0:0:0:0:
72,108,59798,2,0,P|136:144|152:200,3,132.00000402832
256,192,61357,6,0,L|256:340,1,132.00000402832,4|0,0:0|0:0,0:0:0:0:
308,324,61941,6,0,P|358:284|368:220,1,132.00000402832,2|2,0:0|0:0,0:0:0:0:
316,128,62720,2,0,P|256:104|196:128,1,132.00000402832,0|2,0:0|0:0,0:0:0:0:
144,220,63500,2,0,P|153:283|204:323,1,132.00000402832,2|2,0:0|0:0,0:0:0:0:
256,324,64084,2,0,L|256:192,1,132.00000402832,2|4,0:0|0:0,0:0:0:0:
428,68,65253,5,4,0:0:0:0:
468,276,66032,2,0,P|392:320|322:250,2,198.000006042481,4|4|4,0:0|0:0|0:0,0:0:0:0:
399,243,67590,1,4,0:0:0:0:
212,148,69149,6,0,P|172:108|56:112,2,180,0|2|0,1:0|0:0|1:0,0:0:0:0:
300,148,70707,2,0,P|340:108|336:-8,2,180,4|2|0,1:2|0:0|1:0,0:0:0:0:
300,236,72266,2,0,P|340:276|456:272,2,180,4|2|0,1:2|0:0|1:0,0:0:0:0:
212,236,73824,2,0,P|172:276|176:392,2,180,4|2|4,1:2|0:0|1:2,0:0:0:0:
212,148,75383,6,0,P|160:112|56:152,1,180,4|2,0:0|0:0,0:0:0:0:
84,188,76162,2,0,P|101:237|76:316,1,120,2|2,0:0|0:0,0:0:0:0:
176,336,76941,6,0,P|228:372|332:332,1,180,2|2,0:0|0:0,0:0:0:0:
304,296,77720,2,0,P|286:246|312:168,1,120,2|2,0:0|0:0,0:0:0:0:
380,124,78500,6,0,L|508:124,3,120,4|4|4|4,0:0|0:0|0:0|0:0,0:0:0:0:
500,220,80058,2,0,L|380:220,3,120,4|4|4|4,0:0|0:0|0:0|0:0,0:0:0:0:
380,312,81616,5,0,1:0:0:0:
276,312,82006,5,4,0:0:0:0:
228,332,82201,2,0,P|176:320|144:252,1,132.00000402832,2|2,0:0|0:0,0:0:0:0:
64,188,82980,2,0,P|100:148|175:155,1,132.00000402832,0|2,0:0|0:0,0:0:0:0:
272,112,83759,2,0,P|287:163|244:224,1,132.00000402832,2|0,0:0|0:0,0:0:0:0:
188,216,84344,1,2,0:0:0:0:
188,320,84733,5,0,0:0:0:0:
292,320,85123,1,0,0:0:0:0:
340,344,85318,2,0,P|408:336|440:280,1,132.00000402832,2|2,0:0|0:0,0:0:0:0:
492,192,86097,1,2,0:0:0:0:
444,168,86292,2,0,P|376:176|344:232,3,132.00000402832,0|0|0|0,0:0|0:0|0:0|0:0,0:0:0:0:
256,168,87850,6,0,L|256:20,1,132.00000402832,4|0,0:0|0:0,0:0:0:0:
204,36,88435,2,0,P|153:75|144:139,1,132.00000402832,2|2,0:0|0:0,0:0:0:0:
196,232,89214,2,0,P|256:256|316:232,1,132.00000402832,0|2,0:0|0:0,0:0:0:0:
368,140,89993,2,0,P|358:76|308:36,1,132.00000402832,2|2,0:0|0:0,0:0:0:0:
256,128,90772,1,2,0:0:0:0:
256,128,90967,5,4,0:0:0:0:
152,312,91746,1,4,0:0:0:0:
360,312,92526,1,4,0:0:0:0:
312,220,92915,1,4,0:0:0:0:
204,220,93305,1,4,0:0:0:0:
152,312,93694,1,4,0:0:0:0:
56,312,94084,5,4,0:1:0:0:
28,232,94474,2,0,L|16:192,1,30,0|2,0:0|0:0,0:0:0:0:
52,128,95058,1,2,0:0:0:0:
80,48,95448,2,0,L|152:48,2,60,0|2|2,0:0|0:0|0:0,0:0:0:0:
52,128,96616,2,0,L|104:128,1,30,2|2,0:0|0:0,0:0:0:0:
168,128,97201,5,4,0:0:0:0:
256,272,97980,1,2,0:0:0:0:
344,128,98759,2,0,L|440:128,2,90,2|2|2,0:0|0:0|0:0,0:0:0:0:
256,128,100318,5,4,0:1:0:0:
