osu file format v13

[General]
AudioFilename: 15 - New Gravity.mp3
AudioLeadIn: 0
PreviewTime: 55123
Countdown: 1
SampleSet: Soft
StackLeniency: 0.2
Mode: 0
LetterboxInBreaks: 1
WidescreenStoryboard: 0

[Editor]
DistanceSpacing: 1
BeatDivisor: 4
GridSize: 4
TimelineZoom: 1

[Metadata]
Title:New Gravity
TitleUnicode:New Gravity
Artist:Starving Trancer
ArtistUnicode:Starving Trancer
Creator:fanzhen0019
Version:Expert
Source:Dance Dance Revolution 2013
Tags:DDR jubeat saucer Yusuke Ceo
BeatmapID:450079
BeatmapSetID:188877

[Difficulty]
HPDrainRate:6
CircleSize:4
OverallDifficulty:8
ApproachRate:9
SliderMultiplier:1.92
SliderTickRate:1

[Events]
//Background and Video events
0,0,"1234.jpg",0,0
//Break Periods
//Storyboard Layer 0 (Background)
//Storyboard Layer 1 (Fail)
//Storyboard Layer 2 (Pass)
//Storyboard Layer 3 (Foreground)
//Storyboard Sound Samples
//Background Colour Transformations
3,100,163,162,255

[TimingPoints]
578,389.61038961039,4,2,0,50,1,0
967,-200,4,2,0,50,0,0
6811,-133.333333333333,4,2,0,60,0,0
15285,-100,4,2,0,70,0,0
20837,-100,4,1,0,30,0,0
21032,-100,4,1,0,35,0,0
21227,-100,4,1,0,40,0,0
21422,-100,4,1,0,45,0,0
21616,-100,4,1,0,50,0,0
21811,-100,4,1,0,55,0,0
22006,-100,4,1,0,60,0,0
22201,-100,4,1,0,65,0,0
22396,-100,4,2,0,70,0,0
25513,-100,4,2,0,50,0,0
28629,-100,4,2,0,70,0,0
52006,-100,4,1,0,50,0,0
53565,-66.6666666666667,4,2,0,70,0,0
54344,-66.6666666666667,4,2,0,30,0,0
54409,-66.6666666666667,4,2,0,40,0,0
54474,-66.6666666666667,4,2,0,50,0,0
54539,-66.6666666666667,4,2,0,60,0,0
54603,-66.6666666666667,4,2,0,70,0,0
55123,-90.9090909090909,4,2,0,70,0,1
59798,-90.9090909090909,4,1,0,30,0,1
59993,-90.9090909090909,4,1,0,35,0,1
60188,-90.9090909090909,4,1,0,40,0,1
60383,-90.9090909090909,4,1,0,45,0,1
60578,-90.9090909090909,4,1,0,50,0,1
60772,-90.9090909090909,4,1,0,55,0,1
60967,-90.9090909090909,4,1,0,60,0,1
61162,-90.9090909090909,4,1,0,65,0,1
61357,-90.9090909090909,4,2,0,70,0,1
67590,-100,4,2,0,70,0,0
80058,-100,4,1,0,50,0,0
81616,-200,4,2,0,70,0,1
81714,-200,4,2,0,70,0,0
82006,-90.9090909090909,4,2,0,80,0,1
86292,-90.9090909090909,4,1,0,30,0,1
86487,-90.9090909090909,4,1,0,35,0,1
86681,-90.9090909090909,4,1,0,40,0,1
86876,-90.9090909090909,4,1,0,45,0,1
87071,-90.9090909090909,4,1,0,50,0,1
87266,-90.9090909090909,4,1,0,55,0,1
87461,-90.9090909090909,4,1,0,60,0,1
87655,-90.9090909090909,4,1,0,70,0,1
87850,-90.9090909090909,4,2,0,80,0,1
93305,-90.9090909090909,4,2,0,70,0,1
94084,-200,4,2,0,50,0,0

[Colours]
Combo1 : 255,255,128
Combo2 : 0,255,128
Combo3 : 0,128,255
Combo4 : 255,128,255

[HitObjects]
424,272,578,5,4,0:0:0:0:
344,328,772,1,0,0:0:0:0:
332,232,967,1,2,0:0:0:0:
456,80,1162,5,2,0:0:0:0:
364,56,1552,1,2,0:0:0:0:
272,84,1941,1,0,0:0:0:0:
188,128,2331,1,2,0:0:0:0:
92,112,2720,1,2,0:0:0:0:
36,32,3110,1,2,0:0:0:0:
92,112,3305,2,0,L|88:168,1,48,2|0,0:0|0:0,0:0:0:0:
80,256,3694,5,2,0:0:0:0:
136,332,3889,1,0,0:0:0:0:
40,344,4084,1,2,0:0:0:0:
224,268,4279,5,2,0:0:0:0:
316,248,4668,1,2,0:0:0:0:
404,288,5058,1,0,0:0:0:0:
448,372,5448,1,2,0:0:0:0:
384,304,5837,1,2,0:0:0:0:
380,208,6227,1,2,0:0:0:0:
420,120,6616,1,2,0:0:0:0:
504,76,6811,6,0,L|384:84,1,108.000004119873,0|0,1:0|0:0,0:0:0:0:
360,88,7201,2,0,P|344:56|352:16,1,72.0000027465821,0|0,1:0|1:0,0:0:0:0:
128,136,7785,1,0,1:0:0:0:
204,152,7980,2,0,P|220:120|212:80,1,72.0000027465821,0|0,1:0|0:0,0:0:0:0:
152,208,8370,5,0,1:0:0:0:
152,208,8565,1,0,1:0:0:0:
180,276,8759,1,0,1:0:0:0:
108,264,8954,2,0,L|260:264,1,144.000005493164,0|0,1:0|1:0,0:0:0:0:
332,296,9539,5,0,1:0:0:0:
452,232,9733,1,0,0:0:0:0:
448,360,9928,2,0,P|384:348|300:376,1,144.000005493164,0|0,1:2|1:0,0:0:0:0:
248,320,10513,5,0,1:0:0:0:
228,332,10610,1,0,0:0:0:0:
208,344,10707,2,0,L|128:344,1,72.0000027465821,0|0,0:0|1:0,0:0:0:0:
60,304,11097,1,0,1:0:0:0:
44,152,11292,6,0,P|62:194|58:234,2,72.0000027465821,0|0|0,1:0|0:0|1:0,0:0:0:0:
72,72,11876,2,0,P|36:68|0:80,1,72.0000027465821,0|0,1:0|1:0,0:0:0:0:
128,148,12266,5,2,1:2:0:0:
212,136,12461,1,2,0:2:0:0:
292,104,12655,1,2,1:2:0:0:
348,40,12850,1,2,0:2:0:0:
416,128,13045,6,0,L|488:120,1,72.0000027465821,4|2,0:0|0:0,0:0:0:0:
368,196,13435,1,0,0:0:0:0:
368,196,13532,1,2,0:0:0:0:
280,204,13727,1,2,0:0:0:0:
280,204,13824,6,0,L|208:196,1,72.0000027465821,0|2,0:0|0:0,0:0:0:0:
328,272,14214,1,0,0:0:0:0:
328,272,14311,1,2,0:0:0:0:
416,284,14506,1,2,0:0:0:0:
416,284,14603,6,0,L|456:280,2,36.0000013732911,4|8|8,0:2|3:0|3:0,0:0:0:0:
448,356,14993,2,0,L|364:360,1,72.0000027465821,4|4,3:0|0:0,0:0:0:0:
338,362,15285,1,4,3:0:0:0:
304,364,15383,1,0,0:0:0:0:
148,348,15578,6,0,L|108:344,3,24,4|0|0|0,1:2|1:0|1:0|1:0,0:0:0:0:
220,328,15772,5,4,1:2:0:0:
224,300,15870,1,0,1:0:0:0:
216,272,15967,1,0,1:0:0:0:
196,252,16065,1,0,1:0:0:0:
168,244,16162,6,0,L|72:248,1,96,4|2,0:0|0:0,0:0:0:0:
20,80,16552,1,8,0:0:0:0:
20,80,16649,1,2,0:0:0:0:
20,80,16746,6,0,L|48:176,1,96,2|0,0:0|0:0,0:0:0:0:
172,56,17136,2,0,L|164:160,1,96,2|8,0:0|0:0,0:0:0:0:
324,96,17526,2,0,L|280:192,1,96,2|0,0:0|0:0,0:0:0:0:
448,188,17915,2,0,L|376:256,1,96,2|8,0:0|0:0,0:0:0:0:
512,320,18305,5,2,0:0:0:0:
320,320,18500,1,0,0:0:0:0:
320,320,18597,1,8,0:0:0:0:
320,320,18694,2,0,P|353:349|412:352,1,96,2|8,0:0|0:0,0:0:0:0:
240,336,19084,2,0,L|192:336,1,48,2|0,0:0|0:0,0:0:0:0:
132,292,19279,6,0,P|76:308|48:344,1,96,4|2,0:0|0:0,0:0:0:0:
72,216,19668,1,8,0:0:0:0:
72,216,19766,1,2,0:0:0:0:
72,216,19863,6,0,L|40:120,1,96,2|0,0:0|0:0,0:0:0:0:
176,196,20253,2,0,L|176:100,1,96,2|8,0:0|0:0,0:0:0:0:
280,212,20642,1,2,0:0:0:0:
280,212,20837,6,0,L|296:164,1,48
304,148,21032,2,0,L|320:100,1,48,0|0,0:0|0:0,0:0:0:0:
364,272,21227,6,0,L|404:232,1,48
420,216,21422,2,0,L|460:176,1,48
416,360,21616,6,0,L|464:348,1,48
292,356,21811,2,0,L|340:344,1,48
172,348,22006,2,0,L|220:336,1,48,4|0,0:2|0:0,0:0:0:0:
48,344,22201,2,0,L|96:332,1,48
128,252,22396,6,0,P|120:188|88:156,1,96,4|0,0:0|0:0,0:0:0:0:
168,28,22785,1,8,0:0:0:0:
168,28,22883,1,2,0:0:0:0:
168,28,22980,6,0,L|64:24,1,96,2|0,0:0|0:0,0:0:0:0:
224,112,23370,2,0,L|120:132,1,96,2|8,0:0|0:0,0:0:0:0:
312,168,23759,2,0,L|224:228,1,96,2|0,0:0|0:0,0:0:0:0:
412,192,24149,2,0,L|352:276,1,96,2|8,0:0|0:0,0:0:0:0:
512,180,24539,5,2,0:0:0:0:
396,56,24733,1,0,0:0:0:0:
396,56,24831,1,8,0:0:0:0:
396,56,24928,5,2,0:0:0:0:
216,76,25123,1,8,0:0:0:0:
304,40,25318,1,2,0:0:0:0:
484,20,25513,6,0,L|488:68,3,48,4|0|0|0,2:0|1:0|1:0|1:0,0:0:0:0:
396,56,25902,6,0,L|400:104,1,48,0|0,1:0|1:0,0:0:0:0:
304,40,26097,2,0,L|308:88,1,48,0|0,1:0|1:0,0:0:0:0:
252,156,26292,6,0,L|248:204,3,48,4|0|0|0,2:0|1:0|1:0|1:0,0:0:0:0:
340,192,26681,6,0,L|336:240,1,48,0|0,1:0|1:0,0:0:0:0:
432,176,26876,2,0,L|428:224,1,48,4|0,1:2|1:0,0:0:0:0:
460,308,27071,5,4,0:2:0:0:
428,304,27168,1,8,3:0:0:0:
396,308,27266,1,0,0:0:0:0:
368,324,27363,1,8,3:0:0:0:
348,352,27461,1,4,3:0:0:0:
240,324,27655,5,0,1:0:0:0:
240,324,27753,1,8,3:0:0:0:
96,332,27948,1,8,3:0:0:0:
96,332,28045,1,4,3:0:0:0:
164,264,28240,5,8,1:3:0:0:
168,232,28337,1,8,1:3:0:0:
160,200,28435,1,4,1:3:0:0:
136,176,28532,1,4,1:3:0:0:
104,164,28629,5,4,0:0:0:0:
24,56,28824,1,2,0:0:0:0:
120,68,29214,1,2,0:0:0:0:
212,40,29603,1,2,0:0:0:0:
308,52,29993,1,2,0:0:0:0:
400,20,30383,1,2,0:0:0:0:
496,32,30772,1,2,0:0:0:0:
456,108,30967,5,0,1:0:0:0:
368,108,31162,1,2,0:0:0:0:
456,108,31357,1,0,1:0:0:0:
496,32,31552,1,2,1:2:0:0:
456,108,31746,1,0,1:0:0:0:
496,184,31941,5,2,0:0:0:0:
400,196,32331,1,2,0:0:0:0:
308,168,32720,1,2,0:0:0:0:
212,180,33110,1,2,0:0:0:0:
120,148,33500,1,2,0:0:0:0:
24,160,33889,1,2,0:0:0:0:
84,232,34084,6,0,L|192:244,1,96,0|2,1:2|2:2,0:0:0:0:
120,148,34474,1,0,1:2:0:0:
24,160,34668,1,2,1:2:0:0:
84,232,34863,1,4,1:2:0:0:
24,304,35058,5,2,0:0:0:0:
24,304,35155,1,2,0:0:0:0:
120,316,35448,1,2,0:0:0:0:
212,288,35837,1,2,0:0:0:0:
212,288,35935,1,2,0:0:0:0:
308,300,36227,1,2,0:0:0:0:
400,268,36616,1,2,0:0:0:0:
400,268,36714,1,2,0:0:0:0:
496,280,37006,1,2,0:0:0:0:
436,356,37201,6,0,P|364:380|332:368,1,96,2|0,0:0|0:0,0:0:0:0:
312,372,37493,2,0,L|168:368,1,144,2|2,0:0|0:0,0:0:0:0:
72,196,37980,5,4,0:0:0:0:
56,292,38175,1,0,0:0:0:0:
148,260,38370,1,2,0:0:0:0:
156,132,38565,1,2,0:0:0:0:
160,148,38662,1,2,0:0:0:0:
164,164,38759,1,6,0:0:0:0:
240,100,38954,5,0,0:0:0:0:
256,196,39149,1,2,0:0:0:0:
164,164,39344,1,0,0:0:0:0:
328,136,39539,5,0,1:0:0:0:
360,136,39636,1,8,3:0:0:0:
392,148,39733,1,0,0:0:0:0:
416,168,39831,1,8,3:0:0:0:
432,196,39928,1,4,3:0:0:0:
412,288,40123,5,0,1:0:0:0:
412,288,40220,1,8,1:3:0:0:
256,196,40415,1,0,1:3:0:0:
256,196,40513,1,0,1:3:0:0:
312,284,40707,5,0,1:0:0:0:
288,308,40805,1,0,1:0:0:0:
260,324,40902,1,0,1:0:0:0:
228,328,41000,1,0,1:0:0:0:
196,324,41097,6,0,B|148:312|148:312|100:324,1,96,4|0,0:0|0:0,0:0:0:0:
52,168,41487,1,8,0:0:0:0:
356,340,41681,1,2,0:0:0:0:
336,332,41779,1,2,0:0:0:0:
316,324,41876,6,0,B|364:312|364:312|412:324,1,96,0|0,1:0|0:0,0:0:0:0:
460,168,42266,1,8,0:0:0:0:
368,240,42461,1,2,0:0:0:0:
388,232,42558,1,2,0:0:0:0:
408,224,42655,6,0,B|360:212|360:212|312:224,1,96,0|0,1:0|0:0,0:0:0:0:
256,64,43045,1,8,0:0:0:0:
144,240,43240,1,2,0:0:0:0:
124,232,43337,1,2,0:0:0:0:
104,224,43435,6,0,B|152:212|152:212|200:224,1,96,0|2,1:0|0:0,0:0:0:0:
256,64,43824,1,8,0:0:0:0:
256,288,44019,1,2,1:2:0:0:
40,272,44214,6,0,B|16:292|16:292|24:372,1,96,4|0,1:2|0:0,0:0:0:0:
168,364,44603,1,8,0:0:0:0:
456,304,44798,1,2,0:0:0:0:
464,288,44896,1,2,0:0:0:0:
472,272,44993,6,0,B|496:292|496:292|488:372,1,96,0|0,1:0|0:0,0:0:0:0:
344,364,45383,1,8,0:0:0:0:
384,148,45578,1,2,0:0:0:0:
376,132,45675,1,2,0:0:0:0:
368,116,45772,6,0,B|344:136|344:136|352:216,1,96,0|0,1:0|0:0,0:0:0:0:
256,268,46162,1,8,0:0:0:0:
128,148,46357,1,2,0:0:0:0:
136,132,46454,1,2,0:0:0:0:
144,116,46552,6,0,B|168:136|168:136|160:216,1,96,0|2,1:0|0:0,0:0:0:0:
256,268,46941,1,8,0:0:0:0:
256,108,47136,1,6,1:2:0:0:
404,40,47331,6,0,L|464:40,2,48,4|0|0,0:0|0:0|0:0,0:0:0:0:
456,112,47623,2,0,L|516:112,2,48,2|0|0,0:0|0:0|0:0,0:0:0:0:
404,180,47915,2,0,L|404:228,1,48,2|0,0:0|0:0,0:0:0:0:
308,340,48110,6,0,L|248:340,2,48,2|0|0,0:0|0:0|0:0,0:0:0:0:
256,268,48402,2,0,L|196:268,2,48,2|0|0,0:0|0:0|0:0,0:0:0:0:
308,200,48694,2,0,L|308:152,1,48,2|2,0:0|0:0,0:0:0:0:
208,12,48889,6,0,L|148:12,2,48,2|0|0,0:0|0:0|0:0,0:0:0:0:
156,84,49181,2,0,L|96:84,2,48,2|0|0,0:0|0:0|0:0,0:0:0:0:
208,152,49474,2,0,L|208:200,1,48,2|2,0:0|0:0,0:0:0:0:
108,344,49668,6,0,L|48:344,2,48,2|0|0,0:0|0:0|0:0,0:0:0:0:
56,272,49961,2,0,L|-4:272,2,48,2|0|0,0:0|0:0|0:0,0:0:0:0:
108,204,50253,2,0,L|108:156,1,48,2|2,0:0|0:0,0:0:0:0:
40,48,50448,5,4,1:2:0:0:
208,152,50642,1,4,1:2:0:0:
300,152,50837,5,4,1:2:0:0:
472,48,51032,1,4,1:2:0:0:
384,48,51227,5,4,1:2:0:0:
356,216,51422,1,4,1:2:0:0:
156,216,51616,5,4,1:2:0:0:
128,48,51811,1,4,1:2:0:0:
256,84,52006,5,4,0:0:0:0:
256,92,52103,1,0,0:0:0:0:
256,100,52201,1,0,0:0:0:0:
256,108,52298,1,0,0:0:0:0:
256,116,52396,1,0,0:0:0:0:
256,124,52493,1,0,0:0:0:0:
256,132,52590,1,0,0:0:0:0:
256,140,52688,1,0,0:0:0:0:
256,192,52785,5,4,0:0:0:0:
256,200,52883,1,0,0:0:0:0:
256,208,52980,1,0,0:0:0:0:
256,216,53078,1,0,0:0:0:0:
256,224,53175,1,0,0:0:0:0:
256,232,53272,1,0,0:0:0:0:
256,240,53370,1,0,0:0:0:0:
256,248,53467,1,0,0:0:0:0:
256,296,53565,6,0,B|288:348|344:340|344:340|396:296|456:328,1,216.000008239746,4|0,0:0|0:0,0:0:0:0:
508,364,53954,6,0,P|452:312|460:248,1,144.000005493164,0|0,1:0|3:0,0:0:0:0:
456,116,54344,6,0,P|484:92|508:92,5,48.0000018310548,4|4|4|4|4|4,3:0|3:0|3:0|3:0|3:0|3:0,0:0:0:0:
508,180,54733,6,0,P|416:192|392:56,1,240.000009155274,8|0,3:0|0:0,0:0:0:0:
296,112,55123,6,0,P|233:123|192:96,1,105.600003222656,6|2,0:0|0:0,0:0:0:0:
52,128,55513,1,8,0:0:0:0:
48,104,55610,1,2,0:0:0:0:
44,80,55707,5,2,0:0:0:0:
64,216,55902,1,0,0:0:0:0:
144,188,56097,1,2,0:0:0:0:
160,316,56292,1,8,0:0:0:0:
156,292,56389,1,2,0:0:0:0:
152,268,56487,5,2,0:0:0:0:
260,324,56681,1,0,0:0:0:0:
288,224,56876,1,2,0:0:0:0:
260,324,57071,1,8,0:0:0:0:
376,332,57266,1,2,0:0:0:0:
260,324,57461,1,0,0:0:0:0:
260,324,57558,1,8,0:0:0:0:
260,324,57655,1,2,0:0:0:0:
288,224,57850,2,0,L|320:104,1,105.600003222656,8|2,0:0|0:0,0:0:0:0:
168,44,58240,6,2,P|88:44|64:64,1,105.600003222656,4|2,0:0|0:0,0:0:0:0:
184,180,58629,1,8,0:0:0:0:
188,160,58727,1,2,0:0:0:0:
192,140,58824,5,2,0:0:0:0:
88,240,59019,1,0,0:0:0:0:
168,256,59214,5,2,0:0:0:0:
64,360,59409,1,8,0:0:0:0:
68,340,59506,1,2,0:0:0:0:
72,320,59603,5,2,0:0:0:0:
212,336,59798,5,0,0:0:0:0:
232,344,59896,1,0,0:0:0:0:
256,348,59993,5,0,0:0:0:0:
288,348,60090,1,0,0:0:0:0:
324,340,60188,5,0,0:0:0:0:
361,320,60285,1,0,0:0:0:0:
392,283,60383,5,0,0:0:0:0:
414,235,60480,1,0,0:0:0:0:
419,176,60578,5,0,0:0:0:0:
403,114,60675,1,0,0:0:0:0:
363,58,60772,5,0,0:0:0:0:
294,29,60870,1,0,0:0:0:0:
220,29,60967,5,0,0:0:0:0:
147,61,61065,1,0,0:0:0:0:
105,134,61162,5,0,0:0:0:0:
108,223,61259,1,0,0:0:0:0:
164,293,61357,6,0,P|213:308|269:296,1,105.600003222656,4|2,0:0|0:0,0:0:0:0:
296,156,61746,1,8,0:0:0:0:
292,128,61844,1,2,0:0:0:0:
288,100,61941,5,2,0:0:0:0:
308,232,62136,1,0,0:0:0:0:
404,116,62331,5,2,0:0:0:0:
424,248,62526,1,8,0:0:0:0:
420,220,62623,1,2,0:0:0:0:
416,192,62720,5,2,0:0:0:0:
308,232,62915,1,0,0:0:0:0:
323,335,63110,1,2,0:0:0:0:
308,232,63305,1,8,0:0:0:0:
191,224,63500,1,2,0:0:0:0:
308,232,63694,1,0,0:0:0:0:
308,232,63792,1,8,0:0:0:0:
308,232,63889,5,2,0:0:0:0:
294,148,64084,1,8,0:0:0:0:
191,224,64279,5,2,0:0:0:0:
205,307,64474,1,4,0:0:0:0:
71,180,64863,5,8,0:0:0:0:
85,263,65058,1,2,0:0:0:0:
85,263,65155,1,2,0:0:0:0:
85,263,65253,1,6,0:0:0:0:
176,100,65642,1,8,0:0:0:0:
176,100,65837,1,2,0:0:0:0:
64,80,66032,5,4,0:0:0:0:
256,28,66324,1,4,0:0:0:0:
448,80,66616,1,4,0:0:0:0:
336,100,66811,5,0,1:0:0:0:
336,100,66909,1,4,1:2:0:0:
336,100,67006,1,0,1:1:0:0:
328,232,67201,5,4,1:2:0:0:
340,268,67298,1,0,1:0:0:0:
368,292,67396,1,4,1:2:0:0:
404,304,67493,1,0,1:0:0:0:
440,300,67590,1,4,1:0:0:0:
256,192,67688,12,0,69052,0:0:0:0:
164,328,69149,5,4,0:0:0:0:
20,328,69441,1,2,0:0:0:0:
164,328,69733,2,0,L|164:280,1,48,2|0,0:0|0:0,0:0:0:0:
236,304,69928,5,2,0:0:0:0:
92,304,70220,1,2,0:0:0:0:
236,304,70513,2,0,L|236:256,1,48,2|0,0:0|0:0,0:0:0:0:
308,280,70707,5,6,0:0:0:0:
164,280,71000,1,2,0:0:0:0:
308,280,71292,2,0,L|308:232,1,48,2|2,0:0|0:0,0:0:0:0:
380,256,71487,5,6,0:0:0:0:
236,256,71779,1,2,0:0:0:0:
380,256,72071,2,0,L|380:208,1,48,2|2,0:0|0:0,0:0:0:0:
452,208,72266,6,0,L|452:268,2,48,6|0|0,0:0|0:0|0:0,0:0:0:0:
308,280,72558,1,2,0:0:0:0:
380,208,72850,2,0,L|380:160,1,48,2|0,0:0|0:0,0:0:0:0:
308,160,73045,6,0,L|308:220,2,48,2|0|0,0:0|0:0|0:0,0:0:0:0:
164,228,73337,1,2,0:0:0:0:
236,160,73629,2,0,L|236:112,1,48,2|2,0:0|0:0,0:0:0:0:
164,112,73824,6,0,L|164:172,2,48,6|0|0,0:0|0:0|0:0,0:0:0:0:
20,160,74116,1,2,0:0:0:0:
92,112,74409,2,0,L|92:64,1,48,2|2,0:0|0:0,0:0:0:0:
348,112,74603,6,0,L|348:172,2,48,6|2|0,0:0|0:0|0:0,0:0:0:0:
492,160,74896,1,2,0:0:0:0:
420,112,75188,2,0,L|420:64,1,48,2|2,0:0|0:0,0:0:0:0:
320,228,75383,5,4,0:0:0:0:
320,228,75480,2,0,P|320:280|348:320,1,96,2|2,0:0|0:0,0:0:0:0:
424,328,75772,1,8,0:0:0:0:
256,364,75967,2,0,L|256:308,1,48,2|0,0:0|0:0,0:0:0:0:
192,228,76162,5,0,0:0:0:0:
192,228,76259,2,0,P|192:280|164:320,1,96,2|2,0:0|0:0,0:0:0:0:
88,328,76552,1,8,0:0:0:0:
256,364,76746,2,0,L|256:308,1,48,2|2,0:0|0:0,0:0:0:0:
208,144,76941,5,0,0:0:0:0:
208,144,77039,2,0,L|304:144,1,96,2|2,0:0|0:0,0:0:0:0:
304,144,77331,1,8,0:0:0:0:
256,316,77526,2,0,L|256:260,1,48,2|0,0:0|0:0,0:0:0:0:
176,48,77720,5,0,0:0:0:0:
212,48,77818,2,0,B|256:28|256:28|300:48,1,96,2|2,0:0|0:0,0:0:0:0:
336,48,78110,1,8,0:0:0:0:
256,268,78305,2,0,L|256:212,1,48,2|0,0:0|0:0,0:0:0:0:
464,236,78500,5,4,1:2:0:0:
176,288,78694,1,4,1:2:0:0:
84,156,78889,5,4,1:2:0:0:
96,308,79084,1,4,1:2:0:0:
48,236,79279,5,4,1:2:0:0:
336,288,79474,1,4,1:2:0:0:
428,156,79668,5,4,1:2:0:0:
416,308,79863,1,4,1:2:0:0:
256,272,80058,5,4,0:2:0:0:
256,264,80155,1,4,0:2:0:0:
256,256,80253,1,4,0:2:0:0:
256,248,80350,1,4,0:2:0:0:
256,240,80448,1,4,0:2:0:0:
256,232,80545,1,4,0:2:0:0:
256,224,80642,1,4,0:2:0:0:
256,216,80740,1,4,0:2:0:0:
256,168,80837,5,4,0:0:0:0:
240,149,80935,1,0,0:0:0:0:
239,125,81032,1,0,0:0:0:0:
253,106,81129,1,0,0:0:0:0:
272,92,81227,1,0,0:0:0:0:
280,69,81324,1,0,0:0:0:0:
276,45,81422,1,0,0:0:0:0:
261,25,81519,1,0,0:0:0:0:
238,17,81616,6,0,B|205:28|205:28|161:19,1,72
152,92,82006,5,4,0:0:0:0:
12,68,82201,1,2,0:0:0:0:
60,200,82396,1,0,0:0:0:0:
76,120,82590,5,2,0:0:0:0:
88,352,82785,1,8,0:0:0:0:
176,292,82980,1,2,0:0:0:0:
196,312,83078,1,0,0:0:0:0:
216,332,83175,5,0,0:0:0:0:
352,332,83370,1,2,0:0:0:0:
424,272,83565,5,8,0:0:0:0:
264,272,83759,1,2,0:0:0:0:
212,212,83954,5,0,0:0:0:0:
348,212,84149,1,2,0:0:0:0:
452,152,84344,5,8,0:0:0:0:
264,152,84539,1,2,0:0:0:0:
196,52,84733,6,0,B|141:63|141:63|92:36,1,105.600003222656,4|2,0:0|0:0,0:0:0:0:
44,148,85123,1,8,0:0:0:0:
180,128,85318,1,2,0:0:0:0:
132,252,85513,1,0,0:0:0:0:
120,176,85707,5,2,0:0:0:0:
148,376,85902,1,8,0:0:0:0:
352,344,86097,2,0,L|352:288,1,52.8000016113282,2|0,0:0|0:0,0:0:0:0:
275,348,86292,5,0,0:0:0:0:
253,345,86389,1,0,0:0:0:0:
231,336,86487,5,0,0:0:0:0:
203,319,86584,1,0,0:0:0:0:
177,294,86681,5,0,0:0:0:0:
155,257,86779,1,0,0:0:0:0:
148,210,86876,5,0,0:0:0:0:
154,157,86974,1,0,0:0:0:0:
180,104,87071,5,0,0:0:0:0:
228,59,87168,1,0,0:0:0:0:
296,37,87266,5,0,0:0:0:0:
370,47,87363,1,0,0:0:0:0:
436,85,87461,5,0,0:0:0:0:
474,157,87558,1,0,0:0:0:0:
473,241,87655,5,4,0:2:0:0:
424,316,87753,1,0,0:0:0:0:
352,344,87850,6,0,B|332:292|332:292|328:232,1,105.600003222656,4|2,0:0|0:0,0:0:0:0:
335,84,88240,1,8,0:0:0:0:
251,204,88435,1,2,0:0:0:0:
408,208,88629,1,2,0:0:0:0:
332,168,88824,5,2,0:0:0:0:
22,159,89019,1,8,0:0:0:0:
44,234,89214,5,2,0:0:0:0:
39,81,89409,1,0,0:0:0:0:
122,308,89603,5,2,0:0:0:0:
101,132,89798,1,8,0:0:0:0:
227,364,89993,5,2,0:0:0:0:
169,179,90188,1,0,0:0:0:0:
345,384,90383,5,2,0:0:0:0:
247,211,90578,1,8,0:0:0:0:
460,349,90772,5,2,0:0:0:0:
472,325,90870,1,2,0:0:0:0:
485,302,90967,2,0,L|375:310,1,105.600003222656,4|0,0:0|0:0,0:0:0:0:
352,120,91357,2,0,L|462:112,1,105.600003222656,8|2,0:0|0:0,0:0:0:0:
484,120,91649,1,2,0:0:0:0:
457,127,91746,6,0,L|352:120,1,105.600003222656,4|0,0:0|0:0,0:0:0:0:
160,120,92136,2,0,L|54:127,1,105.600003222656,8|0,1:2|1:0,0:0:0:0:
4,192,92526,5,4,1:2:0:0:
256,260,92818,1,4,1:2:0:0:
508,192,93110,1,4,1:2:0:0:
368,196,93305,5,0,1:0:0:0:
332,188,93402,1,4,1:2:0:0:
300,168,93500,1,0,1:0:0:0:
272,140,93597,1,0,1:0:0:0:
256,104,93694,1,4,1:2:0:0:
240,140,93792,1,0,1:0:0:0:
212,168,93889,1,4,1:2:0:0:
180,188,93987,1,0,1:0:0:0:
144,196,94084,5,4,0:0:0:0:
80,268,94279,1,0,0:0:0:0:
172,288,94474,1,2,0:0:0:0:
20,96,94668,5,2,0:0:0:0:
120,64,95058,1,2,0:0:0:0:
220,92,95448,1,0,0:0:0:0:
312,144,95837,1,2,0:0:0:0:
416,140,96227,1,2,0:0:0:0:
496,72,96616,1,2,0:0:0:0:
419,187,96811,6,0,L|416:140,1,48,2|2,0:0|0:0,0:0:0:0:
488,288,97201,1,2,0:0:0:0:
264,336,97785,5,2,0:0:0:0:
236,336,97883,1,0,0:0:0:0:
208,332,97980,1,2,0:0:0:0:
60,100,98565,5,2,0:0:0:0:
192,116,98954,1,2,0:0:0:0:
112,224,99344,1,2,0:0:0:0:
48,180,99539,5,0,0:0:0:0:
132,72,99733,1,2,0:0:0:0:
184,192,99928,1,2,0:0:0:0:
48,180,100123,1,2,0:0:0:0:
120,148,100318,5,4,2:1:0:0:
