osu file format v13

[General]
AudioFilename: 15 - New Gravity.mp3
AudioLeadIn: 0
PreviewTime: 55123
Countdown: 1
SampleSet: Soft
StackLeniency: 0.7
Mode: 0
LetterboxInBreaks: 1
WidescreenStoryboard: 1

[Editor]
DistanceSpacing: 1
BeatDivisor: 6
GridSize: 4
TimelineZoom: 1

[Metadata]
Title:New Gravity
TitleUnicode:New Gravity
Artist:Starving Trancer
ArtistUnicode:Starving Trancer
Creator:fanzhen0019
Version:Difficult
Source:Dance Dance Revolution 2013
Tags:DDR jubeat saucer Yusuke Ceo
BeatmapID:450078
BeatmapSetID:188877

[Difficulty]
HPDrainRate:6
CircleSize:4
OverallDifficulty:6
ApproachRate:8
SliderMultiplier:1.6
SliderTickRate:1

[Events]
//Background and Video events
0,0,"1234.jpg",0,0
//Break Periods
//Storyboard Layer 0 (Background)
//Storyboard Layer 1 (Fail)
//Storyboard Layer 2 (Pass)
//Storyboard Layer 3 (Foreground)
//Storyboard Sound Samples
//Background Colour Transformations
3,100,163,162,255

[TimingPoints]
578,389.61038961039,4,2,0,50,1,0
578,-200,4,2,0,50,0,0
6811,-133.333333333333,4,2,0,60,0,0
15285,-100,4,2,0,70,0,0
20837,-100,4,1,0,30,0,0
21032,-100,4,1,0,35,0,0
21227,-100,4,1,0,40,0,0
21422,-100,4,1,0,45,0,0
21616,-100,4,1,0,50,0,0
21811,-100,4,1,0,55,0,0
22006,-100,4,1,0,60,0,0
22201,-100,4,1,0,65,0,0
22396,-100,4,2,0,70,0,0
52006,-100,4,1,0,50,0,0
53565,-66.6666666666667,4,2,0,70,0,0
54344,-66.6666666666667,4,2,0,30,0,0
54409,-66.6666666666667,4,2,0,40,0,0
54474,-66.6666666666667,4,2,0,50,0,0
54539,-66.6666666666667,4,2,0,60,0,0
54603,-66.6666666666667,4,2,0,70,0,0
55123,-90.9090909090909,4,2,0,70,0,1
59798,-90.9090909090909,4,1,0,30,0,1
59993,-90.9090909090909,4,1,0,35,0,1
60188,-90.9090909090909,4,1,0,40,0,1
60383,-90.9090909090909,4,1,0,45,0,1
60578,-90.9090909090909,4,1,0,50,0,1
60772,-90.9090909090909,4,1,0,55,0,1
60967,-90.9090909090909,4,1,0,60,0,1
61162,-90.9090909090909,4,1,0,65,0,1
61357,-90.9090909090909,4,2,0,70,0,1
67590,-100,4,2,0,70,0,0
80058,-100,4,1,0,50,0,0
81616,-200,4,2,0,70,0,1
81714,-200,4,2,0,70,0,0
82006,-90.9090909090909,4,2,0,80,0,1
86292,-90.9090909090909,4,1,0,30,0,1
86487,-90.9090909090909,4,1,0,35,0,1
86681,-90.9090909090909,4,1,0,40,0,1
86876,-90.9090909090909,4,1,0,45,0,1
87071,-90.9090909090909,4,1,0,50,0,1
87266,-90.9090909090909,4,1,0,55,0,1
87461,-90.9090909090909,4,1,0,60,0,1
87655,-90.9090909090909,4,1,0,70,0,1
87850,-90.9090909090909,4,2,0,80,0,1
94084,-200,4,2,0,50,0,0

[Colours]
Combo1 : 255,255,128
Combo2 : 0,255,128
Combo3 : 0,128,255
Combo4 : 255,128,255

[HitObjects]
477,315,578,6,0,P|438:319|400:308,1,80,4|2,0:0|0:0,0:0:0:0:
336,248,1162,5,2,0:0:0:0:
208,268,1552,1,2,0:0:0:0:
140,376,1941,1,0,0:0:0:0:
40,296,2331,1,2,0:0:0:0:
108,188,2720,1,2,0:0:0:0:
208,268,3110,1,2,0:0:0:0:
292,252,3305,2,0,L|308:208,1,40,2|0,0:0|0:0,0:0:0:0:
352,92,3694,6,0,P|396:79|440:92,1,80,2|2,0:0|0:0,0:0:0:0:
492,128,4279,5,2,0:0:0:0:
428,236,4668,1,2,0:0:0:0:
492,348,5058,1,0,0:0:0:0:
364,348,5448,1,2,0:0:0:0:
300,236,5837,1,2,0:0:0:0:
428,236,6227,1,2,0:0:0:0:
364,348,6616,1,2,0:0:0:0:
284,320,6811,6,0,L|192:320,1,90.0000034332276,0|0,1:0|0:0,0:0:0:0:
168,320,7201,2,0,L|104:320,1,60.0000022888184,0|0,1:0|1:0,0:0:0:0:
12,184,7785,1,0,1:0:0:0:
96,184,7980,2,0,L|172:184,1,60.0000022888184,0|0,1:0|0:0,0:0:0:0:
228,140,8370,5,0,1:0:0:0:
312,156,8565,1,0,1:0:0:0:
284,76,8759,1,0,1:0:0:0:
368,92,8954,2,0,L|492:92,1,120.000004577637,0|0,1:0|1:0,0:0:0:0:
496,212,9539,2,0,P|468:180|468:156,1,60.0000022888184,0|0,1:0|0:0,0:0:0:0:
388,196,9928,6,0,P|416:256|464:292,1,120.000004577637,0|0,1:0|1:0,0:0:0:0:
392,344,10513,2,0,L|344:344,2,30.0000011444092,0|0|0,1:0|0:0|0:0,0:0:0:0:
284,344,10902,1,0,1:0:0:0:
236,280,11097,1,0,1:0:0:0:
160,312,11292,6,0,L|40:312,2,120.000004577637,0|0|0,1:0|1:0|1:0,0:0:0:0:
236,280,12266,2,0,L|252:216,1,60.0000022888184,2|2,1:2|0:2,0:0:0:0:
172,192,12655,2,0,L|156:128,1,60.0000022888184,2|2,1:2|0:2,0:0:0:0:
224,84,13045,5,4,0:0:0:0:
308,84,13240,1,2,0:0:0:0:
476,84,13629,1,2,0:0:0:0:
308,84,14019,1,2,0:0:0:0:
476,84,14409,1,2,0:0:0:0:
420,148,14603,6,0,L|428:184,3,30.0000011444092,4|8|8|8,0:0|3:0|3:0|3:0,0:0:0:0:
444,160,14993,2,0,P|452:212|440:256,1,90.0000034332276,4|4,3:0|3:0,0:0:0:0:
428,276,15383,6,0,L|344:264,1,80,0|0,0:0|1:0,0:0:0:0:
296,336,15772,2,0,L|380:348,1,80,0|0,1:0|1:0,0:0:0:0:
264,252,16162,5,4,0:0:0:0:
188,296,16357,1,2,0:0:0:0:
188,208,16552,1,8,0:0:0:0:
112,256,16746,2,0,P|84:184|116:112,1,160,2|2,0:0|0:0,0:0:0:0:
132,24,17331,1,8,0:0:0:0:
208,72,17526,6,0,P|272:80|348:28,3,160,2|2|2|0,0:0|0:0|0:0|0:0,0:0:0:0:
432,48,18889,2,0,L|436:132,1,80,8|2,0:0|0:0,0:0:0:0:
376,192,19279,5,4,0:0:0:0:
424,268,19474,1,2,0:0:0:0:
336,268,19668,1,8,0:0:0:0:
380,344,19863,2,0,P|304:364|236:328,1,160,2|2,0:0|0:0,0:0:0:0:
152,296,20448,2,0,L|64:308,1,80,8|2,0:0|0:0,0:0:0:0:
220,248,20837,6,0,L|236:200,3,40,0|0|0|0,0:0|0:0|0:0|0:0,0:0:0:0:
188,200,21227,6,0,L|192:152,3,40,0|0|0|0,0:0|0:0|0:0|0:0,0:0:0:0:
148,172,21616,6,0,L|140:128,3,40,0|0|0|0,0:0|0:0|0:0|0:0,0:0:0:0:
100,152,22006,6,0,L|84:116,3,40,4|0|0|0,0:2|0:0|0:0|0:0,0:0:0:0:
48,144,22396,5,4,0:0:0:0:
36,232,22590,1,0,0:0:0:0:
116,200,22785,1,8,0:0:0:0:
104,288,22980,2,0,P|176:316|256:284,1,160,2|2,0:0|0:0,0:0:0:0:
340,296,23565,1,8,0:0:0:0:
304,216,23759,6,0,P|296:152|356:72,3,160,2|2|2|2,0:0|0:0|0:0|0:0,0:0:0:0:
436,96,25123,2,0,P|432:48|412:15,1,80,8|2,0:0|0:0,0:0:0:0:
500,156,25513,5,4,2:0:0:0:
500,156,25902,1,0,1:0:0:0:
508,244,26097,2,0,L|512:284,2,40,0|0|4,1:0|1:0|2:0,0:0:0:0:
508,244,26681,1,0,1:0:0:0:
420,212,26876,1,0,1:0:0:0:
332,216,27071,6,0,L|288:204,3,40,0|8|0|8,0:0|3:0|0:0|3:0,0:0:0:0:
308,232,27461,2,0,P|316:272|272:348,1,120,4|0,3:0|1:0,0:0:0:0:
256,352,27850,6,0,L|164:352,1,80,4|0,0:2|1:0,0:0:0:0:
28,296,28240,2,0,L|120:296,1,80,4|0,1:2|1:0,0:0:0:0:
192,272,28629,1,4,0:0:0:0:
132,208,28824,5,2,0:0:0:0:
28,88,29214,1,2,0:0:0:0:
188,64,29603,1,2,0:0:0:0:
296,184,29993,1,2,0:0:0:0:
132,208,30383,1,2,0:0:0:0:
28,88,30772,5,2,0:0:0:0:
112,96,30967,1,0,1:0:0:0:
188,64,31162,1,2,0:0:0:0:
272,72,31357,1,0,1:0:0:0:
348,40,31552,1,2,1:2:0:0:
428,48,31746,1,0,1:0:0:0:
500,16,31941,5,2,0:0:0:0:
476,168,32331,1,2,0:0:0:0:
332,192,32720,1,2,0:0:0:0:
348,40,33110,1,2,0:0:0:0:
500,16,33500,1,2,0:0:0:0:
476,168,33889,1,2,0:0:0:0:
412,216,34084,6,0,P|428:248|424:292,1,80,0|2,1:2|2:2,0:0:0:0:
332,192,34474,2,0,P|316:160|320:112,1,80,0|2,1:2|1:2,0:0:0:0:
396,140,34863,1,4,1:2:0:0:
332,192,35058,5,2,0:0:0:0:
172,180,35448,1,2,0:0:0:0:
60,292,35837,1,2,0:0:0:0:
220,304,36227,1,2,0:0:0:0:
332,192,36616,1,2,0:0:0:0:
172,180,37006,1,2,0:0:0:0:
252,168,37201,6,0,P|264:120|240:52,1,120,2|0,0:0|0:0,0:0:0:0:
220,44,37590,2,0,L|136:44,1,80,2|2,0:0|0:0,0:0:0:0:
56,28,37980,5,4,0:0:0:0:
56,28,38370,1,2,0:0:0:0:
76,120,38565,2,0,L|84:168,2,40,2|2|2,0:0|0:0|0:0,0:0:0:0:
76,120,39149,1,2,0:0:0:0:
164,144,39344,1,0,0:0:0:0:
252,168,39539,6,0,L|296:160,3,40,0|8|0|8,1:0|3:0|0:0|3:0,0:0:0:0:
276,180,39928,2,0,P|272:224|312:288,1,120,4|0,3:0|1:0,0:0:0:0:
332,292,40318,6,0,L|412:288,1,80,4|0,0:2|1:0,0:0:0:0:
264,348,40707,2,0,L|184:352,1,80,4|0,1:2|1:0,0:0:0:0:
116,308,41097,5,4,0:0:0:0:
28,300,41292,1,0,0:0:0:0:
80,232,41487,1,8,0:0:0:0:
112,120,41681,6,0,L|96:80,2,40,2|2|0,0:0|0:0|1:0,0:0:0:0:
192,160,42071,1,0,0:0:0:0:
188,72,42266,1,8,0:0:0:0:
312,84,42461,6,0,L|308:40,2,40,2|2|0,0:0|0:0|1:0,0:0:0:0:
352,160,42850,1,0,0:0:0:0:
400,88,43045,1,8,0:0:0:0:
456,192,43240,6,0,L|480:152,2,40,2|2|0,0:0|0:0|1:0,0:0:0:0:
424,276,43629,1,2,0:0:0:0:
512,260,43824,1,8,0:0:0:0:
424,276,44019,1,2,1:2:0:0:
360,336,44214,6,0,P|319:344|276:336,1,80,4|0,1:2|0:0,0:0:0:0:
204,296,44603,1,8,0:0:0:0:
88,232,44798,6,0,L|32:236,2,40,2|2|0,0:0|0:0|1:0,0:0:0:0:
172,208,45188,1,0,0:0:0:0:
108,144,45383,1,8,0:0:0:0:
208,96,45578,6,0,L|156:80,2,40,2|2|0,0:0|0:0|1:0,0:0:0:0:
296,104,45967,1,0,0:0:0:0:
260,24,46162,1,8,0:0:0:0:
404,80,46357,6,0,L|372:48,2,40,2|2|0,0:0|0:0|1:0,0:0:0:0:
480,124,46746,1,2,0:0:0:0:
488,36,46941,1,8,0:0:0:0:
480,124,47136,1,6,1:2:0:0:
420,216,47331,6,0,P|384:240|308:228,1,120,4|2,0:0|0:0,0:0:0:0:
156,160,47915,1,2,0:0:0:0:
92,216,48110,6,0,P|128:240|204:228,1,120,2|2,0:0|0:0,0:0:0:0:
356,160,48694,1,2,0:0:0:0:
420,216,48889,6,0,P|384:240|308:228,1,120,2|2,0:0|0:0,0:0:0:0:
156,160,49474,1,2,0:0:0:0:
92,216,49668,6,0,P|128:240|204:228,1,120,2|2,0:0|0:0,0:0:0:0:
356,160,50253,1,2,0:0:0:0:
288,100,50448,5,4,1:2:0:0:
372,76,50642,1,4,1:2:0:0:
440,132,50837,1,4,1:2:0:0:
356,160,51032,1,4,1:2:0:0:
372,248,51227,5,4,1:2:0:0:
288,224,51422,1,4,1:2:0:0:
220,280,51616,1,4,1:2:0:0:
304,308,51811,1,4,1:2:0:0:
388,336,52006,6,0,L|432:336,7,40,0|0|0|0|0|0|0|0,0:0|0:0|0:0|0:0|0:0|0:0|0:0|0:0,0:0:0:0:
452,328,52785,6,0,L|496:328,7,40,0|0|0|0|0|0|0|0,0:0|0:0|0:0|0:0|0:0|0:0|0:0|0:0,0:0:0:0:
508,316,53565,6,0,B|456:288|460:228|460:228|436:196|392:204,1,180.000006866455,4|0,0:0|0:0,0:0:0:0:
360,220,53954,6,0,P|324:236|244:208,1,120.000004577637,0|0,1:0|3:0,0:0:0:0:
200,276,54344,6,0,L|156:280,5,40.000001525879,0|0|0|0|0|0,0:0|0:0|0:0|0:0|0:0|0:0,0:0:0:0:
108,260,54733,2,0,P|88:216|184:212,1,180.000006866455,8|0,3:0|0:0,0:0:0:0:
200,276,55123,6,0,B|224:288|224:288|296:284,1,88.0000026855469,6|2,0:0|0:0,0:0:0:0:
352,340,55513,1,8,0:0:0:0:
440,332,55707,2,0,P|476:304|484:256,1,88.0000026855469,2|0,0:0|0:0,0:0:0:0:
392,260,56097,2,0,P|408:216|392:176,1,88.0000026855469,2|8,0:0|0:0,0:0:0:0:
316,216,56487,6,0,P|296:136|336:44,1,176.000005371094,2|2,0:0|0:0,0:0:0:0:
408,32,57071,1,8,0:0:0:0:
484,64,57266,2,0,P|504:144|472:240,1,176.000005371094,2|2,0:0|0:0,0:0:0:0:
440,348,57850,2,0,B|416:336|416:336|344:340,1,88.0000026855469,8|2,0:0|0:0,0:0:0:0:
312,276,58240,6,0,B|288:288|288:288|216:284,1,88.0000026855469,4|2,0:0|0:0,0:0:0:0:
160,340,58629,1,8,0:0:0:0:
72,332,58824,2,0,P|36:304|28:256,1,88.0000026855469,2|0,0:0|0:0,0:0:0:0:
120,260,59214,2,0,P|104:216|120:176,1,88.0000026855469,2|8,0:0|0:0,0:0:0:0:
117,179,59603,1,2,0:0:0:0:
116,76,59798,6,0,P|112:52|100:28,3,44.0000013427735,0|0|0|0,0:0|0:0|0:0|0:0,0:0:0:0:
156,84,60188,6,0,P|168:60|168:32,3,44.0000013427735,0|0|0|0,0:0|0:0|0:0|0:0,0:0:0:0:
184,104,60578,6,0,P|204:92|220:64,3,44.0000013427735,0|0|0|0,0:0|0:0|0:0|0:0,0:0:0:0:
204,136,60967,6,0,P|228:132|244:116,3,44.0000013427735,0|0|0|0,0:0|0:0|0:0|0:0,0:0:0:0:
212,172,61357,6,0,B|240:168|240:168|312:188,1,88.0000026855469,4|2,0:0|0:0,0:0:0:0:
384,176,61746,1,8,0:0:0:0:
448,240,61941,2,0,P|408:268|364:264,1,88.0000026855469,2|0,0:0|0:0,0:0:0:0:
228,296,62331,2,0,P|276:300|312:328,1,88.0000026855469,2|8,0:0|0:0,0:0:0:0:
244,380,62720,6,0,B|152:384|172:328|68:332,1,176.000005371094,2|2,0:0|0:0,0:0:0:0:
0,292,63305,1,8,0:0:0:0:
80,256,63500,2,0,B|172:260|152:204|256:208,1,176.000005371094,2|2,0:0|0:0,0:0:0:0:
340,184,64084,5,8,0:0:0:0:
368,100,64279,1,2,0:0:0:0:
428,164,64474,1,4,0:0:0:0:
428,164,64863,1,8,0:0:0:0:
400,248,65058,2,0,L|412:296,2,44.0000013427735,2|2|6,0:0|0:0|0:0,0:0:0:0:
400,248,65642,1,8,0:0:0:0:
340,184,65837,1,2,0:0:0:0:
260,232,66032,6,0,L|120:228,2,132.00000402832,4|4|4,0:0|0:0|0:0,0:0:0:0:
324,316,66811,5,0,1:0:0:0:
236,312,67006,1,0,1:0:0:0:
148,308,67201,1,0,1:0:0:0:
60,304,67396,1,0,1:0:0:0:
128,228,67590,5,4,1:0:0:0:
92,248,69149,6,0,P|128:272|204:260,1,120,4|2,0:0|0:0,0:0:0:0:
356,192,69733,1,2,0:0:0:0:
420,248,69928,6,0,P|380:276|308:264,1,120,2|2,0:0|0:0,0:0:0:0:
156,192,70513,1,2,0:0:0:0:
92,136,70707,6,0,P|128:112|204:124,1,120,6|2,0:0|0:0,0:0:0:0:
356,192,71292,1,2,0:0:0:0:
420,136,71487,6,0,P|384:112|308:124,1,120,6|2,0:0|0:0,0:0:0:0:
156,192,72071,1,2,0:0:0:0:
92,248,72266,6,0,P|128:272|204:260,1,120,6|2,0:0|0:0,0:0:0:0:
356,192,72850,1,2,0:0:0:0:
420,248,73045,6,0,P|384:272|308:260,1,120,2|2,0:0|0:0,0:0:0:0:
156,192,73629,1,2,0:0:0:0:
92,136,73824,6,0,P|128:112|204:124,1,120,6|2,0:0|0:0,0:0:0:0:
356,192,74409,1,2,0:0:0:0:
420,136,74603,6,0,P|384:112|308:124,1,120,6|2,0:0|0:0,0:0:0:0:
156,192,75188,1,2,0:0:0:0:
92,248,75383,6,0,P|120:296|116:368,1,120,4|2,0:0|0:0,0:0:0:0:
356,192,75967,1,2,0:0:0:0:
420,248,76162,6,0,P|392:296|396:368,1,120,2|2,0:0|0:0,0:0:0:0:
156,192,76746,1,2,0:0:0:0:
204,128,76941,6,0,P|200:80|144:32,1,120,2|2,0:0|0:0,0:0:0:0:
356,192,77526,1,2,0:0:0:0:
308,128,77720,6,0,P|312:80|368:32,1,120,2|2,0:0|0:0,0:0:0:0:
256,192,78305,1,2,0:0:0:0:
204,252,78500,5,4,1:2:0:0:
308,252,78694,1,4,1:2:0:0:
204,260,78889,5,4,1:2:0:0:
308,260,79084,1,4,1:2:0:0:
204,268,79279,5,4,1:2:0:0:
308,268,79474,1,4,1:2:0:0:
204,276,79668,5,4,1:2:0:0:
308,276,79863,1,4,1:2:0:0:
204,284,80058,6,0,L|204:328,3,40,4|4|4|4,0:2|0:2|0:2|0:2,0:0:0:0:
192,348,80448,2,0,L|240:360,3,40,4|4|4|4,0:2|0:2|0:2|0:2,0:0:0:0:
281,357,80837,6,0,L|320:348,3,40,0|0|0|0,0:0|0:0|0:0|0:0,0:0:0:0:
308,324,81227,2,0,L|308:284,3,40,0|0|0|0,0:0|0:0|0:0|0:0,0:0:0:0:
308,276,81616,6,0,B|336:264|336:264|372:276,1,60,0|0,0:0|0:0,0:0:0:0:
392,284,82006,6,0,B|416:292|416:292|480:284,1,88.0000026855469,4|2,0:0|0:0,0:0:0:0:
388,152,82396,1,0,0:0:0:0:
468,188,82590,2,0,P|476:140|460:100,1,88.0000026855469,2|8,0:0|0:0,0:0:0:0:
360,48,82980,6,0,P|280:16|184:32,1,176.000005371094,2|2,0:0|0:0,0:0:0:0:
56,52,83565,1,8,0:0:0:0:
84,128,83759,2,0,P|172:144|255:110,1,176.000005371094,2|2,0:0|0:0,0:0:0:0:
332,156,84344,2,0,L|316:256,1,88.0000026855469,8|2,0:0|0:0,0:0:0:0:
304,328,84733,6,0,B|280:320|280:320|216:328,1,88.0000026855469,4|2,0:0|0:0,0:0:0:0:
120,284,85123,2,0,B|96:292|96:292|32:284,1,88.0000026855469,8|2,0:0|0:0,0:0:0:0:
124,152,85513,1,0,0:0:0:0:
44,188,85707,2,0,P|36:140|52:100,1,88.0000026855469,2|8,0:0|0:0,0:0:0:0:
124,152,86097,1,2,0:0:0:0:
208,112,86292,6,0,P|212:88|208:60,3,44.0000013427735,0|0|0|0,0:0|0:0|0:0|0:0,0:0:0:0:
260,100,86681,6,0,P|257:75|246:49,3,44.0000013427735,0|0|0|0,0:0|0:0|0:0|0:0,0:0:0:0:
312,80,87071,6,0,P|303:57|286:34,3,44.0000013427735,0|0|0|0,0:0|0:0|0:0|0:0,0:0:0:0:
351,43,87461,6,0,P|336:23|314:6,3,44.0000013427735,0|0|4|0,0:0|0:0|0:2|0:0,0:0:0:0:
380,4,87850,6,0,P|436:32|468:32,1,88.0000026855469,4|2,0:0|0:0,0:0:0:0:
508,108,88240,1,8,0:0:0:0:
508,108,88435,2,0,P|508:156|488:192,1,88.0000026855469,2|2,0:0|0:0,0:0:0:0:
416,252,88824,2,0,P|396:217|396:168,1,88.0000026855469,2|8,0:0|0:0,0:0:0:0:
472,328,89214,6,0,P|408:344|324:272,1,176.000005371094,2|2,0:0|0:0,0:0:0:0:
176,196,89798,1,8,0:0:0:0:
185,280,89993,2,0,P|124:339|40:328,1,176.000005371094,2|2,0:0|0:0,0:0:0:0:
24,240,90578,2,0,P|20:192|36:144,1,88.0000026855469,8|2,0:0|0:0,0:0:0:0:
30,154,90870,1,2,0:0:0:0:
30,154,90967,5,4,0:0:0:0:
188,76,91357,1,8,0:0:0:0:
108,116,91552,1,2,0:0:0:0:
108,116,91649,1,2,0:0:0:0:
108,116,91746,5,4,0:0:0:0:
264,36,92136,1,8,1:2:0:0:
188,76,92331,1,0,1:0:0:0:
260,124,92526,6,0,L|400:128,2,132.00000402832,4|4|4,1:2|1:2|1:2,0:0:0:0:
192,196,93305,5,0,1:0:0:0:
280,200,93500,1,0,1:0:0:0:
368,204,93694,1,0,1:0:0:0:
456,208,93889,1,0,1:0:0:0:
488,292,94084,6,0,P|452:312|400:312,1,80,4|2,0:0|0:0,0:0:0:0:
344,288,94668,5,2,0:0:0:0:
228,312,95058,1,2,0:0:0:0:
112,288,95448,1,0,0:0:0:0:
36,192,95837,1,2,0:0:0:0:
52,72,96227,1,2,0:0:0:0:
52,72,96616,5,2,0:0:0:0:
132,60,96811,1,2,0:0:0:0:
212,76,97006,1,2,0:0:0:0:
272,128,97201,1,2,0:0:0:0:
176,280,97785,6,0,L|172:316,2,20,2|0|2,0:0|0:0|0:0,0:0:0:0:
364,184,98565,6,0,P|400:172|444:180,2,80,2|2|2,0:0|0:0|0:0,0:0:0:0:
291,148,99539,5,0,0:0:0:0:
356,104,99733,1,2,0:0:0:0:
432,98,99928,1,2,0:0:0:0:
501,128,100123,1,2,0:0:0:0:
440,178,100318,5,4,2:1:0:0:
