osu file format v13

[General]
AudioFilename: 15 - New Gravity.mp3
AudioLeadIn: 0
PreviewTime: 55123
Countdown: 1
SampleSet: Soft
StackLeniency: 0.7
Mode: 0
LetterboxInBreaks: 1
WidescreenStoryboard: 1

[Editor]
DistanceSpacing: 1.2
BeatDivisor: 4
GridSize: 4
TimelineZoom: 1

[Metadata]
Title:New Gravity
TitleUnicode:New Gravity
Artist:Starving Trancer
ArtistUnicode:Starving Trancer
Creator:fanzhen0019
Version:Beginner
Source:Dance Dance Revolution 2013
Tags:DDR jubeat saucer Yusuke Ceo
BeatmapID:450077
BeatmapSetID:188877

[Difficulty]
HPDrainRate:2
CircleSize:2
OverallDifficulty:2
ApproachRate:2
SliderMultiplier:1
SliderTickRate:1

[Events]
//Background and Video events
0,0,"1234.jpg",0,0
//Break Periods
//Storyboard Layer 0 (Background)
//Storyboard Layer 1 (Fail)
//Storyboard Layer 2 (Pass)
//Storyboard Layer 3 (Foreground)
//Storyboard Sound Samples
//Background Colour Transformations
3,100,163,162,255

[TimingPoints]
578,389.61038961039,4,2,0,50,1,0
967,-200,4,2,0,50,0,0
6811,-133.333333333333,4,2,0,60,0,0
15285,-100,4,2,0,70,0,0
20837,-100,4,1,0,30,0,0
21227,-100,4,1,0,40,0,0
21616,-100,4,1,0,50,0,0
22006,-100,4,1,0,60,0,0
22396,-100,4,2,0,70,0,0
32331,-100,4,2,0,50,0,0
34084,-100,4,2,0,70,0,0
35642,-100,4,2,0,50,0,0
37201,-100,4,2,0,70,0,0
52006,-100,4,1,0,50,0,0
53565,-66.6666666666667,4,2,0,70,0,0
55123,-90.9090909090909,4,2,0,70,0,1
59798,-90.9090909090909,4,1,0,30,0,1
60188,-90.9090909090909,4,1,0,40,0,1
60578,-90.9090909090909,4,1,0,50,0,1
60967,-90.9090909090909,4,1,0,60,0,1
61357,-90.9090909090909,4,2,0,70,0,1
67590,-100,4,2,0,70,0,0
80058,-100,4,1,0,50,0,0
81616,-200,4,2,0,70,0,1
81714,-200,4,2,0,70,0,0
82006,-90.9090909090909,4,2,0,80,0,1
86292,-90.9090909090909,4,1,0,30,0,1
86681,-90.9090909090909,4,1,0,40,0,1
87071,-90.9090909090909,4,1,0,50,0,1
87461,-90.9090909090909,4,1,0,60,0,1
87850,-90.9090909090909,4,2,0,80,0,1
94084,-200,4,2,0,50,0,0

[Colours]
Combo1 : 255,255,128
Combo2 : 0,255,128
Combo3 : 0,128,255
Combo4 : 255,128,255

[HitObjects]
500,248,578,5,0,0:0:0:0:
456,120,1162,2,0,P|337:80|288:200,1,275,0|2,0:0|0:0,0:0:0:0:
376,168,3694,5,0,0:0:0:0:
328,280,4279,2,0,P|209:319|176:160,1,325,0|4,0:0|0:0,0:0:0:0:
252,116,7201,6,0,L|408:112,1,150.000005722046,0|0,1:0|1:0,0:0:0:0:
476,164,8370,1,0,0:0:0:0:
404,216,8759,2,0,L|254:219,1,150.000005722046,0|0,1:0|1:0,0:0:0:0:
180,172,9928,5,4,0:0:0:0:
56,304,10707,1,2,0:0:0:0:
236,332,11487,5,0,1:0:0:0:
324,320,11876,1,2,0:0:0:0:
412,308,12266,2,0,L|496:316,2,75.0000028610231,0|0|4,1:2|1:2|1:2,0:0:0:0:
256,192,14603,12,4,16162,0:0:0:0:
436,196,16941,5,8,0:0:0:0:
444,36,17720,2,0,P|256:96|68:36,1,400,0|4,0:0|0:0,0:0:0:0:
76,196,20058,5,8,0:0:0:0:
208,288,20837,2,0,P|256:300|304:288,3,100
376,248,22396,5,4,0:0:0:0:
388,88,23175,1,8,0:0:0:0:
376,248,23954,2,0,P|256:380|136:248,1,400,0|4,0:0|0:0,0:0:0:0:
256,144,26292,5,4,0:0:0:0:
376,248,27071,5,4,0:0:0:0:
308,292,27461,1,4,0:0:0:0:
256,352,27850,1,4,0:0:0:0:
204,292,28240,1,4,0:0:0:0:
136,248,28629,1,4,0:0:0:0:
132,104,30772,6,0,L|28:104,2,100,2|2|2,0:0|0:0|0:0,0:0:0:0:
128,264,32331,2,0,L|24:264,2,100,2|0|2,0:0|0:0|0:0,0:0:0:0:
380,104,34084,6,0,L|484:104,2,100,2|0|6,0:0|0:0|0:0,0:0:0:0:
384,264,35642,2,0,L|488:264,2,100,2|0|2,0:0|0:0|0:0,0:0:0:0:
256,360,37201,6,0,L|256:256,1,100,2|2,0:0|0:0,0:0:0:0:
184,224,37980,2,0,P|254:79|328:224,1,400,2|4,0:0|0:0,0:0:0:0:
328,304,39928,1,0,0:0:0:0:
256,344,40318,1,4,0:0:0:0:
184,304,40707,1,4,0:0:0:0:
184,224,41097,6,0,P|112:192|8:228,2,150,4|2|8,0:0|0:0|0:0,0:0:0:0:
216,152,42655,2,0,L|140:20,2,150,0|2|8,1:0|0:0|0:0,0:0:0:0:
296,152,44214,2,0,L|370:22,2,150,0|2|8,1:0|0:0|0:0,0:0:0:0:
327,224,45772,2,0,P|394:192|468:203,2,150,0|2|8,1:0|0:0|0:0,0:0:0:0:
292,296,47331,6,0,B|340:320|376:290|376:290|456:312,2,150,4|2|8,0:0|0:0|0:0,0:0:0:0:
220,296,48889,2,0,B|172:320|136:290|136:290|56:312,2,150,0|2|8,1:0|0:0|0:0,0:0:0:0:
184,228,50448,5,4,0:0:0:0:
216,156,50837,2,0,L|188:56,2,100,4|4|4,0:0|0:0|0:0,0:0:0:0:
256,224,52006,1,4,0:0:0:0:
296,156,52396,2,0,L|322:59,2,100,4|4|4,0:0|0:0|0:0,0:0:0:0:
328,228,53565,1,0,0:0:0:0:
448,244,55123,5,4,0:0:0:0:
496,168,55513,2,0,P|412:160|368:284,1,220.000006713867,8|8,0:0|0:0,0:0:0:0:
424,332,56681,2,0,L|88:332,1,330.000010070801,0|0,0:0|1:0,0:0:0:0:
64,244,58240,5,4,0:0:0:0:
16,168,58629,2,0,P|100:160|144:284,1,220.000006713867,8|8,0:0|0:0,0:0:0:0:
200,340,59798,6,0,L|312:340,3,110.000003356934
361,269,61357,5,4,0:0:0:0:
336,184,61746,2,0,P|436:220|432:320,1,220.000006713867,8|8,0:0|0:0,0:0:0:0:
361,269,62915,2,0,B|292:272|256:296|256:296|220:272|150:269,2,220.000006713867,0|0|4,0:0|0:0|0:0,0:0:0:0:
256,128,65253,1,4,0:0:0:0:
150,269,66032,6,0,P|82:277|24:192,2,165.000005035401,4|4|4,0:0|0:0|0:0,0:0:0:0:
200,208,67590,1,4,0:0:0:0:
228,76,69149,6,0,B|152:76|152:76|88:76|88:164|152:164|152:164|236:164,1,300,4|0,0:0|0:0,0:0:0:0:
296,208,70707,2,0,B|372:208|372:208|436:208|436:296|372:296|372:296|288:296,1,300,4|0,0:0|0:0,0:0:0:0:
218,296,72266,6,0,B|140:296|140:296|76:296|76:208|140:208|140:208|216:208,1,300,4|0,0:0|0:0,0:0:0:0:
281,164,73824,2,0,B|360:164|360:164|424:164|424:76|360:76|360:76|284:76,1,300,4|4,0:0|0:0,0:0:0:0:
204,76,75383,6,0,P|132:80|48:144,2,150,4|2|0,0:0|0:0|0:0,0:0:0:0:
216,156,76941,2,0,P|180:216|104:252,2,150,0|2|0,1:0|0:0|0:0,0:0:0:0:
295,155,78500,2,0,P|335:218|401:251,2,150,4|4|4,0:0|0:0|0:0,0:0:0:0:
307,76,80058,2,0,P|382:80|445:119,2,150,4|4|4,0:0|0:0|0:0,0:0:0:0:
256,4,81616,5,0,1:0:0:0:
184,52,82006,6,0,P|152:136|32:120,1,220.000006713867,4|8,0:0|0:0,0:0:0:0:
100,68,83175,2,0,B|136:288|136:288|184:328|168:384,1,330.000010070801,2|2,0:0|0:0,0:0:0:0:
256,380,84733,5,0,1:0:0:0:
328,332,85123,2,0,P|360:248|480:264,1,220.000006713867,0|8,0:0|0:0,0:0:0:0:
412,316,86292,2,0,L|348:204,3,110.000003356934
316,144,87850,5,4,0:0:0:0:
360,64,88240,2,0,B|296:44|256:80|256:80|216:44|152:64,1,220.000006713867,8|8,0:0|0:0,0:0:0:0:
196,144,89409,2,0,P|256:303|316:144,1,440.000013427735,2|4,0:0|0:0,0:0:0:0:
256,304,91746,1,4,0:0:0:0:
196,144,92526,6,0,P|124:144|64:208,2,165.000005035401,4|4|4,0:0|0:0|0:0,0:0:0:0:
256,204,94084,5,4,1:0:0:0:
360,324,94668,2,0,P|468:316|400:168,1,325,2|2,0:0|0:0,0:0:0:0:
256,204,97980,1,2,0:0:0:0:
152,324,98759,6,0,L|64:324,2,75,2|2|2,0:0|0:0|0:0,0:0:0:0:
232,324,100318,1,4,0:1:0:0:
